#TITLE:Morning Dew;
#SUBTITLE:;
#ARTIST:Anders Enger Jensen;
#TITLETRANSLIT:;
#SUBTITLETRANSLIT:;
#ARTISTTRANSLIT:;
#GENRE:;
#CREDIT:;
#BANNER:morningdewbn.png;
#BACKGROUND:morningdewbg.png;
#LYRICSPATH:;
#CDTITLE:;
#MUSIC:Morning Dew.ogg;
#OFFSET:-0.215475;
#SAMPLESTART:72.359940;
#SAMPLELENGTH:14.759992;
#SELECTABLE:YES;
#BPMS:0.000000=128.000000
;
#STOPS:
;
#BGCHANGES:0.000=Morning Dew1.mp4=1.000=1=0=1===CrossFade==,
53.500=purplestars.mp4=1.000=0=1=1=StretchRewind==CrossFade_Fastest==,
88.000=relaxingpurple.mp4=1.000=0=1=1=StretchRewind==CrossFade_Fastest==,
120.000=purplestars.mp4=1.000=0=0=1===CrossFade_Fastest==,
144.000=relaxingpurple.mp4=1.000=0=0=1===CrossFade_Fastest==,
152.000=morningdewbg.png=1.000=0=0=1=====,
153.000=yellow flash=2.000=0=0=1=====,
153.250=morningdewbg.png=1.000=0=0=1=====,
154.000=yellow flash=2.000=0=0=1=====,
154.250=Morning Dew2.mp4=1.000=0=0=1=====,
218.000=morningdewbg.png=1.000=1=0=1===CrossFade==,
99999=-nosongbg-=1.000=0=0=0 // don't automatically add -songbackground-
;
#KEYSOUNDS:;
#ATTACKS:;

//---------------dance-single - C. Picardy----------------
#NOTES:
     dance-single:
     :
     Beginner:
     1:
     0.094210,0.182309,0.086017,0.019115,0.000000,69.000000,60.000000,9.000000,2.000000,0.000000,0.000000,0.094210,0.182309,0.086017,0.019115,0.000000,69.000000,60.000000,9.000000,2.000000,0.000000,0.000000:
0000
0000
0000
0000
,
0000
0000
0000
0000
,
0000
0000
0000
0000
,
1000
0000
0000
0000
,
0001
0000
0000
0000
,
1000
0000
0000
0000
,
1001
0000
0000
0000
,
0100
0000
0000
0000
,
0100
0000
0000
0000
,
0010
0000
0000
0000
,
0010
0000
0000
0000
,
1000
0000
0000
0000
,
0001
0000
0000
0000
,
0100
0000
0000
0000
,
0110
0000
1000
0000
,
0000
0000
0001
0000
,
1000
0000
1000
0000
,
1000
0000
0000
0000
,
0001
0000
0000
0000
,
0010
0000
0010
0000
,
0010
0000
0000
0000
,
0100
0000
0000
0000
,
1001
0000
0100
0000
,
0000
0000
0001
0000
,
0001
0000
0001
0000
,
0001
0000
0000
0000
,
1000
0000
0000
0000
,
0010
0000
0000
0000
,
0100
0000
0000
0000
,
0001
0000
0000
0000
,
2002
0000
3003
0000
,
1000
0000
0000
0000
,
0001
0000
0000
0000
,
1000
0000
0000
0000
,
0001
0000
0000
0000
,
0100
0000
0000
0000
,
0010
0000
0010
0000
,
0010
0000
0010
0000
,
0110
0000
0110
0000
,
0000
0000
1000
0000
,
0000
0000
0001
0000
,
0000
0000
1000
0000
,
0000
0000
0001
0000
,
0000
0000
0100
0000
,
0000
0000
0010
0000
,
0000
0000
0100
0000
,
0000
0000
1001
0000
,
0000
0000
1000
0000
,
0000
0000
0001
0000
,
0000
0000
0100
0000
,
0000
0000
0110
0000
,
0000
0000
1000
0000
,
0000
0000
0001
0000
,
0000
0000
0100
0000
,
0000
0000
1001
0000
;

//---------------dance-single - C. Picardy----------------
#NOTES:
     dance-single:
     :
     Challenge:
     10:
     0.625333,1.299580,0.181592,0.458759,0.434866,458.000000,439.000000,19.000000,48.000000,28.000000,6.000000,0.625333,1.299580,0.181592,0.458759,0.434866,458.000000,439.000000,19.000000,48.000000,28.000000,6.000000:
// measure 0
0000
0000
0000
0000
,  // measure 1
0000
0000
0000
0000
,  // measure 2
1001
0000
1000
0002
0000
2003
0000
3100
,  // measure 3
0010
0010
0100
0020
0000
0230
0000
1300
,  // measure 4
0100
0100
1000
0200
0000
0320
0000
0031
,  // measure 5
0010
0010
0001
2000
0000
3020
0000
0130
,  // measure 6
M1M1
0000
0001
0100
1000
0100
0001
0100
,  // measure 7
1000
0100
0001
0001
0010
0010
0100
2000
,  // measure 8
0000
3010
1M1M
0000
1000
0100
0001
0100
,  // measure 9
1000
0000
0100
0010
0100
0000
1000
0000
0001
0000
0100
0010
0100
0001
0010
0000
,  // measure 10
0011
0000
2000
0200
0000
0010
0000
0001
,  // measure 11
3300
0000
0001
0100
0010
1000
0002
0200
,  // measure 12
0000
0010
1000
0303
0001
0001
1000
0200
,  // measure 13
0000
0000
1300
0100
1000
0100
0010
0001
0010
0001
0010
0100
1000
0100
0010
0000
,  // measure 14
MM11
0000
11MM
0000
0001
0100
0010
2000
,  // measure 15
0000
0010
0010
0000
3001
0000
0001
1000
,  // measure 16
0010
0000
2000
0000
0000
0000
3100
0010
0100
0010
0100
0000
1000
0000
0100
1000
,  // measure 17
0000
0000
1001
0000
0000
0000
0100
0010
0100
0000
1000
0000
0001
0000
0100
0000
,  // measure 18
0101
0000
1010
0000
1000
0100
0010
0002
,  // measure 19
0000
0000
0100
0200
0003
0000
0010
0320
,  // measure 20
0000
0000
1000
0000
0001
0000
0130
0020
,  // measure 21
0000
0000
1030
0000
0MM1
0000
1000
0001
1MM0
0000
0001
1000
0MM1
0000
0100
0010
,  // measure 22
0100
0000
1001
0000
1000
0100
0010
0002
,  // measure 23
0000
0010
0013
0000
0001
0100
0010
1000
,  // measure 24
0100
0000
0020
0000
0000
0000
0031
0100
0001
0100
0001
0000
1000
0000
1000
0010
,  // measure 25
0000
0000
0000
0000
2000
0000
0000
0000
0020
0000
0000
3000
2000
0000
0000
0030
0002
0000
0000
3000
0020
0000
0000
0003
0200
0000
0000
0030
2000
0000
0000
0300
,  // measure 26
0200
0000
0000
3300
0011
0000
0000
0000
0001
0000
0100
0000
0010
0000
2000
0000
,  // measure 27
0000
0000
0000
0000
3200
0000
2000
0000
0000
0000
0000
3300
0002
0000
2000
0000
,  // measure 28
0000
0000
0010
0000
0010
0000
3003
0120
,  // measure 29
0000
0000
0130
0010
0100
0010
0100
0000
0001
0000
0001
0000
1000
0000
1000
0010
,  // measure 30
0200
0000
0001
0000
0010
0000
0302
4000
,  // measure 31
0000
0000
3003
0000
0010
1000
0100
0000
0010
0000
0010
0000
0200
0000
4000
0000
,  // measure 32
0000
3300
0002
MM40
0000
0033
00MM
0101
,  // measure 33
0M0M
0110
0MM0
1010
M0M0
1100
MM00
0012
,  // measure 34
M1M0
0000
0000
0000
0103
0000
0000
0000
0001
0010
0100
0010
0001
0010
0100
2000
,  // measure 35
0000
0000
0000
0100
0000
0000
0100
0000
0000
0000
0000
0000
3100
0000
0000
1000
0100
0010
0001
0010
0100
1000
0100
0010
,  // measure 36
0001
0010
0001
0010
0001
0010
0100
1000
0100
1000
0100
1000
0001
1000
0001
1000
0001
1000
0001
0100
0001
0100
0001
0100
,  // measure 37
0010
0100
0010
0100
0010
0100
0010
1000
0010
1000
0010
1000
0100
1000
0100
1000
0100
1000
0001
1000
0001
1000
0001
1000
,  // measure 38
0001
0100
0001
0100
0000
0000
0101
0000
0000
0000
0000
0000
2010
0000
0000
0000
0000
0000
3001
0000
0000
0100
0000
0000
,  // measure 39
1000
0100
0001
0010
1000
0010
0001
0100
,  // measure 40
1000
1000
0100
0010
1000
0100
0010
1000
,  // measure 41
0010
0000
0001
0000
0010
0000
0100
0000
1000
0000
0001
0100
0010
0000
1000
0100
,  // measure 42
0010
0000
0001
0010
0100
0000
1000
0001
0100
0000
0010
0000
1000
0000
0100
0000
,  // measure 43
0010
0100
1000
0020
0100
0130
0001
0010
,  // measure 44
0001
0000
0100
0000
0010
0000
1000
0010
1000
0000
0100
0000
0010
0000
0001
0010
,  // measure 45
0001
0000
1000
0000
0001
0000
0100
0000
0010
0000
1000
0010
1000
0010
0100
0001
,  // measure 46
0100
0001
1000
0100
0010
0100
1000
0001
0100
0000
0010
0000
1000
0000
1000
0000
,  // measure 47
0001
0100
1000
0100
0001
0010
1000
0010
,  // measure 48
0001
0001
0100
0010
1000
0010
0100
0010
,  // measure 49
1000
0000
0100
0000
0001
0000
0100
0000
1000
0000
0001
0100
0010
0000
1000
0100
,  // measure 50
0010
0000
0001
0100
0010
0000
1000
0010
0100
0000
0001
0000
0010
0000
0020
0000
,  // measure 51
0100
0230
1000
2300
0001
3001
1000
0010
,  // measure 52
0100
0100
0001
0010
1000
0010
0001
0100
,  // measure 53
1000
0000
0100
0000
0001
0000
0010
0000
0100
0000
1000
0100
0010
0001
0010
0100
,  // measure 54
1000
0001
1000
0001
0100
0010
0100
0010
0200
0000
0000
0000
0001
0000
0000
0000
,  // measure 55
0001
0010
0310
0000
;

//---------------dance-single - C. Picardy----------------
#NOTES:
     dance-single:
     :
     Easy:
     3:
     0.259418,0.315397,0.133805,0.267610,0.000000,190.000000,176.000000,14.000000,28.000000,0.000000,0.000000,0.259418,0.315397,0.133805,0.267610,0.000000,190.000000,176.000000,14.000000,28.000000,0.000000,0.000000:
0000
0000
0000
0000
,
0000
0000
0000
0000
,
0001
0001
0000
1000
,
0001
0001
0000
0001
,
1000
1000
0000
0010
,
0020
0000
0000
0030
,
1001
1000
0001
1000
,
0010
1000
0010
1000
,
0001
1000
0001
1000
,
0100
0010
0100
0010
,
0001
0010
0001
0010
,
0100
1000
0100
1000
,
0010
1000
0010
1000
,
0002
0100
0100
0103
,
1001
0000
1000
0100
,
2000
0000
3001
0000
,
0100
0000
0010
0000
,
1000
1000
0001
0100
,
0110
0000
0001
0100
,
0020
0000
2030
0000
,
3002
0000
0003
0000
,
0100
0010
1000
0001
,
1001
1001
1000
0100
,
0020
0000
0031
0100
,
0010
0000
1000
0001
,
0000
1000
1000
1000
,
1000
0001
0010
0100
,
2000
0000
3002
0000
,
0023
0000
0000
0030
,
0001
0100
0010
1000
,
0220
0000
0330
1000
,
0010
1000
1000
0001
,
2000
0000
3002
0000
,
0103
0010
0100
0010
,
2002
3003
0100
0100
,
0200
0000
0300
1000
,
0001
0001
1000
1000
,
0001
0010
0100
1000
,
0110
0110
2002
3003
,
0001
1000
0001
0100
,
0100
0010
2000
0010
,
3010
0100
0001
1000
,
0100
0010
0100
2000
,
3002
0203
0302
1000
,
1003
0010
2000
0000
,
3002
0000
1003
0100
,
0010
0001
1001
0001
,
1000
0001
0010
0100
,
0100
1000
0010
1000
,
0010
0100
0001
0100
,
0010
1000
0110
0001
,
0001
1000
1000
0100
,
0010
0100
1000
0001
,
0100
0001
1000
0010
,
0010
1001
0220
0000
,
0330
0000
0000
0000
;

//---------------dance-single - C. Picardy----------------
#NOTES:
     dance-single:
     :
     Hard:
     8:
     0.522931,0.528051,0.191150,0.210265,0.086017,383.000000,363.000000,20.000000,22.000000,12.000000,0.000000,0.522931,0.528051,0.191150,0.210265,0.086017,383.000000,363.000000,20.000000,22.000000,12.000000,0.000000:
0000
0000
0000
0000
,
0000
0000
0000
0000
,
1000
0000
0100
1000
0000
0100
0000
1000
,
0001
0001
0100
0001
0000
0100
0000
0001
,
1000
1000
0100
1000
0000
0001
0000
0100
,
0220
0000
0000
0330
,
1MM1
0000
1000
0100
0010
0100
1000
0100
,
0010
0100
1000
1000
0010
0010
0100
0001
,
0010
0001
0100
0001
0010
0001
0100
0001
,
1000
0001
0100
0001
1000
0001
0100
0010
,
1001
0000
0001
0100
0010
0010
1000
0020
,
0000
0000
1030
1000
0100
0100
0010
0001
,
0000
0001
0010
0000
0001
0001
0100
0020
,
0000
0000
0130
0010
0100
0010
0100
0000
0010
0000
1000
0000
0100
0000
1000
0000
,
1010
0000
1001
0000
1000
0010
0010
2000
,
0010
0000
0010
0000
3001
0000
0001
0010
,
0100
0000
1000
0000
0000
0000
0100
0000
0010
0000
0001
0000
0010
0000
0001
0010
,
0000
0001
0001
1000
1000
0100
0010
0010
,
0001
0000
1001
0000
1000
0001
0200
0010
,
0310
0000
2000
0100
3100
0000
0020
0001
,
0032
0000
1000
0000
0103
0000
0100
0020
,
0000
0000
1000
0000
1030
0000
0001
1000
0001
0000
1000
0000
0100
0000
1000
0001
,
1000
0000
0110
0000
0001
0010
0100
2000
,
0010
0000
0001
0000
3010
0000
1000
0001
,
0100
0000
0010
0000
0000
0000
1000
0000
0001
0000
0001
0000
0100
0000
0001
0100
,
0000
0100
0010
1000
0010
1000
0100
0010
,
0001
0000
1001
0000
1000
0100
1000
0010
,
0200
0000
0301
1000
2000
0000
3200
0010
,
0010
0000
1000
0000
0310
0000
0001
0020
,
0000
0000
0031
0010
0001
0010
0001
0000
1000
0000
0100
0000
0010
0000
0001
0000
,
2MM1
0000
0010
0000
3100
0000
0001
0100
,
0001
0000
1000
0100
1000
1000
0100
0010
,
0020
0000
0031
0001
0200
0000
0310
0110
,
0000
1010
0000
0101
0000
1100
0000
0010
,
0210
0000
0000
0000
0310
0000
0000
0000
0001
0000
0010
0000
0100
0000
1000
0001
,
0000
1000
1000
0000
0001
0100
0010
0100
,
0001
0100
0000
0000
0100
0010
0000
0000
0010
1000
0000
0000
1000
0100
0000
0000
,
1000
0001
1000
0000
0001
0000
0001
0000
0100
0000
0100
0000
0010
0000
0100
0000
,
0010
0000
1MM1
0000
0110
0000
0001
0010
,
0100
0010
0001
0010
0100
1000
0100
0010
,
0100
0100
1000
0100
0010
0100
1000
0010
,
0100
0001
0010
0001
0100
0010
0100
0001
,
0010
0100
0010
0001
M1M1
0000
0001
0100
,
1000
0100
0001
0100
1000
0100
0010
1000
,
0100
0100
0001
0100
1000
0100
0001
0100
,
1000
0000
0100
0000
0001
0000
0100
0000
1000
0000
0001
0100
0001
0100
0001
0000
,
0010
0100
1000
0010
1MM1
0000
0010
1000
,
0100
1000
0010
1000
0100
0010
0001
0001
,
0010
0010
0100
0010
0001
0100
0010
0100
,
0001
0100
0010
0100
0001
0010
0100
1000
,
0100
0010
0100
1000
1MM1
0000
0010
0100
,
1000
0100
0010
0100
1000
0100
0010
0010
,
0001
0001
0100
0001
1000
0001
0100
0010
,
1000
0000
0001
0000
0100
0000
0002
0000
0000
0000
1003
0100
1000
0100
1000
0000
,
0100
0010
0001
0100
0220
0000
0000
0000
,
0000
0330
0000
0000
;

//---------------dance-single - C. Picardy----------------
#NOTES:
     dance-single:
     :
     Medium:
     5:
     0.393222,0.448844,0.305840,0.353627,0.000000,288.000000,256.000000,32.000000,37.000000,0.000000,0.000000,0.393222,0.448844,0.305840,0.353627,0.000000,288.000000,256.000000,32.000000,37.000000,0.000000,0.000000:
0000
0000
0000
0000
,
0000
0000
0000
0000
,
1000
0000
1000
1000
0000
2000
0000
0000
,
3001
0000
0001
0001
0000
0002
0000
0000
,
1003
0000
0100
0100
0000
0010
0000
0001
,
2002
0000
0000
3003
,
1001
0000
1000
0000
0001
0000
0100
0002
,
0000
0000
0103
0000
0010
0000
1000
0010
,
0000
0010
1000
0000
0001
0000
1000
0000
,
0100
0010
0100
0000
1000
0001
1000
0000
,
0110
0000
1000
2000
0000
3002
0000
2003
,
0000
0000
3100
0000
0100
0010
0100
0020
,
0000
0000
0130
0000
1000
0000
0001
2000
,
0000
0001
3001
0000
0100
0010
0100
0000
,
1001
0000
1001
0000
1000
0100
1000
0200
,
0000
0010
0310
0001
,
1000
0001
0000
1000
0001
1000
0000
0010
,
0010
0000
0100
0000
0010
1000
0100
0000
,
1001
0000
0110
0000
0001
0100
0001
0100
,
0010
0000
0010
1000
0100
0000
0010
0100
,
2000
0000
0100
0000
3100
0000
0010
0200
,
0000
0320
0000
0032
0000
0203
0000
0310
,
0110
0000
1001
0000
1000
0001
1000
0002
,
0000
0100
0103
0010
,
1000
0010
1000
0000
0001
0100
0001
0000
,
1000
0000
0100
0000
0010
0001
0010
0001
,
0010
0000
0011
0000
1000
1000
0100
0020
,
0000
0000
0031
0002
0000
0000
0103
0200
,
0000
0000
0010
0000
0310
0000
1000
0002
,
0000
2003
0000
3020
0000
0130
0010
0000
,
2001
0000
0001
0000
3001
0000
0100
0020
,
0000
0000
1030
0000
1001
0000
0010
0200
,
0000
0000
1300
0002
0000
0000
0003
1100
,
0000
0011
0000
0101
0000
1100
0000
2002
,
0000
3003
1001
0000
0001
0100
0001
0200
,
0000
0000
0310
0000
1000
0100
0010
0000
,
0011
1100
0101
1100
,
0001
1000
0001
1000
0010
0100
0010
0100
,
0010
1001
0110
1000
,
0001
0100
0010
0000
1000
0000
0001
0100
,
0001
0100
0001
0000
1000
0000
0100
0000
,
0010
0100
1000
0000
0001
0100
0010
0000
,
1000
0100
0010
0000
0101
0000
1100
0000
,
0010
0100
0010
0000
1000
0000
0010
1000
,
0010
1000
0010
0000
2000
0000
3002
0000
,
0203
0000
0320
0000
2030
0000
3100
0010
,
0100
0010
0100
0000
0011
0000
0101
0000
,
0010
0000
1000
0000
0001
0000
1000
0100
,
1000
0100
1000
0000
0001
0000
0011
0000
,
1000
0000
1010
0000
0010
1000
0100
0000
,
0010
0001
0100
0000
0110
0000
1000
0000
,
0100
0010
0100
0000
1000
0000
0001
0100
,
0001
0100
0001
0000
0010
0000
0100
0000
,
0010
0000
0001
0000
1000
0000
0001
0010
,
0100
1000
0100
0000
2002
0000
0000
0000
,
0000
3003
0000
0000
;
