#TITLE:Moon Beach;
#SUBTITLE:(Streets of Rage Remake);
#ARTIST:Yuzo Koshiro feat. Groovemaster303;
#TITLETRANSLIT:;
#SUBTITLETRANSLIT:;
#ARTISTTRANSLIT:;
#GENRE:;
#CREDIT:;
#BANNER:moonbeachbn.png;
#BACKGROUND:moonbeach.png;
#LYRICSPATH:;
#CDTITLE:;
#MUSIC:moonbeach.ogg;
#OFFSET:-0.047446;
#SAMPLESTART:38.194031;
#SAMPLELENGTH:15.819999;
#SELECTABLE:YES;
#BPMS:0.000000=124.999992
;
#STOPS:
;
#BGCHANGES:16.000=beachscenes.mp4=1.000=1=0=1=SongBgWithMovieViz==CrossFade==,
32.000=beachscenes.mp4=1.000=1=1=1=StretchRewind==CrossFade==,
247.000=moonbeach.png=1.000=0=0=1===CrossFade_Faster==,
99999=-nosongbg-=1.000=0=0=0 // don't automatically add -songbackground-
;
#KEYSOUNDS:;
#ATTACKS:;

//---------------dance-single - C. Picardy----------------
#NOTES:
     dance-single:
     :
     Beginner:
     1:
     0.070576,0.154489,0.075360,0.200961,0.000000,59.000000,50.000000,9.000000,24.000000,0.000000,0.000000,0.070576,0.154489,0.075360,0.200961,0.000000,59.000000,50.000000,9.000000,24.000000,0.000000,0.000000:
0000
0000
0000
0000
,
0000
0000
0000
0000
,
0000
0000
0000
0000
,
0000
0000
0000
0000
,
0020
0000
0000
0030
,
0000
0000
0000
0000
,
0200
0000
0000
0300
,
0000
0000
0000
0000
,
2000
0000
0000
3000
,
0000
0000
0000
0000
,
0002
0000
0000
0003
,
0000
0000
0000
0000
,
1000
0000
0000
0000
,
0001
0000
0000
0000
,
0010
0000
0000
0000
,
0100
0000
0000
0000
,
1001
0000
0000
0000
,
1001
0000
0000
0000
,
0110
0000
0000
0000
,
0110
0000
0000
0000
,
1000
0000
0000
0000
,
0001
0000
0000
0000
,
0100
0000
0000
0000
,
0010
0000
0000
0000
,
1000
0000
0000
0000
,
0010
0000
0000
0000
,
0100
0000
0000
0000
,
0001
0000
0000
0000
,
2000
0000
3000
0000
,
0002
0000
0003
0000
,
1000
0000
0000
0000
,
0010
0000
0000
0000
,
0200
0000
0300
0000
,
0020
0000
0030
0000
,
0000
0000
0000
0000
,
1000
0000
0000
0000
,
0002
0003
0000
0000
,
2000
3000
0000
0000
,
0020
0030
0000
0000
,
0200
0300
0000
0000
,
2000
3000
0000
0000
,
0002
0003
0000
0000
,
0020
0030
0000
0000
,
0200
0300
0000
0000
,
2002
0000
0000
3003
,
0000
0000
0000
0000
,
2002
0000
0000
3003
,
0000
0000
0000
0000
,
0220
0000
0000
0330
,
0000
0000
0000
0000
,
2002
0000
0000
3003
,
0000
0000
0000
0000
,
1000
0000
0000
0000
,
1000
0000
0000
0000
,
0001
0000
0000
0000
,
0001
0000
0000
0000
,
0010
0000
0000
0000
,
0010
0000
0000
0000
,
0100
0000
0000
0000
,
0100
0000
0000
0000
,
0010
0000
0000
0000
,
1000
0000
1001
0000
;

//---------------dance-single - C. Picardy----------------
#NOTES:
     dance-single:
     :
     Easy:
     3:
     0.191392,0.232675,0.066987,0.360056,0.000000,160.000000,152.000000,8.000000,43.000000,0.000000,0.000000,0.191392,0.232675,0.066987,0.360056,0.000000,160.000000,152.000000,8.000000,43.000000,0.000000,0.000000:
0000
0000
0000
0000
,
0000
0000
0000
0000
,
0000
0000
0000
0000
,
0000
0000
0000
0000
,
0020
0000
0030
0000
,
2000
0000
3000
0000
,
0002
0000
0003
0000
,
0200
0000
0300
0000
,
0100
0000
0100
0000
,
0001
0000
0001
0000
,
1000
0000
1000
0000
,
0010
0000
0100
0000
,
0001
0001
0002
0003
,
1000
1000
2000
3000
,
0010
0010
0020
0030
,
0100
0100
0010
0000
,
1000
1000
0020
0030
,
0100
0100
0002
0003
,
0010
0010
0200
0300
,
0100
0100
2000
3000
,
0001
0100
0002
0003
,
0100
0010
0200
0300
,
1000
0010
2000
3000
,
0100
0001
0200
0300
,
0100
0010
2000
3000
,
0001
1000
0200
0300
,
0010
0001
0200
0300
,
0010
1000
0002
1003
,
0001
0001
0001
0000
,
0100
0100
0100
0000
,
0020
0030
2000
3000
,
0002
0003
0200
0300
,
1000
1000
1000
0000
,
0010
0010
0010
0000
,
0200
0300
0020
0030
,
2000
3000
0002
0003
,
1000
0000
0001
0000
,
0100
0001
1000
0001
,
0200
0300
0020
0030
,
2000
0000
0000
0001
,
3002
0003
0002
0003
,
1000
0010
1000
0001
,
2000
3000
0200
0300
,
0010
0100
0010
0001
,
1000
0000
1001
0000
,
0100
0000
0110
0000
,
1000
0000
1010
0000
,
0100
0000
0101
0000
,
1000
0000
1010
0000
,
0001
0000
0011
0000
,
1000
0000
0001
0000
,
0100
0001
1000
0001
,
2000
3000
1000
1000
,
0020
0030
0010
0010
,
0200
0300
0001
0001
,
0020
0030
0100
1000
,
0002
0103
0000
0010
,
2000
3010
0000
0100
,
0002
0013
0000
0100
,
0010
0100
0001
1000
,
0020
0030
0100
1001
,
0020
0030
1000
1001
;

//---------------dance-single - C. Picardy----------------
#NOTES:
     dance-single:
     :
     Medium:
     5:
     0.316992,0.361940,0.133974,0.360056,0.000000,265.000000,249.000000,16.000000,43.000000,0.000000,0.000000,0.316992,0.361940,0.133974,0.360056,0.000000,265.000000,249.000000,16.000000,43.000000,0.000000,0.000000:
0000
0000
0000
0000
,
0000
0000
0000
0000
,
0000
0000
0000
0000
,
0000
0000
0000
0000
,
0020
0030
0001
0100
,
0020
0030
1000
0010
,
0200
0300
0001
1000
,
2000
3000
0010
0100
,
0001
1000
0001
1000
,
0100
1000
0100
1000
,
0010
0100
0001
1000
,
0001
0000
0001
0000
0001
1000
0001
1000
,
0001
0001
0010
0200
,
1300
1000
0100
0010
,
0001
1000
0010
0020
,
0130
0001
1000
0100
,
0010
0000
0001
0000
1000
0001
2000
0000
,
3010
0000
0100
0000
0001
0100
0001
0000
,
1000
1000
0010
0200
,
0301
0000
0001
0000
1000
0000
0100
1000
,
0100
0000
0010
0000
0001
0010
0002
0000
,
1003
0000
0010
0000
0100
0000
0001
1000
,
0100
0000
0100
0000
0100
1000
0002
0000
,
1003
0000
0010
0000
0100
0000
0010
0100
,
0010
0000
1000
0000
0001
0100
0020
0000
,
0130
0000
0010
0000
1000
0010
1000
0000
,
0001
0000
0001
0000
1000
0100
0020
0000
,
0031
0000
0100
0000
0001
0100
0001
1000
,
0001
0001
0020
0030
,
0100
1000
1000
0010
,
0100
0000
0001
0100
0001
0000
0001
0000
,
1000
0000
0100
0000
1000
0100
1000
0100
,
1000
1000
0020
0030
,
0100
0000
0010
0000
1000
0000
1000
0010
,
1000
0010
0100
0110
,
0001
0000
1000
0000
1000
0100
0010
0001
,
0200
0010
0001
0310
,
1000
1010
0100
0101
,
0002
0203
0320
2030
,
3200
0000
0000
1000
,
1300
0110
0010
1001
,
0002
0000
0023
0000
0230
0000
2300
3000
,
1001
0101
0110
1010
,
2000
0000
3000
0000
0010
0100
0010
0100
,
0020
0030
1000
0000
,
0001
0100
0010
1000
,
2020
3030
0202
0303
,
0001
0000
1000
0000
0100
0010
0001
0000
,
2000
0000
3000
0000
0010
0100
0010
0000
,
2000
0000
3000
0000
0100
0010
0100
0000
,
0002
0000
0003
0000
1000
0100
1000
0000
,
0010
0000
0010
0000
0010
0100
0010
0100
,
0020
0030
2000
3000
,
0020
0230
0302
2003
,
3010
1010
0100
0101
,
2002
0000
3003
0100
,
0100
1000
0100
0000
0010
0100
0010
0000
,
0001
0010
0001
0000
1000
0010
1000
0000
,
0001
0100
0001
0000
1000
0100
1000
0000
,
0001
0000
0001
0000
1000
0001
1000
0001
,
1000
0000
0100
0000
0010
0000
0022
0033
,
0100
0000
0110
0000
0100
0001
1000
0000
;

//---------------dance-single - C. Picardy----------------
#NOTES:
     dance-single:
     :
     Hard:
     7:
     0.398334,0.439498,0.142348,0.267948,0.150721,333.000000,316.000000,17.000000,32.000000,0.000000,0.000000,0.398334,0.439498,0.142348,0.267948,0.150721,333.000000,316.000000,17.000000,32.000000,0.000000,0.000000:
// measure 0
0000
0000
0000
0000
,  // measure 1
0000
0000
0000
0000
,  // measure 2
0000
0000
0000
0000
,  // measure 3
0000
0000
0000
0000
,  // measure 4
0002
0000
0103
0000
0010
0010
0010
0000
,  // measure 5
2000
0000
3100
0000
1000
1000
1000
0000
,  // measure 6
0020
0000
0130
0000
0001
0001
0001
0000
,  // measure 7
0020
0000
0031
0000
0100
0100
0100
0000
,  // measure 8
0001
0100
0001
0000
0001
0100
0010
0000
,  // measure 9
0010
1000
0010
0000
0010
1000
0100
0000
,  // measure 10
0100
0000
1000
0000
0100
0000
0000
0100
0000
1000
0000
0001
0000
0000
0100
0000
,  // measure 11
0001
0100
0001
1000
0001
0100
0010
1000
,  // measure 12
0100
0000
0110
0000
0010
0001
0100
0000
,  // measure 13
0010
0000
1010
0000
0100
0001
1000
0001
,  // measure 14
0100
0000
0110
0000
0010
1000
0100
0000
,  // measure 15
0010
0110
0010
0011
,  // measure 16
0001
1000
0100
0000
1000
0010
1000
0000
,  // measure 17
0001
0100
0001
0000
1000
0010
0100
0010
,  // measure 18
1000
0000
0001
0000
0100
0001
0010
0000
,  // measure 19
1000
0000
1000
0000
0100
0010
0001
0010
,  // measure 20
0100
1000
0000
0100
0000
0000
0010
0000
0000
0000
0001
0000
1001
0000
0000
0000
,  // measure 21
0100
0001
0000
0100
0000
0000
0010
0000
0000
0000
1000
0000
0001
0000
0000
0000
,  // measure 22
0100
0001
0000
0100
0000
0000
0010
0000
0000
0000
1000
0000
0100
0000
0000
0000
,  // measure 23
0010
1000
0000
0010
0000
0000
0100
0000
0000
0000
0001
0000
0100
0000
0000
0000
,  // measure 24
1000
0001
0000
0100
0000
0000
0001
0000
1000
0000
0100
0000
1001
0000
0000
0000
,  // measure 25
1000
0001
0000
0100
0000
0000
0001
1000
0000
0000
0100
0000
1100
0000
0000
0000
,  // measure 26
0010
0001
0000
0010
0000
0000
0100
1000
0000
0100
0000
0000
0020
0000
0000
0000
,  // measure 27
0031
1000
0100
1000
0010
0100
0001
1000
,  // measure 28
0001
0000
0000
0000
0001
0000
0000
0002
0000
0000
0000
0000
0003
0000
0000
0000
,  // measure 29
1000
0000
0000
0000
0010
0000
0000
0020
0000
0000
0000
0000
1030
0000
0000
0000
,  // measure 30
0001
0000
0100
0000
0010
0000
0100
0000
0001
0000
0000
1000
0000
0000
0000
0000
,  // measure 31
0100
0000
0100
1000
0100
0010
0001
0010
,  // measure 32
0100
0000
0000
0000
1000
0000
0000
2000
0000
0000
0000
0000
3001
0000
0000
0000
,  // measure 33
0010
0000
0001
0000
0010
0001
0000
0010
0000
0000
0000
0000
0001
0000
0000
0001
,  // measure 34
0000
0000
0100
0000
0010
0000
1000
0000
0100
0000
0000
0100
0000
0000
0000
0000
,  // measure 35
0000
0010
0001
0010
0100
1000
0100
0010
,  // measure 36
0002
0010
1000
0103
,  // measure 37
0002
0203
0320
2030
,  // measure 38
3100
0000
1200
0000
0010
0000
0001
0300
,  // measure 39
0220
0000
0330
0001
,  // measure 40
0100
0000
0001
0100
0000
0000
0000
0000
0000
0000
1000
0010
0000
0000
0000
0000
,  // measure 41
0200
0010
0001
1000
,  // measure 42
0302
2003
3200
2300
,  // measure 43
3100
0010
0001
0010
0100
1000
0100
0010
,  // measure 44
0002
0000
0000
0000
0003
0000
0100
0000
0010
0000
0000
1000
0000
0000
0001
0000
,  // measure 45
0000
0000
0100
0000
0010
0000
0000
0000
1000
0000
0000
0100
0000
0000
1000
0000
,  // measure 46
0020
0000
0000
0000
0030
0000
0100
0000
0100
0000
0000
0001
0000
0000
0001
0000
,  // measure 47
0000
0000
1000
0000
0100
0000
0000
0000
1000
0000
0000
0001
0000
0000
1000
0000
,  // measure 48
0020
0000
0000
0000
0030
0000
0100
0000
0001
0000
0000
0001
0000
0000
1000
0000
,  // measure 49
0200
0000
0000
0000
0300
0000
0100
0000
0010
0000
0000
0001
0000
0000
1000
0000
,  // measure 50
0020
0000
0030
0100
0020
0000
0030
0010
,  // measure 51
1000
0001
0100
0001
1000
0100
1000
0001
,  // measure 52
0000
0011
0000
0001
0000
0101
0000
0100
,  // measure 53
0000
1010
0000
0001
0000
0101
0000
0100
,  // measure 54
0010
1000
0100
0000
0010
0001
0100
0000
,  // measure 55
0010
0110
0010
1010
,  // measure 56
0001
0100
0010
0000
0001
0100
1000
0000
,  // measure 57
0001
0100
0010
0000
1000
0100
0001
0000
,  // measure 58
0200
0320
0230
0320
,  // measure 59
0031
0100
1000
0100
0001
0100
1000
0100
,  // measure 60
0010
0000
1000
0000
0100
0010
0002
0000
,  // measure 61
1003
0000
0010
0000
0100
0001
1001
0000
;

//---------------dance-single - C. Picardy----------------
#NOTES:
     dance-single:
     :
     Challenge:
     9:
     0.571783,0.622980,0.234455,0.628004,0.799658,478.000000,450.000000,28.000000,75.000000,0.000000,5.000000,0.571783,0.622980,0.234455,0.628004,0.799658,478.000000,450.000000,28.000000,75.000000,0.000000,5.000000:
0000
0000
0000
0000
,
0000
0000
0000
0000
,
0000
0000
0000
0000
,
0000
0000
0000
0000
,
0002
0000
0000
0000
1003
0100
1000
0100
0000
0010
0000
0001
0000
0000
0001
0000
,
0200
0000
0000
0000
0301
0100
0001
0100
0000
0010
0000
1000
0000
0000
0100
0000
,
2000
0000
0000
0000
3010
0100
0010
0100
0000
0010
0000
1000
0000
0000
0010
0000
,
0100
0000
0000
0000
0010
1000
0010
1000
0020
0000
0000
0230
0000
0000
0301
0000
,
0010
0000
0001
0000
1000
0000
0000
1000
0000
0010
0000
0100
0000
0000
0001
0000
,
1000
0000
0000
0000
0100
1000
0000
0100
0000
0010
0000
0100
0000
0000
0010
0000
,
0001
0000
0000
0000
0001
1000
0000
1000
0000
0010
0000
0001
0000
0000
0010
0000
,
1000
0100
0000
0000
0001
0100
0000
0000
1000
0100
1000
0100
0010
0001
0010
0001
,
1000
0001
0000
0001
0000
0000
0100
0001
0000
0100
0000
0000
0220
0000
0000
0330
,
1000
0010
0000
1000
0000
0000
0010
0100
0000
0010
0000
0000
1000
0000
0001
0100
,
1000
0100
0000
0001
0000
0000
0001
0010
0000
0100
0000
0000
0220
0000
0000
0330
,
1000
0100
0000
0001
0000
0000
0100
0010
0000
0100
0000
0000
0001
0000
1000
0100
,
0010
0100
0000
1000
0000
0000
0010
0100
0000
0010
0000
0000
2020
0000
0000
3030
,
0001
1000
0000
0100
0000
0000
0010
0100
0000
1000
0000
0000
0101
0000
0100
0001
,
0100
0010
0000
0101
0000
0000
0100
0010
0000
0101
0000
0000
2002
0000
0000
3003
,
0010
0100
0000
0001
0000
0000
1000
0100
0000
0001
0000
0000
0100
0000
1000
0100
,
0010
0001
0100
0000
0001
0000
1000
0100
1000
0000
0001
0000
2200
0000
0000
3300
,
0010
1000
0100
0000
1000
0000
0010
0100
0001
0000
1000
0000
0101
0000
0000
0000
,
0010
1000
0100
0000
0010
0000
0001
0100
0010
1000
0100
0000
0220
0000
0000
0330
,
0001
0010
0001
0000
1000
0000
0010
0100
0001
0000
1000
0000
0100
0010
0001
0010
,
0100
1000
0100
0000
0001
0000
0100
1000
0100
0000
0010
0000
0002
0000
0000
0003
,
0001
0100
1000
0000
0100
0000
0010
1000
0100
0010
0001
0000
0100
0010
1000
0000
,
0100
1000
0000
1100
0000
0000
0100
0010
0000
0011
0000
0000
2002
0000
0000
3003
,
0001
0100
0000
0010
0000
0000
1000
0001
0000
0100
0000
0000
0001
0100
1000
0100
,
0001
0000
1000
0000
0100
0020
0000
0002
0000
0000
0033
0000
1001
0000
0000
0000
,
0001
0000
0100
0000
0010
2000
0000
0200
0000
0000
3300
0000
1100
0000
0100
0010
,
0000
0000
0001
0010
0001
0010
0001
0010
0001
0000
0002
0020
0000
0000
0000
0000
,
0033
0000
0001
0010
0100
1000
0100
1000
0100
0010
0100
0010
0100
1000
0100
1000
,
0000
0000
0100
0000
0010
0001
0000
0202
0000
0000
0000
0000
0010
0000
0303
0000
,
0000
0000
1000
0000
0100
0002
0000
0200
0003
0000
0300
0000
0010
0000
0010
1000
,
0000
0000
1000
0010
0001
0100
0010
0100
0010
0000
0200
2000
0000
0000
0000
0000
,
3300
0000
0100
1000
0100
0010
0100
0001
0010
0001
0010
0001
1000
0100
1000
0200
,
2000
0000
0010
0000
0000
0000
0001
3300
,
2200
0000
0000
3300
0220
0000
0000
0330
2200
0000
0000
3300
0220
0000
0000
0330
,
0001
0002
0200
0020
,
2000
0000
0000
0000
0000
0000
0000
0000
3333
0000
0000
0000
0202
0000
0000
0303
,
0001
0000
0100
0010
0000
0000
0000
0000
0000
0000
1000
0001
0000
0000
0000
0000
,
2000
0000
0200
3000
0002
0300
2000
0003
,
0020
3000
0002
0030
0200
0003
2000
3300
,
0100
0010
0100
0010
0100
0001
0100
0001
1000
0001
1000
0001
1000
0100
1000
0100
,
2000
0000
0000
3000
0000
0000
0100
0000
0010
0000
0000
0001
0000
0000
1000
0000
,
0000
0000
0010
0000
1000
0001
0000
0000
0001
0000
0001
0100
0000
0100
0010
0000
,
2000
0000
0000
3000
0000
0000
0100
0000
1000
0000
0000
0010
0000
0000
0100
0000
,
0000
0000
0001
0000
0010
1000
0000
0000
1000
0000
1000
0010
0000
0010
0001
0000
,
0200
0000
0000
0000
0300
0000
0001
0100
0001
0100
0000
0010
0000
0010
1000
0000
,
0200
0000
0000
0000
0300
0000
0100
0010
0100
0010
0000
0001
0000
0001
1000
0000
,
2000
0000
0000
0000
3000
0000
0001
0100
1000
0100
0000
0001
0000
0001
1000
0000
,
4000
0004
0000
0000
0000
0000
0000
0000
0000
0000
0000
0000
0000
0000
3003
0000
,
0000
0000
1000
0100
0000
0000
0100
0010
0000
0000
0010
0001
0000
0000
0001
0100
,
0000
0000
0100
0010
0000
0000
0010
1000
0000
0000
1000
0010
0000
0000
0010
0001
,
0000
0000
0001
0010
0000
0000
0010
1000
0000
0000
1000
0100
0000
0000
0100
0001
,
0000
0000
0001
0100
0000
0000
0100
1000
0000
0000
1000
0010
0000
0000
0000
0000
,
0100
0000
0001
0100
0001
0000
0000
0000
1000
0000
0100
1000
0100
0000
0000
0000
,
1000
0000
0010
1000
0010
0000
0000
0000
0001
0000
0100
0001
0100
0000
0000
0000
,
2002
0000
0000
3003
0202
0000
0000
0303
2020
0000
0000
3030
0220
0000
0000
0330
,
2002
0000
0000
3003
1000
0001
1000
0001
1000
0001
1000
0001
1000
0001
1000
0001
,
1000
0100
0000
0010
0000
0000
0100
0010
0000
0001
0000
0000
2002
0000
0000
3003
,
0001
0100
0000
0010
0000
0000
0010
1000
0000
0010
0000
0000
0202
0000
0000
0000
,
0303
0000
0000
0000
;
