#TITLE:Money Go!;
#SUBTITLE:;
#ARTIST:Marko Polo;
#TITLETRANSLIT:;
#SUBTITLETRANSLIT:;
#ARTISTTRANSLIT:;
#GENRE:;
#CREDIT:;
#BANNER:moneygobn.png;
#BACKGROUND:moneygobg.png;
#LYRICSPATH:;
#CDTITLE:;
#MUSIC:moneygo.ogg;
#OFFSET:-0.753503;
#SAMPLESTART:49.309948;
#SAMPLELENGTH:12.000000;
#SELECTABLE:YES;
#BPMS:0.000000=158.059998
;
#STOPS:
;
#BGCHANGES:8.000=Stock Footage Financial Business Graph Amb.mp4=1.000=1=0=0=StretchNoLoop==CrossFade==,
16.000=Tradeulator Stock Market Animation.mp4=1.000=0=0=0=StretchNoLoop==CrossFade_Fastest==,
31.750=Finance HUD.mp4=1.000=0=0=0=StretchNoLoop==SlideUp==,
80.000=Stock video stock market.mp4=1.000=0=0=0=StretchNoLoop==SlideLeft==,
112.000=Stock Footage Financial Business Graph Amb.mp4=1.000=0=0=0=StretchNoLoop==SlideRight==,
128.000=Tradeulator Stock Market Animation.mp4=1.000=0=0=0=StretchNoLoop==SlideDown==,
144.000=Stock video stock market.mp4=1.000=0=0=0=StretchNoLoop==CrossFade_Fastest==,
156.500=moneygobg.png=1.000=0=0=1====#FF00FF=,
157.500=moneygobg.png=1.000=0=0=1====#00FFFF=,
158.500=moneygobg.png=1.000=0=0=1====#0000FF=,
159.500=moneygobg.png=1.000=0=0=1=====,
160.000=flash=1.600=0=0=1=====,
160.250=Finance HUD.mp4=1.000=0=0=0=StretchNoLoop====,
192.000=Tradeulator Stock Market Animation.mp4=1.000=0=0=0=StretchNoLoop====,
208.000=Stock Footage Financial Business Graph Amb.mp4=1.000=0=0=0=StretchNoLoop====,
216.000=Stock video stock market.mp4=1.000=0=0=0=StretchNoLoop====,
224.000=flash=1.600=0=0=1=====,
224.250=moneygobg.png=1.000=0=0=1=====,
99999=-nosongbg-=1.000=0=0=0 // don't automatically add -songbackground-
;
#KEYSOUNDS:;
#ATTACKS:;

//---------------dance-single - C. Picardy----------------
#NOTES:
     dance-single:
     :
     Beginner:
     1:
     0.097883,0.162585,0.069679,0.000000,0.000000,59.000000,53.000000,6.000000,0.000000,0.000000,0.000000,0.097883,0.162585,0.069679,0.000000,0.000000,59.000000,53.000000,6.000000,0.000000,0.000000,0.000000:
0000
0000
0000
0000
,
0000
0000
0000
0000
,
0000
0000
0000
0000
,
0000
0000
0000
0000
,
0010
0000
0000
0000
,
0010
0000
0000
0000
,
0100
0000
0000
0000
,
0100
0000
0000
0000
,
1001
0000
0000
0000
,
0100
0000
0000
0000
,
0010
0000
0000
0000
,
1000
0000
0000
0000
,
0110
0000
0000
0000
,
0001
0000
0000
0000
,
1000
0000
0000
0000
,
0000
0000
0000
0000
,
1001
0000
0000
0000
,
0001
0000
0000
0000
,
0001
0000
0000
0000
,
1000
0000
0000
0000
,
1000
0000
0000
0000
,
0100
0000
0000
0000
,
0010
0000
0000
0000
,
0001
0000
0000
0000
,
1000
0000
0000
0000
,
0001
0000
0000
0000
,
1000
0000
1000
0000
,
0001
0000
0001
0000
,
0000
0000
0000
0000
,
0100
0000
0000
0000
,
0010
0000
0000
0000
,
0001
0000
0000
0000
,
0100
0000
0100
0000
,
0000
0000
0000
0000
,
0010
0000
0010
0000
,
0000
0000
0000
0000
,
0001
0000
0001
0000
,
0000
0000
0000
0000
,
1000
0000
1000
0000
,
0000
0000
0000
0000
,
0110
0000
0000
0000
,
0001
0000
0000
0000
,
1000
0000
0000
0000
,
0100
0000
0000
0000
,
0010
0000
0000
0000
,
1000
0000
0000
0000
,
0100
0000
0000
0000
,
0000
0000
0000
0000
,
1001
0000
0000
0000
,
0010
0000
0000
0000
,
0001
0000
0000
0000
,
1000
0000
0000
0000
,
0100
0000
0000
0000
,
0010
0000
0000
0000
,
0001
0000
0000
0000
,
0100
0000
0100
0000
,
1001
0000
0000
0000
;

//---------------dance-single - C. Picardy----------------
#NOTES:
     dance-single:
     :
     Easy:
     3:
     0.277057,0.325169,0.185811,0.092905,0.000000,167.000000,151.000000,16.000000,8.000000,0.000000,0.000000,0.277057,0.325169,0.185811,0.092905,0.000000,167.000000,151.000000,16.000000,8.000000,0.000000,0.000000:
// measure 0
0000
0000
0000
0000
,  // measure 1
0000
0000
0000
0000
,  // measure 2
0000
0000
0000
0000
,  // measure 3
0000
0000
0000
0000
,  // measure 4
1000
0000
1000
0000
,  // measure 5
0001
0000
0001
0000
,  // measure 6
0100
0000
0100
0000
,  // measure 7
0010
0000
0010
0000
,  // measure 8
1000
1000
1000
0000
,  // measure 9
0001
0001
0001
0000
,  // measure 10
0100
0100
0100
0000
,  // measure 11
0010
1000
0001
1000
,  // measure 12
0100
0010
0100
0000
,  // measure 13
1000
0010
1000
0000
,  // measure 14
0100
0010
0001
0100
,  // measure 15
0010
0000
1000
0001
,  // measure 16
0100
0010
0010
0000
,  // measure 17
1000
0000
0100
0000
,  // measure 18
0010
0010
0001
0000
,  // measure 19
0100
0010
1000
1000
,  // measure 20
1001
0000
0100
0000
,  // measure 21
0010
0000
1000
0000
,  // measure 22
0001
0100
0010
0000
,  // measure 23
1000
0100
0010
0010
,  // measure 24
0000
1000
0001
1000
,  // measure 25
0010
0100
0010
0100
,  // measure 26
0110
0000
0110
0000
,  // measure 27
1001
0000
1001
0000
,  // measure 28
0100
0010
0001
0010
,  // measure 29
0100
1000
0001
0100
,  // measure 30
0010
0000
1000
0000
,  // measure 31
2002
0000
0000
3003
,  // measure 32
1001
0000
1001
0000
,  // measure 33
0010
0001
0100
0000
,  // measure 34
0110
0000
0110
0000
,  // measure 35
0000
1000
1000
1000
,  // measure 36
1001
0000
0110
0000
,  // measure 37
0000
1000
0001
0100
,  // measure 38
0110
0000
1001
0000
,  // measure 39
0220
0000
0000
0330
,  // measure 40
1000
0001
0001
0000
,  // measure 41
0100
0010
0010
0000
,  // measure 42
1000
0100
0100
0000
,  // measure 43
0010
0001
1000
0001
,  // measure 44
0100
0010
0200
0300
,  // measure 45
0001
1000
0200
0300
,  // measure 46
0010
0001
0010
0100
,  // measure 47
2000
0000
0000
3000
,  // measure 48
0001
0100
0001
0100
,  // measure 49
0010
1000
0010
1000
,  // measure 50
0100
0010
0001
0010
,  // measure 51
0100
1000
0100
0010
,  // measure 52
0001
0100
0010
1000
,  // measure 53
0100
0010
0001
0100
,  // measure 54
0010
1000
0100
0010
,  // measure 55
0200
0000
0000
0300
,  // measure 56
1001
0000
0000
0000
;

//---------------dance-single - C. Picardy----------------
#NOTES:
     dance-single:
     :
     Medium:
     6:
     0.421393,0.520271,0.325169,0.081292,0.000000,254.000000,226.000000,28.000000,7.000000,0.000000,0.000000,0.421393,0.520271,0.325169,0.081292,0.000000,254.000000,226.000000,28.000000,7.000000,0.000000,0.000000:
0000
0000
0000
0000
,
0000
0000
0000
0000
,
0000
0000
0000
0000
,
0000
0000
0000
0000
,
1000
0100
0010
0000
,
0001
0100
0010
0000
,
1000
0100
0010
0000
,
0001
0100
0010
0010
,
1001
0100
0010
1000
,
0110
0001
1000
0100
,
1001
0010
0001
0100
,
1010
0101
1100
0101
,
0010
0000
1000
0000
0100
0010
0100
0000
,
1000
0000
0010
0000
0100
0010
0100
0000
,
0001
0000
0010
0000
0100
0010
0100
2000
,
0000
0000
0010
3100
,
0010
0000
0001
0000
0100
0100
0000
0000
,
0010
1000
0001
0100
,
0010
0010
0010
0000
1000
0000
0001
0001
,
1000
0000
0000
0100
0100
0000
0100
0000
,
0010
0000
0001
0010
0001
0000
0100
0000
,
0010
1000
0001
0100
,
0010
0010
1000
0000
0001
0000
0100
0100
,
0010
0010
1000
0000
0011
0000
0101
0000
,
0010
1000
0001
1000
,
0100
0010
0100
0010
,
0001
0001
0000
0000
0001
0001
0000
0000
,
1000
1000
0000
0000
1000
1000
0000
0000
,
0100
0010
1100
0010
,
0101
1000
0110
1000
,
0002
0000
0000
0200
0000
0000
0303
0000
,
0020
0000
0000
2000
0000
0000
3030
0000
,
1000
0010
1000
0000
0001
1000
0001
0000
,
0000
0100
0010
0001
,
0010
0001
0010
0000
0100
1000
0100
0000
,
0000
0010
0000
0001
0000
1000
0000
0000
,
0010
1000
0100
0000
0010
0001
0100
0000
,
0010
1000
0100
0010
,
0001
0100
0010
0000
1000
0100
0010
0000
,
0000
0001
0000
1000
0000
0001
0000
1000
,
0100
0100
0110
0011
,
0100
0100
1010
0110
,
0001
0001
1100
0110
,
0001
0000
1000
0000
0100
0010
0100
0010
,
0100
0000
0100
0000
1000
0010
1000
0000
,
0001
0000
0001
0000
0100
0001
0100
0000
,
0010
0000
0010
0000
1000
0000
0001
0200
,
0000
0000
0010
0301
,
1000
0100
1000
0000
0011
0000
0110
0000
,
0001
0010
0001
0000
0101
0000
0110
0000
,
0100
0001
0100
0000
1010
0000
1100
0000
,
1000
0100
0001
0000
0001
0100
1000
0000
,
1001
0000
0100
0000
0010
1000
0100
0000
,
1100
0000
0010
0000
0100
0001
0010
0000
,
0110
0000
1000
0000
0001
0010
0100
2000
,
0000
0000
0100
3010
,
1001
0000
0000
0000
;

//---------------dance-single - C. Picardy----------------
#NOTES:
     dance-single:
     :
     Hard:
     8:
     0.549138,0.617822,0.232264,0.220651,0.145165,331.000000,311.000000,20.000000,19.000000,0.000000,0.000000,0.549138,0.617822,0.232264,0.220651,0.145165,331.000000,311.000000,20.000000,19.000000,0.000000,0.000000:
0000
0000
0000
0000
,
0000
0000
0000
0000
,
0100
0100
0100
0100
,
0010
0010
0010
0000
,
0100
0010
0100
0000
1000
0000
0001
0000
,
0100
0010
0100
0000
0010
0000
1000
0000
,
0100
0010
0100
0000
1000
0000
0001
0000
,
0100
0100
0200
0300
,
0001
0100
1000
0100
0001
0000
1000
0000
,
0100
0010
0001
0010
0100
0000
0010
0000
,
0100
1000
0100
0010
0001
0000
0100
0000
,
0001
0010
0100
1000
0001
0010
0100
1000
,
0001
0000
0100
0000
0010
0000
0100
0000
0001
0000
0100
0010
0000
0000
1000
0000
,
0100
0000
0010
0000
0100
0000
1000
0000
0100
0000
0010
0001
0000
0000
1000
0000
,
0100
0000
0010
0000
0001
0000
0010
0000
0100
0000
1000
0001
0000
0100
0020
0000
,
0000
0000
0000
0000
1030
0000
0000
0000
0001
0100
0001
0100
0001
0000
0000
0000
,
0110
0000
1000
0100
1000
0010
0000
0100
,
0000
0001
0000
1000
0000
0100
0000
0010
,
0000
0010
0000
0011
0000
0000
1000
0100
,
0010
0010
0000
0100
0010
0000
0110
0000
,
1001
0000
1000
0100
0010
0001
0000
0100
,
0000
0010
0000
1010
0000
0100
0000
0001
,
0000
0101
0000
0110
0000
0000
0001
0100
,
0010
1000
0000
0001
0100
0000
0100
0000
,
1010
0200
0010
0010
,
1000
0001
1000
1300
,
0001
0100
0000
0000
0001
0100
0000
0000
,
0010
1000
0000
0000
0100
0010
0000
0000
,
0001
0020
0230
2300
,
3200
0320
0032
0203
,
0320
0000
0030
2020
0000
0000
3030
0000
,
2002
0000
3003
2002
0000
0000
3003
0000
,
1000
0100
0001
0000
0001
0100
1000
0000
,
0100
0000
0010
0001
0100
0001
0010
0000
,
0001
0100
1000
0000
1000
0100
0001
0000
,
0000
1000
0000
0100
0000
0010
0000
0001
,
0100
0010
1000
0000
1000
0010
0100
0000
,
0010
0000
1000
0100
0010
0001
0100
0000
,
1000
0100
0001
0000
0001
0010
0100
0000
,
0000
1100
0000
0011
0000
0110
0000
1000
,
0001
0100
0010
1000
0100
0000
0011
0000
,
0100
0001
0010
0100
1000
0000
0101
0000
,
0010
0001
0010
0100
1000
0000
0110
0000
,
1000
0100
0010
0001
1000
0100
0010
0001
,
1000
0000
0100
0000
1000
0000
0100
0000
0010
0000
0100
1000
0000
0000
0001
0000
,
0100
0000
0001
0000
0100
0000
0010
0000
0100
0000
0001
0100
0000
0000
0010
0000
,
1000
0000
0001
0000
1000
0000
0001
0000
0100
0000
0100
0010
0000
0010
2000
0000
,
0000
0000
3100
0000
0010
0100
0010
0000
,
0001
0000
0010
0000
0001
0000
0010
0000
0001
0100
0000
0001
0100
0000
0010
0000
,
1000
0000
0010
0000
1000
0000
0010
0000
1000
0001
0000
1000
0001
0000
1000
0000
,
0100
0000
0010
0000
0100
0000
0010
0000
0100
0010
0000
0100
0000
0000
0010
0000
,
0100
1000
0000
0000
0011
0000
0000
0000
1000
0100
0000
0000
0101
0000
0000
0000
,
1000
0000
0001
0000
0100
0000
0001
0000
1000
0010
0000
1000
0100
0000
0001
0000
,
0100
0000
0010
0000
0001
0000
0100
0000
1000
0100
0000
0001
0100
0000
0010
0000
,
1000
0000
0100
0000
0010
0000
0001
0000
1000
0100
0000
0010
0000
0001
2000
0000
,
0000
0000
0010
0000
0001
0001
3001
0000
,
1010
0000
0000
0000
;

//---------------dance-single - C. Picardy----------------
#NOTES:
     dance-single:
     :
     Challenge:
     10:
     0.846104,0.942991,0.627112,0.255490,0.708404,510.000000,456.000000,54.000000,22.000000,53.000000,6.000000,0.846104,0.942991,0.627112,0.255490,0.708404,510.000000,456.000000,54.000000,22.000000,53.000000,6.000000:
0000
0000
0000
0000
,
0000
0000
0000
0000
,
0110
01M0
0110
0M10
,
0110
01M0
0110
M00M
,
0001
0100
1000
0000
0100
0100
0M00
0000
,
0010
1000
0100
0000
0010
0010
00M0
0000
,
0001
1000
0010
0000
0100
0100
0M00
0000
,
0001
0100
0010
1000
0100
0010
1001
0000
,
0100
0000
0010
0000
1000
0000
0001
0000
0100
0010
0100
0010
0000
1000
0000
0000
,
0100
0000
0010
0000
0001
0000
1000
0000
0010
0100
0010
0100
0000
0001
0000
0000
,
1000
0000
0100
0000
0010
0000
0001
0000
1000
0100
1000
0100
0000
0010
0100
0000
,
1000
0100
0010
0001
1000
0100
0010
0001
1000
0010
0100
0001
1000
0010
0100
0001
,
1000
0000
0100
0000
0010
0000
0001
0000
0100
0010
0100
0001
0000
0101
0000
0000
,
1000
0000
0001
0000
0100
0000
0010
0000
1000
0100
0010
0001
0000
0011
0000
0000
,
1000
0000
0001
0000
0010
0000
0100
0000
1000
0100
1000
0100
0000
0010
0004
0000
,
0010
0000
0000
0000
1MM0
0000
0003
0000
1000
0100
0010
0001
0010
0100
1000
0000
,
1001
0000
0000
0000
0010
0100
0010
0000
0001
0010
0001
0000
0100
0000
0001
0000
,
0010
0000
0100
0000
0010
0000
0001
0000
0100
0000
1000
0000
0100
0000
0010
1000
,
0001
0000
0010
0000
0100
0000
0010
0001
1000
0000
0010
0000
0100
0001
0100
0000
,
2020
0000
0000
3030
0202
0000
0000
0303
2002
0000
0000
3003
2200
0000
0000
3300
,
0110
0000
0000
0000
0010
0100
1000
0000
0100
0010
0001
0000
1000
0000
0100
0000
,
0010
0000
0100
0000
0001
0000
0100
1000
0010
0000
0100
0000
0001
0000
0010
0001
,
0100
0000
0010
0000
1000
0000
0100
0010
0001
0000
1000
0000
0010
0000
0100
0000
,
0022
0000
0000
0033
0202
0000
0000
0303
0220
0000
0000
0330
2020
0000
0000
3030
,
0100
0000
0001
0000
0100
0001
0100
0000
0001
0100
0001
0000
1000
0001
1000
0000
,
0001
1000
0001
0000
1000
0100
1000
0000
0100
0010
0100
0000
1000
0010
1000
0000
,
1001
0101
0M0M
0000
1001
0011
00MM
0000
,
1100
0110
0MM0
0000
1100
1010
M0M0
0000
,
0001
0100
0010
0000
1000
0001
0100
0000
0010
1000
0001
0000
0010
0100
1000
0000
,
0001
1000
0100
0000
0010
0001
1000
0000
0010
1000
0001
0000
0100
0001
1000
0000
,
0202
0000
0000
0010
0000
1000
1000
0303
,
2200
0000
0000
0010
0000
0001
0001
3300
,
0110
0010
0110
0000
0110
0100
0110
0000
,
1000
0100
0010
0001
0010
0100
1000
0000
,
0101
0001
0101
0000
0101
0100
0101
0000
,
0000
1M1M
0000
1MM1
0000
M1M1
0000
0000
,
0010
0001
0100
0000
0101
0000
0000
0000
0001
0100
1000
0000
1100
0000
0000
0000
,
0100
0010
1000
0001
0010
0100
1000
0001
,
0100
0001
0100
0000
0101
0000
0000
0000
0010
1000
0010
0000
1010
0000
0000
0000
,
0000
MM11
0000
11MM
0000
MM12
0000
1MM3
,
0001
0000
0010
0000
0100
0000
1000
0000
0100
0010
0001
0010
0000
0100
0000
0000
,
0010
0000
0001
0000
1000
0000
0001
0000
0100
0001
0100
0010
0000
1000
0000
0000
,
0001
0000
0100
0000
0010
0000
1000
0000
0100
0010
0100
0010
0000
0001
1000
0000
,
0001
0010
0100
1000
0001
0010
0100
1000
0001
0100
0010
1000
0001
0100
0010
1000
,
0001
0000
0100
0000
0010
0000
0100
0000
0001
0010
0100
1000
0000
1100
0000
0000
,
1000
0000
0100
0000
0010
0000
0001
0000
1000
0100
0010
0001
0000
0011
0000
0000
,
1000
0000
0001
0000
0100
0000
0010
0000
1000
0100
0010
0001
0000
0100
0020
0000
,
MM0M
0000
MM0M
0000
MM0M
0000
MM3M
0000
1000
0001
0100
0010
1000
0100
0010
0000
,
1001
0000
0100
0000
1001
0000
0010
0000
1000
0010
1000
0001
0000
0100
0000
0000
,
0011
0000
0100
0000
0011
0000
1000
0000
0100
0010
0001
1000
0000
0010
0000
0000
,
0101
0000
0100
0000
0101
0000
0001
0000
1000
0010
0100
0001
0000
1000
0100
0000
,
1000
0100
1000
0100
0001
0100
0001
0100
1000
0010
1000
0010
0001
0010
0001
0010
,
1000
0010
1000
0000
M010
1000
0010
0000
10M0
0010
1000
0001
0000
1000
010M
0000
,
0010
0001
0010
0000
00M1
0010
0001
0000
001M
0001
0010
0100
0000
0010
0001
0000
,
1000
0001
1000
0000
M001
1000
0001
0000
100M
0100
0010
0001
0000
0100
0040
0000
,
0001
0000
0000
0000
M10M
0000
0030
0000
1000
0100
0010
0001
0010
0100
1000
0000
,
0011
0000
0000
0000
;
