#TITLE:Mnemonic Reactor;
#SUBTITLE:;
#ARTIST:Will Davis & Jeehun Hwang;
#TITLETRANSLIT:;
#SUBTITLETRANSLIT:;
#ARTISTTRANSLIT:;
#GENRE:;
#CREDIT:;
#BANNER:mnemonicreactorbn.png;
#BACKGROUND:mnemonicreactor.png;
#LYRICSPATH:;
#CDTITLE:;
#MUSIC:mnemonicreactor.ogg;
#OFFSET:0.008062;
#SAMPLESTART:27.490177;
#SAMPLELENGTH:18.000002;
#SELECTABLE:YES;
#BPMS:0.000000=139.929993
;
#STOPS:
;
#BGCHANGES:16.000=spiraltunnel.mp4=1.000=1=0=1=SongBgWithMovieViz==CrossFade==,
32.000=spiraltunnel.mp4=1.000=1=1=1=StretchRewind==CrossFade==,
48.000=spiraltunnel.mp4=1.000=1=0=1=SongBgWithMovieViz==CrossFade==,
56.000=checkerstunnel.mp4=1.000=1=0=1=SongBgWithMovieViz==CrossFade==,
64.000=checkerstunnel.mp4=1.000=1=1=1=StretchRewind==CrossFade==,
80.000=flaretunnel.mp4=1.000=0=1=1=StretchRewind==CrossFade_Fastest==,
112.000=flaretunnel.mp4=1.000=1=0=1===CrossFade=#FF00FF=,
120.000=flaretunnel.mp4=1.000=0=0=1====#FFFF00=,
128.000=flaretunnel.mp4=1.000=0=0=1====#0000FF=,
136.000=flaretunnel.mp4=1.000=0=0=1====#00FF00=,
144.000=checkerstunnel.mp4=1.000=1=0=1=SongBgWithMovieViz==CrossFade==,
192.000=spiraltunnel.mp4=1.000=0=0=1===CrossFade_Fastest==,
224.000=flaretunnel.mp4=1.000=1=0=1===CrossFade==,
256.000=checkerstunnel.mp4=1.000=1=0=1===CrossFade==,
288.000=mnemonicreactor.png=1.000=1=0=1===CrossFade==,
99999=-nosongbg-=1.000=0=0=0 // don't automatically add -songbackground-
;
#KEYSOUNDS:;
#ATTACKS:;

//---------------dance-single - C. Picardy----------------
#NOTES:
     dance-single:
     :
     Beginner:
     1:
     0.073876,0.137002,0.108058,0.030874,0.000000,67.000000,53.000000,14.000000,4.000000,0.000000,0.000000,0.073876,0.137002,0.108058,0.030874,0.000000,67.000000,53.000000,14.000000,4.000000,0.000000,0.000000:
// measure 0
0010
0000
0000
0000
,  // measure 1
0000
0000
0000
0000
,  // measure 2
0000
0000
0000
0000
,  // measure 3
0000
0000
0000
0000
,  // measure 4
0000
0000
0000
0000
,  // measure 5
0000
0000
0000
0000
,  // measure 6
0000
0000
0000
0000
,  // measure 7
0000
0000
0000
0000
,  // measure 8
1000
0000
0000
0000
,  // measure 9
0000
0000
0000
0000
,  // measure 10
0001
0000
0000
0000
,  // measure 11
0000
0000
0000
0000
,  // measure 12
1000
0000
0000
0000
,  // measure 13
1000
0000
0000
0000
,  // measure 14
0010
0000
0000
0000
,  // measure 15
0010
0000
0000
0000
,  // measure 16
0100
0000
0000
0000
,  // measure 17
0000
0000
0000
0000
,  // measure 18
0100
0000
0000
0000
,  // measure 19
1001
0000
0000
0000
,  // measure 20
0000
0000
0000
0000
,  // measure 21
1001
0000
0000
0000
,  // measure 22
0000
0000
0000
0000
,  // measure 23
0110
0000
0000
0000
,  // measure 24
0000
0000
0000
0000
,  // measure 25
0110
0000
0000
0000
,  // measure 26
1000
0000
0000
0000
,  // measure 27
1000
0000
0000
0000
,  // measure 28
0001
0000
0000
0000
,  // measure 29
0001
0000
0000
0000
,  // measure 30
0010
0000
0000
0000
,  // measure 31
0010
0000
0000
0000
,  // measure 32
0100
0000
0000
0000
,  // measure 33
0100
0000
0000
0000
,  // measure 34
1001
0000
0000
0000
,  // measure 35
1001
0000
0000
0000
,  // measure 36
0020
0000
0000
0000
,  // measure 37
0030
0000
0000
0000
,  // measure 38
2000
0000
0000
0000
,  // measure 39
3000
0000
0000
0000
,  // measure 40
0002
0000
0000
0000
,  // measure 41
0003
0000
0000
0000
,  // measure 42
0200
0000
0000
0000
,  // measure 43
0300
0000
0000
0000
,  // measure 44
1000
0000
0000
0000
,  // measure 45
0000
0000
0000
0000
,  // measure 46
1000
0000
0000
0000
,  // measure 47
0000
0000
0000
0000
,  // measure 48
0001
0000
0000
0000
,  // measure 49
0010
0000
0000
0000
,  // measure 50
0100
0000
0000
0000
,  // measure 51
1000
0000
0000
0000
,  // measure 52
0001
0000
0000
0000
,  // measure 53
0100
0000
0000
0000
,  // measure 54
0010
0000
0000
0000
,  // measure 55
1000
0000
0000
0000
,  // measure 56
0010
0000
0000
0000
,  // measure 57
1001
0000
0000
0000
,  // measure 58
0100
0000
0000
0000
,  // measure 59
1001
0000
0000
0000
,  // measure 60
0100
0000
0000
0000
,  // measure 61
1001
0000
0000
0000
,  // measure 62
1000
0000
0000
0000
,  // measure 63
1001
0000
0000
0000
,  // measure 64
0010
0000
0000
0000
,  // measure 65
0110
0000
0000
0000
,  // measure 66
0100
0000
0000
0000
,  // measure 67
0110
0000
0000
0000
,  // measure 68
1000
0000
0000
0000
,  // measure 69
0110
0000
0000
0000
,  // measure 70
0001
0000
0000
0000
,  // measure 71
0110
0000
0000
0000
;

//---------------dance-single - C. Picardy----------------
#NOTES:
     dance-single:
     :
     Challenge:
     10:
     0.747585,0.928889,0.138932,0.393640,0.841309,678.000000,660.000000,18.000000,51.000000,139.000000,0.000000,0.747585,0.928889,0.138932,0.393640,0.841309,678.000000,660.000000,18.000000,51.000000,139.000000,0.000000:
0000
0000
0000
0000
,
0000
0000
0000
0000
,
1000
0000
0100
1000
0020
0000
1000
0030
0000
0000
0100
0000
0001
0100
0000
0000
,
2000
0000
3010
1000
0001
0000
0100
0001
0000
0100
0010
0000
0100
0000
0110
0000
,
1000
0000
0100
0000
0010
0000
0001
0000
1000
0000
0010
0100
0000
0001
1000
0000
,
0100
0000
0010
0000
0001
0000
0010
0000
0100
0000
1000
0100
0000
1100
0000
0000
,
0010
0000
0001
0000
0010
0000
0100
0000
1000
0000
0100
0010
0000
0100
1000
0000
,
0010
0000
0100
0000
0010
0000
1000
0100
0000
0000
1000
0000
1001
0000
0101
0000
,
0200
0000
0000
0000
0001
0000
0010
0000
0001
0000
00M0
0001
0000
0000
100M
0000
,
0000
0000
M010
0000
0000
0000
10M0
0000
0000
0000
M000
0000
1300
0100
0000
0000
,
0020
0000
0M00
0000
1000
0000
010M
0000
1000
0000
0M00
0001
0000
0000
100M
0000
,
0000
M100
0100
0001
0M00
100M
1000
0130
,
1000
0000
0100
0000
0001
0000
0100
0000
1000
0000
0001
0010
0000
0010
0001
0000
,
1000
0000
0010
0000
0001
0000
0010
0000
1000
0000
0001
0100
0000
0001
0100
0001
,
0010
0000
0001
0000
0100
0000
0001
0000
0010
0000
0100
1000
0000
1000
0010
0000
,
0001
0000
0010
0000
1000
0000
0100
0000
0001
0000
0100
1000
0100
0010
0001
0010
,
0200
0000
00M0
0000
1000
0000
0010
M000
0001
0000
00MM
0001
0000
0000
1000
0000
,
0000
M000
0001
0000
00MM
0000
0010
0000
M000
00MM
1000
0000
0001
0000
0300
0000
,
1020
0000
MM00
0000
0001
0000
0100
0000
1M0M
0000
0000
M100
0000
0000
0M01
0000
,
0000
0000
100M
0000
0000
MM0M
0100
0000
0030
0000
0001
0000
0101
0000
1001
0000
,
0M01
1000
0M10
1000
0M01
1000
0M10
1000
0M01
0010
0M01
1000
0M10
1000
0M01
0010
,
0M01
1000
0M01
0010
0M01
1000
0M10
1000
0M01
1000
0M10
1000
0001
0000
1001
0000
,
00M1
1000
01M0
1000
00M1
0100
00M1
1000
00M1
0100
00M1
1000
01M0
1000
00M1
0100
,
00M1
1000
00M1
0100
00M1
1000
01M0
1000
00M1
1000
00M1
0100
0001
0000
1001
0000
,
M001
0100
M010
0100
M001
0100
M001
0100
M010
0100
M001
0010
M100
0010
M100
0010
,
M001
0100
M010
0100
M001
0100
M010
0100
M001
0010
M001
0100
M010
0000
0101
0000
,
010M
0010
100M
0010
010M
0010
100M
0100
001M
0100
100M
0100
100M
0100
001M
0100
,
100M
0100
001M
0100
100M
0100
100M
0100
100M
0010
100M
0100
0010
0000
0110
0000
,
1000
0100
1000
0100
1000
0100
1000
0100
0010
0100
0010
0100
0010
0100
0010
0100
,
0010
0001
0010
0001
0010
0001
0010
0001
1000
0001
1000
0001
1000
0001
1000
0001
,
0100
0001
0100
0001
0100
0001
0100
0001
0100
0010
0100
0010
0100
0010
0100
0010
,
1000
0010
1000
0010
1000
0010
1000
0010
1000
0100
1000
0100
1000
0100
1000
0100
,
1000
0100
0010
0001
0100
0001
0100
0001
1000
0100
1000
0001
0100
0001
0010
0001
,
0010
0001
1000
0001
1000
0010
1000
0010
0100
0001
0100
0001
1000
0001
1000
0100
,
1000
0100
0010
0001
1000
0010
0100
0001
1000
0010
0100
0010
1000
0001
0100
0010
,
1000
0100
0010
0100
1000
0100
0010
0001
0010
0100
1000
0100
0010
0001
0100
0010
,
1000
0000
M1M0
0100
0000
1000
1MM0
0000
,
0100
0000
MM1M
0010
0000
1000
1MMM
0000
,
0001
0100
0000
0000
M1MM
0000
0000
0000
0000
0000
0001
0000
MM00
0001
0000
0000
,
1000
0010
0000
0000
1000
0000
00M0
1000
0000
0000
0001
0000
MMM1
0000
0001
0000
,
1000
0000
0100
1000
0100
0000
0010
0000
0000
0000
0001
0000
10M0
0000
0001
0000
,
01M0
0000
M001
0100
0001
0000
M100
0010
0000
0000
100M
0000
1M00
0000
0000
0000
,
0M01
0000
0001
1000
0100
0000
1000
0010
0M00
0000
1000
0010
0000
0100
0000
0000
,
M0M1
0000
0001
0100
0010
0000
1000
0010
0M00
1000
0010
0000
0100
0000
M100
0000
,
01M0
0000
0010
0100
0010
0000
100M
0000
0000
0000
0001
0000
0M10
0000
0001
0000
,
1000
0000
0010
0100
M001
0000
1000
0000
0000
0000
1000
0000
1MM0
0000
0000
0000
,
0010
0000
0100
0010
M100
0000
0001
0100
00M0
0000
0001
1000
0MM0
0001
0000
0000
,
0040
0000
MM0M
0000
MM0M
0000
MM0M
0030
,
0001
0000
0100
0000
1000
0000
0100
0000
0001
0000
0010
1000
0000
0010
0001
0000
,
1000
0000
0100
0000
0001
0000
0100
0000
1000
0000
0001
0010
0000
1000
0010
0001
,
0010
0000
0100
0000
1000
0000
0010
0000
0001
0000
1000
0100
0000
0010
1000
0000
,
0100
0000
0001
0000
0100
0000
1000
0000
0001
0000
0100
1000
0000
0100
1000
0100
,
0020
0000
2000
0030
0200
3000
2000
0300
0020
3000
1000
0230
0000
0302
0200
0003
,
0020
0300
0002
0030
2000
0003
0200
3000
0002
0300
0100
0023
0000
0100
0032
0000
,
2000
0003
0020
3000
0200
0030
0020
0300
2000
0030
0010
3200
0000
2300
0020
3000
,
0002
0030
0020
0003
0200
0030
0020
0300
2000
0030
0010
3100
0000
0010
1000
0000
,
2000
0100
0100
3100
2000
0010
0010
3010
,
0200
0001
0001
0301
0020
0001
0001
0031
,
2000
0001
0001
3001
0200
1000
1000
1300
,
0002
0010
0010
0013
0200
1000
1000
1300
,
0100
0000
0010
0000
2000
0000
0000
3000
0000
0000
0100
0010
0000
0010
0001
0000
,
1000
0000
0001
0000
0002
0000
0003
0001
0000
0002
0000
0003
0002
0000
1003
0000
,
0010
0000
1000
0000
0200
0000
0000
0300
0000
0000
1000
0100
0000
0100
1000
0000
,
0020
0000
0000
2030
0000
0000
3010
0000
0110
0000
0100
0000
0101
0000
1000
0000
,
0010
0000
0000
0100
0000
0000
1010
0000
0000
0000
0001
0000
0010
0000
0001
0000
,
1000
0000
0000
0100
0000
0000
1010
0000
0000
0000
1000
0000
0001
0000
0000
0000
,
0100
0000
0000
0010
0000
0000
0101
0000
0000
0000
0001
0000
0010
0001
0000
0000
,
0100
0000
1000
0100
0000
1000
0100
0000
0000
0000
0010
0000
0110
0000
0110
0000
,
0001
1000
0000
0100
0000
1000
0010
0000
0000
0000
0100
0000
0100
0000
0000
0000
,
1000
0010
0000
1000
0000
1000
0010
0000
0000
0000
0100
0000
0100
0000
0000
0000
,
0001
0000
1000
0100
0000
0000
0010
0000
0000
0000
0100
0000
1000
0100
0000
0000
,
1000
0100
0010
0001
1000
0010
0100
0001
0010
0100
1000
0100
0010
0001
0200
0002
,
0000
0000
0000
0000
0000
0000
0000
0000
0000
0000
0000
0000
0000
0000
0000
0303
;

//---------------dance-single - C. Picardy----------------
#NOTES:
     dance-single:
     :
     Easy:
     3:
     0.211706,0.280758,0.115776,0.246990,0.000000,192.000000,177.000000,15.000000,32.000000,0.000000,0.000000,0.211706,0.280758,0.115776,0.246990,0.000000,192.000000,177.000000,15.000000,32.000000,0.000000,0.000000:
0000
0000
0000
0000
,
0000
0000
0000
0000
,
0000
0000
0000
0000
,
0000
0000
0000
0000
,
0001
0000
0001
0000
,
0010
0000
0010
0000
,
1000
0000
1000
0000
,
0010
0000
0010
0000
,
0100
0000
0001
0000
,
0001
0000
0010
0000
,
0100
0000
1000
0000
,
0100
0000
0010
0000
,
0001
0010
0001
1000
,
0100
1000
0020
0030
,
0100
0001
0010
0001
,
1000
0001
0200
0300
,
0010
0000
1000
0000
,
0001
0000
0100
0000
,
0010
0000
1000
0000
,
2002
0000
0000
3003
,
1000
0100
0002
0003
,
0001
0100
2000
3000
,
0010
1000
0200
0300
,
0010
0001
0200
0300
,
0001
0100
1001
0000
,
1000
0010
1001
0000
,
0001
1000
0110
0000
,
0100
0001
0110
0000
,
0001
1000
0001
1000
,
0100
0010
0200
0300
,
0010
0001
0010
0001
,
1000
0001
0200
0300
,
0001
0100
1000
0100
,
0001
0010
1000
0010
,
0001
0100
0001
1000
,
0010
1000
0001
0010
,
0001
0000
1000
0000
,
0100
0000
0010
0000
,
0100
0000
1000
0000
,
0010
0000
0100
0000
,
0110
0000
0001
0000
,
1000
0000
0100
0000
,
1001
0000
1000
0000
,
0010
0000
0100
0000
,
0001
1000
1001
0000
,
0010
0100
0110
0000
,
0001
1000
0010
1000
,
0220
0000
0330
0000
,
0100
0000
0200
0300
,
0001
0000
0002
0003
,
0010
0000
0020
0030
,
1000
0000
2000
3000
,
0001
0000
1001
0000
,
0010
0000
0110
0000
,
1000
0000
1001
0000
,
0100
0000
0000
0000
,
0010
0020
0030
0000
,
1000
2000
3000
0000
,
0001
0002
0003
0000
,
0100
0200
0300
0000
,
0010
2000
3000
0000
,
0001
0020
0030
0000
,
0001
0200
0300
0001
,
2000
0000
0001
3001
,
0100
0002
0000
0103
,
0010
0020
0000
1030
,
0100
2000
0000
3010
,
0100
0100
0110
0000
,
0002
1000
1003
0000
,
0020
1000
0130
0000
,
2000
0010
3100
0000
,
0100
0010
0100
0010
,
2002
0000
0000
3003
;

//---------------dance-single - C. Picardy----------------
#NOTES:
     dance-single:
     :
     Medium:
     6:
     0.389230,0.449213,0.185242,0.100340,0.038592,353.000000,329.000000,24.000000,13.000000,0.000000,0.000000,0.389230,0.449213,0.185242,0.100340,0.038592,353.000000,329.000000,24.000000,13.000000,0.000000,0.000000:
0000
0000
0000
0000
,
0000
0000
0000
0000
,
0000
0000
0000
0000
,
0000
0000
0000
0000
,
0001
0000
1000
0000
0010
1000
0010
0000
,
0100
0010
1000
1010
,
0001
0000
1000
0000
0001
0010
0001
0000
,
1000
0000
0100
0000
0000
0100
0100
0100
,
0010
0000
0001
0000
0100
0000
0000
0010
,
0000
0001
1000
1001
,
0100
0000
0010
0000
0001
0000
0000
0001
,
0000
0100
0010
0100
0000
0000
0000
0000
,
0001
0000
0010
0000
0001
0100
0001
0000
,
1000
0000
0100
0000
1000
0010
1000
0000
,
0100
0000
0010
0000
0100
1000
0100
0000
,
0010
0000
0001
1000
0000
0001
1000
0000
,
0100
0000
0010
0100
0010
0000
0010
0001
,
0000
0100
0000
0010
0000
1000
0010
0000
,
0100
0000
0001
0100
0010
0000
1000
0010
,
0000
1000
0000
0001
0000
0000
1001
0000
,
1000
0100
1000
0000
1000
0010
1000
0000
,
1000
0001
1000
0000
1000
0100
1000
0000
,
0001
1000
0001
0000
0001
0010
0001
0000
,
0001
1000
0001
0000
0001
0100
0001
0000
,
1000
0001
0100
0000
0010
1000
0001
0000
,
0010
0100
1000
0000
0100
0010
0001
0000
,
0001
0100
1000
0000
1000
0100
0001
0000
,
0001
0100
0010
0000
0010
1000
0100
0000
,
1000
0000
1100
0000
1000
0001
0100
0001
,
0010
0000
0011
0000
0001
1000
0100
1000
,
0010
0000
0110
0000
0010
1000
1000
0010
,
0100
0000
0101
0000
0001
0001
0100
0001
,
0010
0000
1001
0000
0001
1000
1000
0100
,
0010
0000
1100
0000
0010
0100
0100
1000
,
0010
0000
1010
0000
0010
0010
0100
0001
,
0001
0000
1001
0000
0001
1000
0001
0100
,
0000
0000
0100
0010
0000
1000
1000
0000
,
0001
0000
0100
0100
0000
0010
0010
0000
,
1000
0000
0001
0001
0000
0010
0010
0000
,
1000
0000
0010
0000
0000
0100
0010
0000
,
0202
0000
0000
0303
,
0001
0000
1000
0001
0000
1000
0001
0000
,
1100
0000
0001
0010
0000
1000
0000
0000
,
1000
0000
0001
0001
0000
0001
0001
0100
,
0001
0000
0100
0010
0000
0010
0100
0000
,
1001
0000
1000
0001
0000
0001
1000
0000
,
0110
0000
0100
0010
0000
0010
0100
0000
,
2002
0000
0000
3003
,
0001
0010
0001
0000
1000
0000
0011
0000
,
1000
0100
0001
0000
1000
0000
0110
0000
,
0010
0001
0100
0000
0010
0000
0011
0000
,
0100
0001
0010
0000
0100
0000
1010
0000
,
0001
0100
0010
0100
0001
0000
0110
0000
,
1000
0010
0100
0010
1000
0000
0110
0000
,
0001
0100
1000
0100
0001
0000
0110
0000
,
1000
0100
0001
0100
1000
0000
0110
0000
,
2000
0000
3100
0000
0000
0010
0001
0000
,
0200
0000
0000
0000
0310
0000
0000
0010
0000
0000
0000
0000
1000
0000
0000
0000
,
0002
0013
0000
0100
,
0020
0000
0000
0000
1030
0000
0000
1000
0000
0000
0000
0000
0001
0000
1000
0000
,
0020
0000
0130
0000
0000
0001
0001
0000
,
2000
0000
0000
0000
3100
0000
0000
0100
0000
0000
0000
0000
0010
0000
0100
0000
,
2000
0000
3001
0000
0000
0100
0010
0000
,
2000
0000
3000
1000
0001
0100
0001
0000
,
1000
0000
0000
1000
0000
0000
1000
0000
0000
0000
0000
0000
0000
0000
0000
0000
,
0100
0000
0000
0100
0000
0000
0100
0000
0000
0000
0000
0000
0000
0000
0000
0000
,
0010
0000
0000
0010
0000
0000
0010
0000
0000
0000
0000
0000
0000
0000
0000
0000
,
0001
0000
0000
0001
0000
0000
0001
0000
0000
0000
0000
0000
0000
0000
0000
0000
,
1000
0000
0000
0010
0000
0000
1000
0000
0000
0000
0010
0000
1000
0000
0000
0000
,
0100
0000
0000
0010
0000
0000
0001
0000
0000
0000
0100
0000
0010
0000
0000
0000
,
1000
0000
0000
0001
0000
0000
0100
0000
0000
0000
0000
0000
0000
0000
0000
0000
,
0001
1000
0100
0010
0001
0010
0100
2000
,
0000
0000
0000
3000
;

//---------------dance-single - C. Picardy----------------
#NOTES:
     dance-single:
     C. Picardy:
     Hard:
     8:
     0.532572,0.561516,0.169805,0.061747,0.165946,483.000000,461.000000,22.000000,8.000000,0.000000,0.000000,0.532572,0.561516,0.169805,0.061747,0.165946,483.000000,461.000000,22.000000,8.000000,0.000000,0.000000:
0000
0000
0000
0000
,
0000
0000
0000
0000
,
0001
0000
0000
0000
1000
0000
0001
0000
0000
0000
0100
0000
0000
0100
0000
0000
,
0010
0000
0000
0010
0000
0000
1000
0000
0000
0000
0001
0000
0001
0000
0000
0000
,
0100
0000
0001
0000
0100
0000
0001
0000
0100
0000
0010
0100
0000
0010
0100
0000
,
0010
0000
1000
0000
0010
0000
1000
0000
0100
0000
1000
0010
0000
0000
1000
0000
,
0100
0000
0010
0000
0100
0000
1000
0000
0100
0000
0010
0100
0000
0010
0100
0000
,
1000
0100
0010
0000
0000
0001
0001
0000
,
2001
0000
0000
0000
3100
0000
0010
0000
0100
0000
0000
0010
0000
0000
0001
0000
,
0000
1000
0000
0010
0000
0000
0100
0000
,
0101
0000
0000
0000
0001
0000
0100
0000
1000
0000
0000
0100
0000
0000
0001
0000
,
0000
0001
0100
0010
0000
0000
0000
0000
,
1000
0000
0001
0000
0010
0000
0001
0000
1000
0000
0010
1000
0000
0010
1000
0000
,
0001
0000
0010
0000
0001
0000
1000
0000
0001
0000
0010
0001
0000
0000
1000
0000
,
0010
0000
1000
0000
0001
0000
1000
0000
0100
0000
0010
0100
0000
0010
0001
0000
,
0100
0001
0010
0000
0000
0001
1000
1000
,
0201
0000
0000
0000
0310
0000
0010
0000
1000
0000
0000
1000
0000
0000
0100
0000
,
0000
0001
0000
0010
0000
0001
1000
0000
,
0011
0000
0000
0000
1000
0000
0100
0000
0001
0000
0000
0100
0000
0000
1000
0000
,
0000
0010
0000
0001
0000
0000
0000
0000
,
1000
0100
1000
0100
1000
0100
1000
0100
,
1000
0001
1000
0001
1000
0001
1000
0001
,
0010
0001
0010
0001
0010
0001
0010
0001
,
1000
0001
1000
0001
1000
0001
1000
0001
,
0100
0001
0100
0001
0100
0001
0100
0001
,
0100
0010
0100
0010
0100
0010
0100
0010
,
0100
1000
0100
1000
0100
1000
0100
1000
,
0001
0010
0001
0010
0001
0010
0001
0000
,
1000
0001
0100
0001
0010
0001
1000
0001
,
0100
0001
0010
0001
0100
0001
1000
0100
,
0010
0100
1000
0100
1000
0100
0010
0100
,
1000
0100
0010
0100
1000
0100
1000
0010
,
1000
0010
0100
0010
1000
0010
0100
0010
,
0100
0001
0010
0001
1000
0100
0010
0100
,
1000
0001
0100
0010
1000
0001
0100
0010
,
1000
0100
0010
0001
0010
0100
1000
0100
,
0010
0000
0001
1000
0000
0001
1000
0000
,
0110
0000
0100
0100
0000
0010
0010
0000
,
1010
0000
0001
0100
0000
0001
0010
0000
,
0001
0000
1000
0000
1000
0000
0000
0000
0000
0100
0001
0000
0001
0000
0001
0000
,
0100
0010
1000
0010
0000
1000
0100
0010
,
0100
1000
0100
0010
0000
0001
0001
0000
,
1000
0001
0100
0010
0000
1000
0001
0100
,
0001
0000
0010
0000
0100
0000
0000
1000
0000
0000
1000
0000
0100
0000
0010
0000
,
0011
0000
1000
1000
0000
0010
0010
0000
,
0100
0001
0001
0100
0000
0010
1010
0000
,
0100
0000
0001
1000
0001
0000
0100
0000
0000
0000
0010
0000
0010
0000
0000
0000
,
2002
0000
0000
3003
,
1000
0000
0100
0000
0010
0000
0001
0000
0010
0000
0000
0100
0000
0000
0010
0000
,
0100
0000
0010
0000
0001
0000
0010
0000
0100
0000
0000
1000
0000
0000
1000
0000
,
1000
0000
0010
0000
1000
0000
0001
0000
0100
0000
0000
0001
0000
0000
1000
0000
,
0001
0000
0010
0000
0001
0000
1000
0000
0100
0000
0000
0100
0000
0000
0000
0000
,
0010
0000
0100
0000
1000
0000
0100
0000
0010
0000
0001
0010
0000
0001
0010
0000
,
0001
0000
0100
0000
0010
0000
0100
0000
0001
0000
0100
0001
0000
0000
1000
0000
,
0001
0000
0100
0000
1000
0000
0100
0000
0001
0000
0100
0010
0000
0100
0010
0000
,
1000
0000
0010
0000
0001
0000
0010
0000
1000
0000
0001
1000
0000
0000
0000
0000
,
0100
0100
1000
0100
1000
1000
0100
0000
,
0010
0001
0001
0010
0010
0001
0100
0000
,
0010
0010
1000
0010
0010
1000
0010
0000
,
0100
0100
0001
0100
0001
0001
0100
0000
,
0001
0010
0001
0000
1000
0000
1010
0000
,
0001
0000
0100
0000
0010
0000
0000
0010
0000
0010
0000
0000
1000
0000
1000
0000
,
0100
0000
2020
0000
0000
3030
0000
0000
,
1000
0000
0000
1001
0000
0000
1000
0000
0001
0000
0100
0000
0010
0000
1000
0000
,
0100
0000
0000
0010
0000
0000
0001
0000
0000
0000
1000
0000
0001
0000
0010
0000
,
0100
0000
0000
0010
0000
0000
1000
0000
0000
0000
0001
0000
0100
0000
0000
0000
,
0010
0000
0000
0001
0000
0000
0010
0000
0000
0000
0001
0000
1000
0000
0000
0000
,
0100
0000
0000
0100
0000
0000
0110
0000
0000
0000
0100
0000
0100
0000
0000
0000
,
0011
0000
0000
1001
0000
0000
1001
0000
0000
0000
0100
0000
0010
0000
0000
0000
,
1010
0000
0000
1010
0000
0000
0110
0000
0000
0000
0001
0000
1000
0000
0000
0000
,
0011
0000
0000
0101
0000
0000
1010
0000
0000
0000
0010
0000
1000
0010
0000
0000
,
0100
0010
0100
0000
0001
0100
0001
0000
1000
0001
1000
0000
0020
0000
2000
0000
,
0000
0000
0000
3030
;
