#TITLE:Minimal Love;
#SUBTITLE:;
#ARTIST:Nathalie;
#TITLETRANSLIT:;
#SUBTITLETRANSLIT:;
#ARTISTTRANSLIT:;
#GENRE:;
#CREDIT:;
#BANNER:minimallovebn.png;
#BACKGROUND:minimallovebg.png;
#LYRICSPATH:;
#CDTITLE:;
#MUSIC:minimallove.ogg;
#OFFSET:-0.368917;
#SAMPLESTART:49.299995;
#SAMPLELENGTH:12.359984;
#SELECTABLE:YES;
#BPMS:0.000000=155.000000
;
#STOPS:
;
#BGCHANGES:16.000=blueclassicplasma.mp4=1.000=1=0=1=SongBgWithMovieViz==CrossFade==,
28.000=minimallovebg.png=1.000=1=0=1===CrossFade==,
32.000=flash=1.600=0=0=1=====,
32.250=flyingglowingstars.mp4=1.000=0=1=1=StretchRewind====,
64.000=blueclassicplasma.mp4=1.000=1=1=1=StretchRewind==CrossFade==,
96.000=romanticglow.mp4=1.600=0=1=1=StretchRewind==CrossFade_Fastest==,
124.000=minimallovebg.png=1.000=1=0=1===CrossFade==,
128.000=flash=1.600=0=0=1=====,
128.250=romanticglow.mp4=1.600=0=0=1=====,
160.000=flash=1.600=0=0=1=====,
160.250=4K Heart .mp4=1.600=0=1=1=StretchRewind====,
192.000=flash=1.600=0=0=1=====,
192.250=flyingglowingstars.mp4=1.000=0=1=1=StretchRewind====,
224.000=flash=1.600=0=0=1=====,
224.250=blueclassicplasma.mp4=1.000=0=1=1=StretchRewind====,
255.500=flash=1.600=0=0=1=====,
255.750=minimallovebg.png=1.000=0=0=1=====,
99999=-nosongbg-=1.000=0=0=0 // don't automatically add -songbackground-
;
#KEYSOUNDS:;
#ATTACKS:;

//---------------dance-single - C. Picardy----------------
#NOTES:
     dance-single:
     :
     Beginner:
     1:
     0.107856,0.156463,0.029802,0.000000,0.000000,76.000000,73.000000,3.000000,0.000000,0.000000,0.000000,0.107856,0.156463,0.029802,0.000000,0.000000,76.000000,73.000000,3.000000,0.000000,0.000000,0.000000:
0000
0000
0000
0000
,
0000
0000
0000
0000
,
0000
0000
0000
0000
,
0000
0000
0000
0000
,
1000
0000
0000
0000
,
0001
0000
0000
0000
,
1000
0000
0000
0000
,
0000
0000
0000
0000
,
0100
0000
0100
0000
,
0100
0000
0000
0000
,
0010
0000
0010
0000
,
0010
0000
0000
0000
,
1000
0000
1000
0000
,
1000
0000
0000
0000
,
0001
0000
0001
0000
,
0001
0000
0000
0000
,
0100
0000
0000
0000
,
0010
0000
0000
0000
,
1000
0000
0000
0000
,
0001
0000
0000
0000
,
0100
0000
0000
0000
,
1000
0000
0000
0000
,
0010
0000
0000
0000
,
0001
0000
0000
0000
,
1000
0000
0001
0000
,
0001
0000
0000
0000
,
0001
0000
1000
0000
,
1000
0000
0000
0000
,
0010
0000
0000
0000
,
0100
0000
0000
0000
,
0001
0000
0001
0000
,
0001
0000
0000
0000
,
1001
0000
0000
0000
,
0100
0000
0000
0000
,
0010
0000
0000
0000
,
1000
0000
0000
0000
,
0001
0000
0000
0000
,
0010
0000
0000
0000
,
0100
0000
0000
0000
,
1000
0000
0000
0000
,
1001
0000
0000
0000
,
0100
0000
0100
0000
,
0100
0000
0000
0000
,
0010
0000
0000
0000
,
1000
0000
1000
0000
,
1000
0000
0000
0000
,
0001
0000
0000
0000
,
0010
0000
0010
0000
,
0010
0000
0000
0000
,
0100
0000
0000
0000
,
0001
0000
0000
0000
,
1000
0000
0000
0000
,
0010
0000
0000
0000
,
0100
0000
0000
0000
,
0001
0000
0000
0000
,
1000
0000
0000
0000
,
1001
0000
0001
0000
,
0001
0000
0000
0000
,
1000
0000
1000
0000
,
1000
0000
0000
0000
,
0010
0000
0100
0000
,
0100
0000
0000
0000
,
0100
0000
0010
0000
,
0010
0000
0000
0000
;

//---------------dance-single - C. Picardy----------------
#NOTES:
     dance-single:
     :
     Easy:
     4:
     0.323569,0.348316,0.198683,0.079473,0.000000,228.000000,208.000000,20.000000,8.000000,0.000000,0.000000,0.323569,0.348316,0.198683,0.079473,0.000000,228.000000,208.000000,20.000000,8.000000,0.000000,0.000000:
0000
0000
0000
0000
,
0000
0000
0000
0000
,
0000
0000
0000
0000
,
0000
0000
0000
0000
,
1000
0000
0100
0000
,
1000
0000
0010
0000
,
0100
0000
0001
0000
,
0020
0000
0000
0030
,
0100
1000
0100
1000
,
0010
0100
0010
0100
,
0001
0010
0001
0010
,
0100
1000
0010
0100
,
0001
0100
0001
0010
,
0001
1000
0100
1000
,
0010
0100
0010
1000
,
0001
0010
0100
1000
,
1001
0000
0110
0000
,
1000
0001
0100
0100
,
1010
0000
1100
0000
,
0001
0010
0001
0100
,
0011
0000
0101
0000
,
0010
1000
0001
0100
,
1001
0000
0110
0000
,
1000
0001
0100
0010
,
1000
1000
0001
0100
,
0010
1000
0100
1000
,
0001
0010
0001
1000
,
1000
0100
0010
0010
,
0001
0001
0100
0010
,
1000
0100
0100
0010
,
0100
0000
0110
0000
,
2002
0000
3003
0000
,
0010
0100
1001
0000
,
0100
0100
0010
0010
,
1000
0001
0001
0000
,
0010
0001
1000
0001
,
0100
0010
1001
0000
,
0010
0010
0100
0100
,
1000
0001
0100
0001
,
0010
0100
1000
0000
,
1100
0101
1100
0000
,
0001
0100
0001
1000
,
0100
1000
1000
0010
,
0100
0001
0010
0000
,
0011
0101
1010
0000
,
0001
1000
0010
0100
,
0001
1000
0100
0010
,
0100
1000
0002
0000
,
1003
0100
1000
0100
,
0010
0100
0010
0100
,
1000
0001
0100
0010
,
1000
1000
0001
0001
,
0010
0100
0010
0100
,
1000
0010
1000
0010
,
0100
0001
0010
0001
,
1000
0010
0100
0001
,
0100
0010
2002
3003
,
0100
0100
0010
0010
,
1000
0001
0010
0100
,
1000
1000
0001
0100
,
0010
1000
0202
0303
,
0001
1000
0100
1000
,
0010
0100
0001
1000
,
0100
0010
0001
0100
;

//---------------dance-single - C. Picardy----------------
#NOTES:
     dance-single:
     :
     Medium:
     6:
     0.391689,0.444180,0.149012,0.258288,0.000000,276.000000,261.000000,15.000000,26.000000,0.000000,0.000000,0.391689,0.444180,0.149012,0.258288,0.000000,276.000000,261.000000,15.000000,26.000000,0.000000,0.000000:
0000
0000
0000
0000
,
0000
0000
0000
0000
,
0000
0000
0000
0000
,
0000
0000
0000
0000
,
0100
0100
0200
0300
,
0001
0100
0001
1000
,
0100
1000
0010
0100
,
0002
0000
0000
1003
,
0001
0000
1000
0000
0100
0000
1000
0100
,
0010
0000
0001
0000
1000
0000
0001
0100
,
0010
0000
1000
0000
0001
0000
0010
0100
,
1000
0000
0001
0000
0100
0010
0100
0000
,
0002
0000
0103
0200
0000
0310
0020
0000
,
1030
1000
0100
0000
0010
0100
1000
0000
,
0001
0000
0100
0000
0001
0000
0100
0010
,
1000
0000
0001
0000
0010
0100
0010
0000
,
1001
0000
0100
0000
0100
0000
0000
0001
,
0000
0001
0000
1000
0000
2000
0000
0000
,
3010
0000
0100
0000
0010
0000
0000
1000
,
0000
0100
0000
1000
0000
0020
0000
0000
,
0130
0000
0001
0000
0001
0000
0000
0010
,
0000
0100
0000
1000
0000
0000
0001
0100
,
0000
0010
0000
0100
0000
0010
0000
1000
,
0000
0001
0000
1000
0010
0000
0010
0000
,
2001
0010
0100
3010
,
0002
0100
1000
0013
,
2000
0001
0100
3001
,
0200
0010
0001
0301
,
1020
0100
1000
1030
,
0200
0010
1000
0310
,
0001
0000
1000
0001
0000
0100
0000
0010
,
0000
0020
0000
0000
0000
0000
0130
0000
,
0010
0100
0010
0000
2002
0000
3003
0000
,
0100
0000
0010
0000
1000
0000
0001
0100
,
0010
0000
0010
0000
1000
0000
0000
0001
,
0000
0001
0000
1000
0000
0000
0010
0000
,
0100
0010
0100
0000
2002
0000
3003
0000
,
0001
0000
0010
0000
0001
0000
0100
0010
,
0100
0001
1000
0100
,
0010
0100
1000
0001
,
1000
0100
0010
0000
0022
0000
0033
0000
,
1000
0000
0010
0000
0100
0000
0010
1000
,
0100
0000
0100
0000
0010
0000
0000
0001
,
0000
0100
0000
0010
0000
0000
0100
0000
,
0001
0010
0100
0000
2200
0000
3300
0000
,
0001
0000
1000
0000
0100
0000
1000
0010
,
0100
0001
1000
0100
,
0010
0000
0001
0100
0020
0000
0000
0000
,
1030
0000
0001
0000
0100
0000
0010
1000
,
0100
0000
0010
0000
0001
0000
1000
0010
,
0100
0000
0001
0000
0100
0000
0001
0100
,
1000
0000
0100
0000
0001
0000
0010
0100
,
2000
0000
3001
0002
0000
0103
0200
0000
,
0310
1000
1000
0000
0001
0000
1000
0001
,
0100
0000
0010
0000
1000
0000
0100
1000
,
0010
0000
0100
0000
0001
0100
0010
0000
,
1000
0100
0010
0000
1001
0000
0100
0000
,
0010
0000
1000
0000
0001
0100
0010
0000
,
1010
0100
0101
1000
,
0011
0100
1001
0100
,
0010
1000
0100
0000
0011
0000
1000
0000
,
0011
0000
0100
0000
1010
0000
0100
0001
,
0010
0100
1000
0001
,
1000
0100
0010
0000
0001
0100
0010
1000
;

//---------------dance-single - C. Picardy----------------
#NOTES:
     dance-single:
     :
     Challenge:
     10:
     0.955096,0.952746,0.407300,0.307958,1.077854,673.000000,632.000000,41.000000,31.000000,50.000000,0.000000,0.955096,0.952746,0.407300,0.307958,1.077854,673.000000,632.000000,41.000000,31.000000,50.000000,0.000000:
0000
0000
0000
0000
,
0000
0000
0000
0000
,
0000
0000
0000
0000
,
0000
0000
0000
0000
,
0010
0100
0020
0000
0031
0000
0100
0000
,
0010
0000
0000
1000
0000
0000
0001
0000
0000
0100
0000
0000
0010
1000
0000
0100
,
1000
0000
0100
0010
0000
0001
0010
0000
0100
0010
0000
0100
0000
0000
2002
0000
,
0000
0000
0000
0000
0000
0000
0000
0000
0000
0000
0000
3003
M00M
0000
0000
0000
,
M11M
0000
0001
0100
0010
1000
0002
0000
0000
0013
0100
1000
0001
0100
0010
1000
,
0100
0000
0010
0100
0000
1000
0000
0001
0000
1000
0001
0100
0010
0000
1000
0100
,
0020
0000
0000
0031
0010
0100
2000
0000
0000
3001
0100
0010
0100
0001
0010
0100
,
1000
0000
0001
0100
0010
0100
1000
0100
0001
0010
0100
0010
1000
0010
0100
0010
,
0001
0000
0000
11MM
0000
0000
M1M1
0000
0000
M11M
0000
0000
1M1M
0000
0000
MM11
,
0000
1000
0000
0000
M1M1
0000
0000
1MM1
0000
0000
0100
0000
M11M
0000
0010
0100
,
2000
0000
0001
3010
0100
0010
0002
0000
0000
1003
0100
0010
0100
1000
0010
0100
,
0010
0000
0010
1000
0001
0100
0010
1000
0001
0010
0100
1000
0001
0100
0010
1000
,
0001
0000
0100
0000
0010
0000
1000
0010
1000
0000
0001
0000
1000
0000
0100
0010
,
0100
0000
1000
0000
0001
0000
0100
0010
0100
0000
0001
0000
1000
0100
1000
0100
,
1000
0000
0001
0000
0100
0000
0010
0100
0001
0000
1000
0000
0100
0000
0010
0100
,
1000
0000
0001
0000
0100
0000
0001
0010
0100
0000
1000
0000
0001
0010
0100
0010
,
0001
0000
1000
0000
0010
0000
0100
0010
1000
0000
0100
0000
0010
0000
0001
0100
,
0010
0000
1000
0000
0001
0000
1000
0100
0010
0000
0100
0000
1000
0000
0001
0100
,
0010
0000
1000
0000
0100
0000
1000
0010
0100
0000
0001
0000
1000
0000
0100
0010
,
0001
0000
0100
0010
1000
0000
0001
0100
0001
0100
0010
0000
1000
0100
0010
0000
,
0001
0010
0001
0000
0010
0001
0010
0000
0100
1000
0100
0000
1000
0100
1000
0000
,
0001
0100
0001
0000
0100
0001
0100
0000
0010
1000
0010
0000
1000
0010
1000
0000
,
0100
0200
0001
0302
0100
0203
1000
2300
,
0010
0000
3020
0000
0001
0000
0032
0000
0010
0003
1010
0000
1000
0001
0100
0000
,
0001
0100
0010
0000
1000
0100
0010
0000
0001
0010
0100
0000
1000
0010
0100
0000
,
0001
0100
0010
0000
0010
0100
0001
0000
1000
0100
0010
0000
0010
0100
1000
0000
,
0001
0100
0001
1MM1
0000
11MM
0000
M1M1
,
0000
M22M
0000
0000
0330
1000
0001
0100
,
0101
0000
1000
0000
1100
0000
0001
0000
0101
0000
1000
0000
0100
0000
0010
0001
,
0010
0000
0100
0000
1000
0000
0001
0100
0001
0000
1000
0000
0100
1000
0100
1000
,
0100
0000
0010
0000
0001
0000
0002
0000
0100
0000
0203
0000
0010
1300
0001
0000
,
0010
0000
0020
0000
0100
0000
0230
0000
1000
0310
0100
0000
0010
0100
0001
0000
,
0101
0000
0001
0000
0011
0000
1000
0000
1010
0000
0100
0000
0001
0000
1000
0100
,
1000
0000
0010
0000
0100
0000
0001
0010
0001
0000
1000
0000
0100
0010
0100
0010
,
0100
0000
1000
0000
0001
0000
0010
0001
0010
0000
0100
0000
1000
0000
0001
0100
,
0001
0000
1000
0100
1000
0000
0001
0100
0010
1000
0100
0010
0001
0100
0010
0000
,
1001
0000
0001
0000
0101
0000
1000
0000
1100
0000
0001
0000
0010
0000
0100
1000
,
0010
0000
0100
0000
0001
0000
0010
0100
1000
0000
0001
0000
1000
0100
0010
0001
,
0100
0000
0010
0000
1010
0000
1000
0000
1001
0000
1000
0000
0100
0000
0010
0100
,
1000
0000
0001
0100
0010
0000
1000
0001
0100
0000
0010
1000
0100
1000
0010
0000
,
0110
0000
0100
0000
0101
0000
0100
0000
0110
0000
1000
0000
0001
0000
1000
0100
,
0001
0000
0100
0000
1000
0000
0001
0100
1000
0000
0100
0000
0001
0000
0100
0000
,
0010
1000
0010
0000
0100
0001
0100
0000
0001
0010
0001
0000
1000
0100
1000
0000
,
0001
0100
0010
0000
1000
0100
0010
0000
0100
0010
0100
0010
0100
0000
1000
0000
,
1MM1
0000
0100
0010
0001
0100
0020
0000
0000
1030
0001
0100
0010
1000
0100
0010
,
0002
0000
0100
0013
0000
1000
0000
0001
0000
0010
0100
1000
0001
0000
0100
0010
,
2000
0000
0000
3001
0100
0010
0200
0000
0000
0301
0010
0100
1000
0100
0010
0001
,
1000
0000
0100
0010
0001
0010
0100
0010
1000
0010
0100
0010
0001
0010
0100
1000
,
0001
0000
0000
M11M
0000
0000
11MM
0000
0000
M1M1
0000
0000
1M1M
0000
0000
MM11
,
0000
0100
0000
0000
1MM1
0000
0000
M11M
0000
0000
1000
0000
11MM
0000
0001
0100
,
0020
0000
0000
1030
0100
0010
0002
0000
0000
0013
0100
1000
0001
0100
0010
0100
,
0001
0000
1000
0100
0010
0100
0001
0100
0010
0100
1000
0001
0100
0010
0100
0001
,
2000
0000
0001
3100
0001
0100
0002
0000
0000
1003
0100
0010
0100
1000
0100
0010
,
0100
0000
1000
0001
1000
0001
0100
0010
0100
0001
1000
0100
0010
0100
1000
0001
,
0200
0000
0001
0310
0001
0010
0002
0000
0000
1003
0010
0100
0010
1000
0001
0100
,
0010
0000
1000
0001
0100
0010
1000
0100
0010
0001
0010
0100
1000
0010
0100
0001
,
1000
0000
1000
0100
0000
0100
0001
0000
0001
0100
0000
0100
1000
0000
1000
0010
,
0000
0010
0100
0000
0100
0001
0000
0001
0010
0000
0100
0000
11MM
0000
M1M1
0000
,
1001
0000
0001
0100
0010
1000
0002
0000
0000
0013
0001
0100
0010
1000
0100
0010
,
0001
0000
0100
0010
0100
0001
1000
0010
0100
0001
0010
0100
1000
0010
0100
0001
;

//---------------dance-single - C. Picardy----------------
#NOTES:
     dance-single:
     :
     Hard:
     8:
     0.573342,0.571647,0.278156,0.198683,0.153979,404.000000,376.000000,28.000000,20.000000,9.000000,0.000000,0.573342,0.571647,0.278156,0.198683,0.153979,404.000000,376.000000,28.000000,20.000000,9.000000,0.000000:
0000
0000
0000
0000
,
0000
0000
0000
0000
,
0000
0000
0000
0000
,
0000
0000
0000
0000
,
0001
0100
1000
0000
0100
0000
0001
0000
,
0010
0000
0000
0100
0000
0000
1000
0000
0000
0100
0000
0000
0010
0000
0000
0000
,
0001
0000
0000
0010
0000
0000
0001
0000
0100
0000
0000
0010
0000
0000
2000
0000
,
0MMM
0MMM
0MMM
3001
,
0210
0000
0301
0020
0000
0130
1000
0100
,
0010
0000
0000
0001
0000
0010
0000
0100
0000
0000
1000
0000
0010
0000
0100
0000
,
0020
0000
1030
0002
0000
1003
0100
0010
,
0001
1000
0100
1000
0010
0100
0001
0010
,
0001
0000
0000
0011
0000
0000
1000
0000
0000
1100
0000
0000
0001
0000
0000
0101
,
0000
0100
0000
0000
0010
0000
0000
1000
0000
0000
0001
0000
0010
0000
0100
0000
,
2000
0000
3001
0200
0000
0310
1000
0100
,
0010
0100
1000
0100
0010
0001
0100
0010
,
1000
0100
1100
0001
,
1000
0100
0010
0100
1000
0000
0001
0001
,
0100
0000
0010
0000
1010
0000
0001
0001
,
1000
0100
0010
0000
0100
0010
0001
0010
,
0100
0000
1001
0000
0100
0000
0010
0010
,
1000
0100
0000
0010
0000
0001
0010
0100
,
1000
0010
0100
0000
0001
0010
0100
0000
,
1000
0000
0100
0000
0010
0000
0001
0000
0100
0010
0000
0000
1000
0001
0000
0000
,
2100
0000
0010
0000
3001
0100
0010
1000
,
0200
0000
0010
0000
1300
0001
0010
0100
,
0020
0000
0001
0000
0130
0010
0001
0100
,
0010
1000
0100
0000
1001
0000
0110
0000
,
0102
0000
0010
0000
0103
0010
1000
0001
,
0200
0000
1000
0000
0301
0010
0100
0010
,
0001
0100
0010
0100
0000
1001
0000
0200
,
0000
0020
0000
0000
0330
1000
0100
0010
,
0001
0100
0010
0000
1001
0000
0100
0000
,
0001
0100
1000
0100
0001
0010
0100
0100
,
1000
1100
0101
1000
,
0010
1000
0100
0000
0010
0000
0001
0010
,
0100
0010
0001
0000
1010
0000
0011
0000
,
0100
0010
0100
0001
0010
0100
1000
0010
,
0100
0000
0001
1000
0000
0100
0000
0010
,
0000
0100
1000
0010
0100
0001
0010
0100
,
1000
0010
0100
0000
1001
0000
0110
0000
,
1000
0100
0001
0100
1000
1000
0010
0010
,
0100
0011
0101
0010
,
1000
0010
0001
0010
1000
0000
0001
0100
,
0010
0010
1000
0000
1100
0000
0101
0000
,
0001
0010
1000
0010
0001
0100
0010
0010
,
1000
0000
0001
0100
0000
0010
0000
1000
,
0000
0001
1000
0100
0010
0000
0100
0000
,
1002
0000
0103
0020
0000
1030
0001
0100
,
0010
0000
0000
1000
0000
0100
0000
0010
0000
0000
0001
0000
0010
0000
0001
0000
,
0200
0000
0310
2000
0000
3001
0100
1000
,
1000
0100
0001
0010
1000
0010
0100
1000
,
0010
0000
0000
0110
0000
0000
0100
0000
0000
1001
0000
0000
0100
0000
0000
0011
,
0000
0001
0000
0000
0100
0000
0000
0010
0000
0000
1000
0000
0001
0000
0100
0000
,
2000
0000
3100
0002
0000
0013
0100
1000
,
0001
0010
0001
0010
0100
1000
0100
1000
,
1001
0000
0000
0001
0100
0000
0010
0000
0000
1000
0100
0000
0010
0000
0100
0000
,
1000
0001
0100
0010
0100
0001
0010
0100
,
1000
0000
0000
0010
0100
0000
0001
0000
0000
0010
0100
0000
1000
0000
0001
0000
,
0100
1000
0100
0001
0010
0001
1000
0100
,
0010
0000
0000
0001
0010
0000
0100
0000
0000
1000
0010
0000
0100
0000
0001
0000
,
0010
0100
1000
0100
0001
0100
1000
1000
,
0010
0000
0000
0100
0010
0000
0100
0000
0000
0001
1000
0000
0100
0000
0010
0000
,
0100
0000
1000
0000
0001
0000
0100
0000
0010
0000
1000
0000
0001
0000
0010
0100
;
