#TITLE:Machine Beat;
#SUBTITLE:;
#ARTIST:Kenichiro Fukui (Einhander);
#TITLETRANSLIT:;
#SUBTITLETRANSLIT:;
#ARTISTTRANSLIT:;
#GENRE:;
#CREDIT:;
#BANNER:machinebeatbn.png;
#BACKGROUND:machinebeatbg.png;
#LYRICSPATH:;
#CDTITLE:;
#MUSIC:machinebeat.ogg;
#OFFSET:-0.826149;
#SAMPLESTART:26.429272;
#SAMPLELENGTH:11.180000;
#SELECTABLE:YES;
#BPMS:0.000000=149.990005
;
#STOPS:
;
#BGCHANGES:16.000=4Kfantasyworld.mp4=1.000=1=0=1=SongBgWithMovieViz==CrossFade==,
32.000=flash=1.000=0=0=1=====,
32.250=4Kfantasyworld.mp4=1.000=0=0=1=====,
64.000=flash=1.000=0=0=1=====,
64.250=4Kfantasyworld.mp4=1.000=0=0=1=====,
80.000=flash=1.000=0=0=1=====,
80.250=4Kfantasyworld.mp4=1.000=0=0=1=====,
96.000=flash=1.000=0=0=1=====,
96.250=4Kfantasyworld.mp4=1.000=0=0=1=====,
112.000=flash=1.000=0=0=1=====,
112.250=4Kfantasyworld.mp4=1.000=0=0=1=====,
128.000=4Kfantasyworld.mp4=1.000=1=0=1===CrossFade=#FF00FF=,
144.000=4Kfantasyworld.mp4=1.000=1=0=1===CrossFade=#00FFFF=,
160.000=4Kfantasyworld.mp4=1.000=1=0=1===CrossFade==,
288.000=flash=0.400=0=0=1=====,
288.250=machinebeatbg.png=1.000=0=0=1=====,
99999=-nosongbg-=1.000=0=0=0 // don't automatically add -songbackground-
;
#KEYSOUNDS:;
#ATTACKS:;

//---------------dance-single - C. Picardy----------------
#NOTES:
     dance-single:
     :
     Beginner:
     1:
     0.106105,0.151923,0.092842,0.016880,0.000000,88.000000,77.000000,11.000000,2.000000,0.000000,0.000000,0.106105,0.151923,0.092842,0.016880,0.000000,88.000000,77.000000,11.000000,2.000000,0.000000,0.000000:
0000
0000
0000
0000
,
0000
0000
0000
0000
,
0000
0000
0000
0000
,
0000
0000
0000
0000
,
1000
0000
0000
0000
,
0000
0000
0000
0000
,
0001
0000
0000
0000
,
0000
0000
0000
0000
,
0110
0000
0000
0000
,
1000
0000
0000
0000
,
0001
0000
0000
0000
,
0100
0000
0000
0000
,
0110
0000
0000
0000
,
0010
0000
0000
0000
,
0100
0000
0000
0000
,
0001
0000
0000
0000
,
1001
0000
0001
0000
,
0001
0000
0000
0000
,
1000
0000
1000
0000
,
1000
0000
0000
0000
,
0110
0000
0010
0000
,
0010
0000
0000
0000
,
0100
0000
0100
0000
,
0100
0000
0000
0000
,
1001
0000
1000
0000
,
1000
0000
0000
0000
,
0001
0000
0001
0000
,
0001
0000
0000
0000
,
0110
0000
0100
0000
,
0010
0000
0000
0000
,
0010
0000
0100
0000
,
0010
0000
0000
0000
,
0002
0000
0000
0000
,
0000
0000
0000
0000
,
0000
0000
0000
0000
,
0000
0000
0000
0003
,
2000
0000
0000
0000
,
0000
0000
0000
0000
,
0000
0000
0000
0000
,
0000
0000
0000
3000
,
0010
0000
0000
0000
,
1000
0000
0000
0000
,
0001
0000
0000
0000
,
0100
0000
0000
0000
,
0010
0000
0000
0000
,
0001
0000
0000
0000
,
1000
0000
0000
0000
,
0100
0000
0000
0000
,
0100
0000
0100
0000
,
0100
0000
0000
0000
,
0010
0000
0010
0000
,
0010
0000
0000
0000
,
0001
0000
0001
0000
,
0001
0000
0000
0000
,
1000
0000
1000
0000
,
1000
0000
0000
0000
,
1001
0000
0000
0000
,
0100
0000
0000
0000
,
1001
0000
0000
0000
,
0010
0000
0000
0000
,
0110
0000
0000
0000
,
0100
0000
0000
0000
,
0110
0000
0000
0000
,
0010
0000
0000
0000
,
0001
0000
1000
0000
,
0001
0000
0000
0000
,
1000
0000
0001
0000
,
1000
0000
0000
0000
,
0010
0000
0100
0000
,
0010
0000
0000
0000
,
0100
0000
0010
0000
,
0100
0000
0000
0000
,
1001
0000
0000
0000
;

//---------------dance-single - C. Picardy----------------
#NOTES:
     dance-single:
     :
     Easy:
     4:
     0.284554,0.431293,0.151923,0.143483,0.000000,236.000000,218.000000,18.000000,17.000000,0.000000,0.000000,0.284554,0.431293,0.151923,0.143483,0.000000,236.000000,218.000000,18.000000,17.000000,0.000000,0.000000:
// measure 0
0000
0000
0000
0000
,  // measure 1
0000
0000
0000
0000
,  // measure 2
0000
0000
0000
0000
,  // measure 3
0000
0000
0000
0000
,  // measure 4
1000
0000
1000
0000
,  // measure 5
0001
0000
0001
0000
,  // measure 6
1000
0000
0100
0000
,  // measure 7
0010
0000
0000
0000
,  // measure 8
1001
0100
0010
0010
,  // measure 9
0000
0001
1000
1000
,  // measure 10
0000
0010
0100
0100
,  // measure 11
0000
0010
0001
0001
,  // measure 12
1001
0100
0010
0100
,  // measure 13
0000
0010
0100
0001
,  // measure 14
0000
1000
0100
0010
,  // measure 15
0000
0001
1000
0100
,  // measure 16
1001
1000
0001
1000
,  // measure 17
0100
0010
0100
0010
,  // measure 18
0001
0100
0001
0100
,  // measure 19
0010
0100
0010
1000
,  // measure 20
0110
1000
0001
0100
,  // measure 21
0001
0100
0010
1000
,  // measure 22
0001
0010
0100
1000
,  // measure 23
0010
0100
0001
1000
,  // measure 24
0110
0100
0010
1000
,  // measure 25
0001
0100
1000
0100
,  // measure 26
0001
0010
1000
0010
,  // measure 27
0001
0100
0010
1000
,  // measure 28
1001
0100
0001
0010
,  // measure 29
1000
0100
0001
0010
,  // measure 30
0001
0100
1000
0010
,  // measure 31
0001
0100
1000
0010
,  // measure 32
0002
0000
0000
0003
,  // measure 33
0200
0000
0000
0300
,  // measure 34
0020
0000
0000
0030
,  // measure 35
2000
0000
0000
3000
,  // measure 36
0200
0000
0000
0300
,  // measure 37
0002
0000
0000
0003
,  // measure 38
2000
0000
0000
3000
,  // measure 39
0020
0000
0000
0030
,  // measure 40
0001
0010
0001
0000
,  // measure 41
0100
0010
0100
0000
,  // measure 42
0010
1000
0010
0000
,  // measure 43
1000
0001
1000
0000
,  // measure 44
0100
0010
0001
0000
,  // measure 45
0010
0100
1000
0000
,  // measure 46
0001
0100
1000
0000
,  // measure 47
1000
0100
0001
0000
,  // measure 48
2000
0000
3100
0010
,  // measure 49
0020
0000
0031
1000
,  // measure 50
2000
0000
3010
0100
,  // measure 51
0200
0000
0301
0001
,  // measure 52
2000
0000
3010
0100
,  // measure 53
0002
0000
1003
0100
,  // measure 54
0020
0000
0130
1000
,  // measure 55
0000
0100
1000
0001
,  // measure 56
0110
0100
0001
1000
,  // measure 57
0010
0100
0010
0100
,  // measure 58
0001
1000
0100
0010
,  // measure 59
0001
1000
0001
1000
,  // measure 60
0010
0100
0001
1000
,  // measure 61
0100
1000
0100
1000
,  // measure 62
0010
0100
0001
0010
,  // measure 63
0100
0010
0100
0010
,  // measure 64
0011
0100
0010
1000
,  // measure 65
0110
0001
1000
0100
,  // measure 66
1001
0010
0100
0001
,  // measure 67
1100
0010
0001
1000
,  // measure 68
0110
0010
0101
1000
,  // measure 69
0101
1000
1100
0001
,  // measure 70
1100
0001
0011
1000
,  // measure 71
0010
0100
0001
1000
,  // measure 72
2002
0000
0000
0000
,  // measure 73
3003
0000
0000
0000
;

//---------------dance-single - C. Picardy----------------
#NOTES:
     dance-single:
     :
     Medium:
     6:
     0.372573,0.431293,0.135043,0.219444,0.008440,309.000000,293.000000,16.000000,26.000000,0.000000,0.000000,0.372573,0.431293,0.135043,0.219444,0.008440,309.000000,293.000000,16.000000,26.000000,0.000000,0.000000:
0000
0000
0000
0000
,
0000
0000
0000
0000
,
0000
0000
0000
0000
,
0000
0000
0000
0000
,
1000
0000
0000
1000
0000
0000
0000
0000
0001
0000
0000
0000
0000
0000
0000
0000
,
0100
0000
0010
0000
,
0100
0000
0000
0100
0000
0000
0000
0000
0001
0000
0000
0000
0000
0000
0000
0000
,
0100
0100
0100
0100
,
0110
0100
0001
1000
,
0100
0010
0001
1000
,
0010
0100
0001
1000
,
0100
0000
0010
0000
0001
0000
1000
0100
,
0010
0001
1000
0010
,
0100
0001
1000
0100
,
0010
0100
1000
0010
,
0100
0000
0001
0000
0010
0000
0100
0010
,
0001
0000
0100
0000
0010
1000
0010
0000
,
0100
0000
0001
0000
1000
0100
1000
0000
,
0001
0000
0010
0000
0100
1000
0100
0000
,
0010
0000
0100
0000
0010
0001
0010
0000
,
1100
0000
0001
0000
0100
0010
1000
0000
,
0100
0000
0010
0000
0001
0100
0010
0000
,
0100
0000
0010
0000
0100
0010
1000
0000
,
0001
0000
0100
0000
0010
1000
0001
0000
,
0110
0000
0001
0000
1000
0100
0010
0000
,
0001
0000
0100
0000
0010
1000
0100
0000
,
0010
0000
0001
0000
1000
0010
0100
0000
,
0010
0000
1000
0000
0001
0100
1000
0000
,
0101
0000
1000
0000
0010
0100
0001
0000
,
1100
0000
0010
0000
1000
0100
0010
0000
,
0011
0000
0100
0000
0010
1000
0100
0000
,
0011
0000
1000
0000
0010
0100
0001
0000
,
2000
0000
3002
0000
,
0203
0000
0302
0000
,
2003
0000
3020
0000
,
0230
0000
0320
0000
,
2030
0000
3200
0000
,
0302
0000
0203
0000
,
2300
0000
3020
0000
,
0032
0000
0023
0000
,
2030
0010
0010
3100
,
0002
0010
0010
1003
,
0200
0010
0010
0301
,
2000
0010
0100
3001
,
0200
0010
1000
0301
,
0020
0100
1000
0031
,
0200
0010
0001
1300
,
0020
0001
1000
0031
,
0100
0000
0010
0000
1000
0000
0001
0100
,
1000
0100
0010
1000
,
0100
0000
0010
0000
0100
0000
1000
0100
,
0001
0100
1000
0010
,
0100
0000
0001
0000
0010
0000
0100
1000
,
0010
0100
0001
1000
,
0010
0000
0100
0000
0010
0000
1000
0100
,
0010
0000
0010
0000
0100
1000
0001
1000
,
0001
0000
0100
0000
0010
1000
0010
0000
,
0100
0000
0001
0000
1000
0010
1000
0000
,
0001
0000
0010
0000
0100
0010
0100
0000
,
1000
0000
0010
0000
0100
0010
0100
0000
,
0001
0000
0010
0000
0100
0010
0001
0000
,
1000
0000
0100
0000
0010
0001
1000
0000
,
0010
0000
0100
0000
0001
0100
0010
0000
,
1000
0000
0001
0000
1000
0001
0010
0000
,
1001
0000
0100
0000
0001
1000
0001
0000
,
0110
0000
1000
0000
0010
0100
0010
0000
,
0101
0000
1000
0000
0100
1000
0100
0000
,
0011
0000
1000
0000
0100
1000
0100
0000
,
1001
0000
0100
0000
0010
1000
0100
0000
,
0011
0000
1000
0000
0010
0100
0001
0000
,
1100
0000
0001
0000
1000
0100
0001
0000
,
0110
0000
0001
0000
0100
0010
1000
0000
,
0202
0000
0000
0000
,
0303
0000
0000
0000
;

//---------------dance-single - C. Picardy----------------
#NOTES:
     dance-single:
     :
     Challenge:
     11:
     0.856075,0.893392,0.194124,0.379808,1.244925,710.000000,687.000000,23.000000,45.000000,38.000000,0.000000,0.856075,0.893392,0.194124,0.379808,1.244925,710.000000,687.000000,23.000000,45.000000,38.000000,0.000000:
0000
0000
0000
0000
,
0000
0000
0000
0000
,
0000
0000
0000
0000
,
0000
0000
0000
0000
,
1010
0000
0000
1000
0001
0000
0000
0000
0000
0100
0010
0000
1000
0000
0000
0000
,
0001
0010
0000
0000
0001
0000
0000
0000
1000
0100
0000
0100
1000
0000
0000
0000
,
0101
0000
0000
0100
0010
0000
0000
1000
0001
0100
0000
0000
0010
0000
1000
0002
,
0400
0000
0000
0303
,
1010
0000
1000
0000
0001
0000
0000
1000
0010
1000
0001
0000
1000
0000
0100
1000
,
0100
1000
0100
0000
0010
0000
0001
0010
0001
1000
0000
0000
0010
0000
0100
0001
,
0100
0000
0010
0000
1000
0000
0000
0001
0100
0001
0100
0000
0010
0000
1000
0001
,
0100
0010
0100
0000
0001
0000
0000
1000
0100
1000
0100
0000
0010
0000
0100
0000
,
1100
0000
1000
0000
0001
0000
0000
0001
0010
0100
1000
0000
0001
0000
1000
0100
,
0010
0000
0001
0000
1000
0000
0001
1000
0010
0100
0001
0000
1000
0000
0100
1000
,
0001
0100
0000
0000
0010
0000
1000
0010
0100
0001
0000
0000
1000
0000
0001
1000
,
0100
0010
0000
0000
0001
0000
1000
0100
0010
0001
1000
0000
0010
0000
0110
0000
,
0100
0001
0100
0001
0100
0001
0100
0001
1000
0010
1000
0010
0000
0000
1000
0000
,
0001
0010
0001
0010
0001
0010
0001
0010
0100
1000
0100
1000
0000
0000
0001
0000
,
1000
0100
1000
0100
1000
0100
1000
0100
0010
0100
0010
0100
0000
0000
1000
0000
,
0010
0100
0010
0100
0010
0100
0010
0100
0001
1000
0001
1000
0000
0000
1100
0000
,
0001
0010
0001
0010
0100
0010
0100
0010
0100
1000
0100
1000
0000
0000
0001
0000
,
0010
0001
0010
0001
0100
0001
0100
0001
0100
0010
0100
0010
0000
0000
1000
0000
,
0010
1000
0010
1000
0100
1000
0100
1000
0001
0010
0001
0010
0000
0000
0100
0000
,
1000
0100
1000
0100
0010
0001
0010
0001
1000
0001
1000
0001
0000
0000
0101
0000
,
1000
0001
0100
0010
1000
0001
0010
0100
1000
0100
0010
0001
0000
0000
1000
0001
,
0100
0010
1000
0001
0010
0100
1000
0001
0100
0010
1000
0001
0000
0000
0010
0100
,
1000
0001
0010
0100
1000
0001
0100
0010
1000
0100
0010
0100
0000
0000
0010
0001
,
0100
0010
1000
0001
0100
0010
1000
0100
0010
0001
1000
0010
0000
0000
0100
0001
,
1000
0100
0010
1000
0010
0100
1000
0010
0001
0010
1000
0100
0000
0000
0010
0001
,
0100
1000
0100
0001
0100
0010
0001
0010
1000
0100
0010
0001
0000
0000
1000
0010
,
0100
1000
0100
0010
1000
0100
0001
0100
1000
0010
0100
0001
0000
0000
1000
0100
,
0001
0100
0010
1000
0010
0001
0100
1000
0100
0010
1000
0001
0000
0000
1000
0100
,
0000
0000
0000
0000
0000
0000
0000
0000
0000
0000
0000
0000
0000
0000
0000
0000
0000
0000
0000
0000
0000
0000
0000
0000
20M0
0000
0000
0000
0000
0000
0000
0000
0000
0000
0000
0000
0000
0000
0000
0000
0000
0000
0000
0000
0000
0000
0000
0000
0000
0000
0000
0000
0000
0000
0000
0000
0000
0000
0000
0000
020M
0000
0000
0000
0000
0000
0000
0000
0000
0000
0000
0000
0000
0000
0000
0000
0000
0000
0000
0000
0000
0000
0000
0000
0000
0000
0000
0000
0000
0000
0000
0000
3000
0000
0000
0000
20M0
0000
0000
0000
0000
0000
0000
0000
0000
0000
0000
0000
0000
0000
0000
0000
0000
0000
0000
0000
0000
0000
0000
0000
0000
0000
0000
0000
0000
0000
0000
0000
0000
0000
0000
0300
020M
0000
0000
0000
0000
0000
0000
0000
0000
0000
0000
0000
0000
0000
0000
0000
0000
0000
0000
0000
0000
0000
0000
0000
0000
0000
0000
0000
0000
0000
0000
0000
3000
0000
0000
0000
10M0
0000
0000
0000
0000
0000
0000
0000
0000
0000
0000
0000
0000
0000
0000
0000
0000
0000
0000
0000
0000
0000
0300
0000
,
0200
0000
0000
0000
0000
0000
0000
0000
0000
0000
0000
0000
0000
0000
0000
0000
0000
0000
0000
0000
0000
0000
0000
0000
002M
0000
0000
0000
0000
0000
0000
0000
0000
0000
0000
0000
0000
0000
0000
0000
0000
0000
0000
0000
0000
0000
0000
0000
0000
0000
0000
0000
0000
0000
0000
0000
0000
0000
0000
0300
M200
0000
0000
0000
0000
0000
0000
0000
0000
0000
0000
0000
0000
0000
0000
0000
0000
0000
0000
0000
0000
0000
0000
0000
0000
0000
0000
0000
0000
0000
0000
0000
0000
0030
0000
0000
002M
0000
0000
0000
0000
0000
0000
0000
0000
0000
0000
0000
0000
0000
0000
0000
0000
0000
0000
0000
0000
0000
0000
0000
0000
0000
0000
0000
0000
0000
0000
0000
0000
0000
0000
0300
M200
0000
0000
0000
0000
0000
0000
0000
0000
0000
0000
0000
0000
0000
0000
0000
0000
0000
0000
0000
0000
0000
0000
0000
0000
0000
0000
0000
0000
0000
0000
0000
0000
0030
0000
0000
002M
0000
0000
0000
0000
0000
0000
0000
0000
0000
0000
0000
0000
0000
0000
0000
0000
0000
0000
0000
0000
0000
0000
0000
,
0300
0000
0000
0000
0000
0000
0000
0000
0000
0000
0000
0000
0000
0000
0000
0000
0000
0000
0000
0000
0000
0000
0000
0000
M002
0000
0000
0000
0000
0000
0000
0000
0000
0000
0000
0000
0000
0000
0000
0000
0000
0000
0000
0000
0000
0000
0000
0000
0000
0000
0000
0000
0000
0000
0000
0000
0000
0000
0000
0030
0M20
0000
0000
0000
0000
0000
0000
0000
0000
0000
0000
0000
0000
0000
0000
0000
0000
0000
0000
0000
0000
0000
0000
0000
0000
0000
0000
0000
0000
0000
0000
0000
0000
0003
0000
0000
M002
0000
0000
0000
0000
0000
0000
0000
0000
0000
0000
0000
0000
0000
0000
0000
0000
0000
0000
0000
0000
0000
0000
0000
0000
0000
0000
0000
0000
0000
0000
0000
0000
0030
0000
0000
0M20
0000
0000
0000
0000
0000
0000
0000
0000
0000
0000
0000
0000
0000
0000
0000
0000
0000
0000
0000
0000
0000
0000
0000
0000
0000
0000
0000
0000
0000
0000
0000
0000
0003
0000
0000
M002
0000
0000
0000
0000
0000
0000
0000
0000
0000
0000
0000
0000
0000
0000
0000
0000
0000
0000
0000
0000
0000
0000
0000
,
0030
0000
0000
0000
0000
0000
0000
0000
0000
0000
0000
0000
0000
0000
0000
0000
0000
0000
0000
0000
0000
0000
0000
0000
M200
0000
0000
0000
0000
0000
0000
0000
0000
0000
0000
0000
0000
0000
0000
0000
0000
0000
0000
0000
0000
0000
0000
0000
0000
0000
0000
0000
0000
0000
0000
0000
0000
0000
0000
0003
00M2
0000
0000
0000
0000
0000
0000
0000
0000
0000
0000
0000
0000
0000
0000
0000
0000
0000
0000
0000
0000
0000
0000
0000
0000
0000
0000
0000
0000
0000
0000
0000
0000
0000
0300
0000
M200
0000
0000
0000
0000
0000
0000
0000
0000
0000
0000
0000
0000
0000
0000
0000
0000
0000
0000
0000
0000
0000
0000
0000
0000
0000
0000
0000
0000
0000
0000
0000
0000
0000
0000
0003
00M2
0000
0000
0000
0000
0000
0000
0000
0000
0000
0000
0000
0000
0000
0000
0000
0000
0000
0000
0000
0000
0000
0000
0000
0000
0000
0000
0000
0000
0000
0000
0000
0000
0000
0300
0000
M200
0000
0000
0000
0000
0000
0000
0000
0000
0000
0000
0000
0000
0000
0000
0000
0000
0000
0000
0000
0000
0000
0000
0000
,
0000
0000
0000
0000
0000
0000
0000
0000
0000
0000
0000
0000
0000
0000
0000
0000
0000
0000
0000
0000
0000
0000
0003
0000
00M2
0000
0000
0000
0000
0000
0000
0000
0000
0000
0000
0000
0000
0000
0000
0000
0000
0000
0000
0000
0000
0000
0000
0000
0300
0000
0000
0000
0000
0000
0000
0000
0000
0000
0000
0000
2M00
0000
0000
0000
0000
0000
0000
0000
0000
0000
0000
0000
0000
0000
0000
0000
0000
0000
0000
0000
0000
0000
0000
0000
0000
0000
0000
0000
0000
0000
0000
0000
0000
0003
0000
0000
00M2
0000
0000
0000
0000
0000
0000
0000
0000
0000
0000
0000
0000
0000
0000
0000
0000
0000
0000
0000
0000
0000
0000
0000
0000
0000
0000
0000
0000
0000
0000
0000
3000
0000
0000
0000
2M00
0000
0000
0000
0000
0000
0000
0000
0000
0000
0000
0000
0000
0000
0000
0000
0000
0000
0000
0000
0000
0000
0000
0000
0000
0000
0000
0000
0000
0000
0000
0000
0000
0003
0000
0000
00M2
0000
0000
0000
0000
0000
0000
0000
0000
0000
0000
0000
0000
0000
0000
0000
0000
0000
3000
0000
0000
0000
0000
0000
,
1000
0000
0000
0000
0000
0000
0000
0000
0000
0000
0000
0000
0000
0000
0000
0000
0000
0000
0000
0000
0000
0000
0000
0000
M203
0000
0000
0000
0000
0000
0000
0000
0000
0000
0000
0000
0000
0000
0000
0000
0000
0000
0000
0000
0000
0000
0000
0000
0000
0000
0000
0000
0000
0000
0000
0000
0000
0000
0000
0000
00M2
0000
0000
0000
0000
0000
0000
0000
0000
0000
0000
0000
0000
0000
0000
0000
0000
0000
0000
0000
0000
0000
0000
0000
0000
0000
0000
0000
0000
0000
0000
0000
0000
0000
0300
0000
M200
0000
0000
0000
0000
0000
0000
0000
0000
0000
0000
0000
0000
0000
0000
0000
0000
0000
0000
0000
0000
0000
0000
0000
0000
0000
0000
0000
0000
0000
0000
0000
0000
0000
0003
0000
00M2
0000
0000
0000
0000
0000
0000
0000
0000
0000
0000
0000
0000
0000
0000
0000
0000
0000
0000
0000
0000
0000
0000
0000
0000
0000
0000
0000
0000
0000
0000
0000
0000
0000
0300
0000
M200
0000
0000
0000
0000
0000
0000
0000
0000
0000
0000
0000
0000
0000
0000
0000
0000
0000
0000
0000
0000
0000
0000
0000
,
0000
0000
0000
0000
0000
0000
0000
0000
0003
0000
0000
0000
0000
0000
0000
0000
0000
0000
0000
0000
0000
0000
0000
0000
032M
0000
0000
0000
0000
0000
0000
0000
0000
0000
0000
0000
0000
0000
0000
0000
0000
0000
0000
0000
0000
0000
0000
0000
0000
0000
0000
0000
0000
0000
0000
0000
0000
0000
0000
0000
2M00
0000
0000
0000
0000
0000
0000
0000
0000
0000
0000
0000
0000
0000
0000
0000
0000
0000
0000
0000
0000
0000
0000
0000
0000
0000
0000
0000
0000
0000
0000
0000
0000
0030
0000
0000
002M
0000
0000
0000
0000
0000
0000
0000
0000
0000
0000
0000
0000
0000
0000
0000
0000
0000
0000
0000
0000
0000
0000
0000
0000
0000
0000
0000
0000
0000
0000
0000
0000
0000
0000
3000
2M00
0000
0000
0000
0000
0000
0000
0000
0000
0000
0000
0000
0000
0000
0000
0000
0000
0000
0000
0000
0000
0000
0000
0000
0000
0000
0000
0000
0000
0000
0000
0000
0000
0030
0000
0000
302M
0000
0000
0000
0000
0000
0000
0000
0000
0000
0000
0000
0000
0000
0000
0000
0000
0000
0000
0000
0000
0000
0000
0000
,
0000
0000
0000
0000
0000
0000
0000
0000
0000
0000
0000
0000
0000
0000
0000
0000
0000
0000
0000
0000
0000
0000
0000
0000
M230
0000
0000
0000
0000
0000
0000
0000
0000
0000
0000
0000
0000
0000
0000
0000
0000
0000
0000
0000
0000
0000
0000
0000
0000
0000
0000
0000
0000
0000
0000
0000
0000
0000
0000
0000
00M2
0000
0000
0000
0000
0000
0000
0000
0000
0000
0000
0000
0000
0000
0000
0000
0000
0000
0000
0000
0000
0000
0000
0000
0000
0000
0000
0000
0000
0000
0000
0000
0000
0000
0300
0000
M200
0000
0000
0000
0000
0000
0000
0000
0000
0000
0000
0000
0003
0000
0000
0000
0000
0000
0000
0000
0000
0000
0000
0000
0000
0000
0000
0000
0000
0000
0000
0000
0000
0000
0000
0000
0020
0000
0000
0000
0000
0000
0000
0000
0000
0000
0000
0000
0000
0000
0000
0000
0000
0000
0000
0000
0000
0000
0000
0000
0300
0000
0000
0000
0000
0000
0000
0000
0000
0000
0000
0000
0001
0000
0000
0000
0000
0000
0000
0000
0000
0000
0000
0000
0030
0000
0000
0000
0000
0000
0000
0000
0000
0000
0000
0000
,
1000
0000
0000
0000
0110
0000
0000
0000
1000
0010
1000
0000
0001
0000
0100
0000
,
0010
0000
0000
0000
0101
0000
0000
0000
1000
0100
1000
0000
0001
0000
1000
0100
,
1000
0000
0000
0000
0011
0000
0000
0000
1000
0010
0000
0000
0110
0000
0000
0000
,
0001
1000
0000
0000
1010
0000
0000
0000
0001
0100
0010
0000
1000
0000
0001
1000
,
0100
0000
0000
0000
1001
0000
0000
0000
0010
0001
0000
0000
0110
0000
0000
0000
,
2000
0000
0000
3000
1001
0000
0000
0000
0100
0010
0000
0000
0100
0000
0001
0100
,
0010
0000
0000
0000
1010
0000
0000
0000
1000
0100
0000
0000
0011
0000
0000
0000
,
1000
0100
0010
0000
0001
0000
0000
1000
0010
0100
0001
0000
1000
0000
0001
1000
,
0100
0000
0000
0000
1001
0000
0000
0000
1000
0100
0010
0000
0001
0000
1000
0100
,
0020
0000
0000
0030
0011
0000
0000
0000
1000
0010
1000
0000
0001
0000
1000
0010
,
1000
0000
0001
0000
0100
0000
0000
0000
0010
0100
0001
0000
1000
0000
0000
0000
,
0100
1000
0100
0000
0010
0000
0001
0010
0100
1000
0000
0000
0001
0000
0100
0010
,
1000
0000
0000
0000
0101
0000
0000
0000
1000
0100
1000
0000
0010
0000
0000
0000
,
0120
0000
0000
0000
1030
0000
0000
0000
0001
0100
0010
0000
1000
0000
0001
1000
,
0010
0000
0000
0000
0110
0000
0000
0000
0100
0001
0100
0000
1001
0000
0000
0000
,
0001
1000
0100
0000
0100
0000
1000
0001
0000
1000
0000
0001
0010
0100
1000
0001
,
0010
0001
0010
0001
1000
0100
0000
1000
0100
0010
0001
1000
0000
0001
0100
0000
,
0010
1000
0010
1000
0001
0100
0000
0010
1000
0100
0010
0001
0000
0100
0010
0000
,
0000
1000
0001
0000
0100
0010
0000
1000
0001
0100
0010
1000
0000
0001
0010
0000
,
0100
0010
0001
0000
0100
0010
0000
1000
0001
0010
0100
1000
0000
0010
0100
0000
,
0000
0001
0100
0000
0001
1000
0000
0010
0100
0001
1000
0010
0000
1000
0100
0010
,
0001
0010
0100
0000
0010
0001
0000
1000
0001
1000
0000
0100
0000
0010
0001
0000
,
0000
0100
0010
0000
1000
0001
0000
1000
0100
1000
0001
0010
0000
0100
0010
0001
,
0010
0100
1000
0000
0001
0100
0000
0010
0100
0001
0100
0010
0000
1000
0001
0010
,
0100
0000
0010
0000
0001
1000
0000
0001
1000
0100
0010
0001
0000
1000
0100
0010
,
0001
0010
0100
0000
1000
0010
0000
0100
0001
1000
0010
1000
0000
0001
0010
0100
,
1000
0100
0010
0000
0001
0100
0000
0001
0010
0001
0100
0010
0000
1000
0001
0100
,
0010
1000
0001
0000
1000
0100
0000
0010
0001
0010
0100
1000
0100
0010
0001
0010
,
0100
0000
0010
0000
0001
1000
0000
0010
0100
0001
1000
0100
0000
0010
0001
0000
,
1000
0100
0010
0100
1000
0001
0000
1000
0001
0100
0010
1000
0000
0010
0100
0001
,
1000
0000
0100
0000
0010
0100
0000
1000
0001
0100
0010
1000
0000
0001
1000
0000
,
0000
1000
0001
0100
0010
1000
0100
0010
0100
1000
0001
0100
0010
0100
0001
2000
,
0002
0000
0000
0000
,
3003
0000
0000
0000
;

//---------------dance-single - C. Picardy----------------
#NOTES:
     dance-single:
     :
     Hard:
     9:
     0.577549,0.616133,0.168803,0.059081,0.459989,479.000000,459.000000,20.000000,7.000000,20.000000,0.000000,0.577549,0.616133,0.168803,0.059081,0.459989,479.000000,459.000000,20.000000,7.000000,20.000000,0.000000:
0000
0000
0000
0000
,
0000
0000
0000
0000
,
0000
0000
0000
0000
,
0000
0000
0000
0000
,
0101
0000
0000
0101
0000
0000
0000
0000
0000
0000
0010
0000
0100
0000
0000
0000
,
0000
0001
1000
0000
0000
0100
1000
0000
,
0011
0000
0000
0011
0000
0000
0000
0000
0000
0000
1000
0000
0010
0000
0000
0000
,
0100
0100
0100
0100
,
0110
0000
0000
0000
1000
0000
0000
0001
1000
0000
0010
0000
1000
0000
0000
0000
,
0010
0000
0000
0000
1000
0000
0000
0001
0010
0000
0001
0000
0100
0000
0000
0000
,
0001
0000
0000
0000
1000
0000
0000
0100
0010
0000
0001
0000
1000
0000
0000
0000
,
0001
0000
0000
0000
1000
0000
0000
0100
1000
0000
0100
0000
0010
0000
0100
0000
,
1100
0000
0000
0000
0001
0000
0100
0001
0100
0000
0010
0000
1000
0000
0000
0000
,
0001
0000
0000
0000
1000
0000
0100
1000
0100
0000
0010
0000
0001
0000
0000
0000
,
0010
0000
0000
0000
0100
0000
0010
0001
0010
0000
0100
0000
1000
0000
0000
0000
,
0001
0000
0000
0000
1000
0000
0010
1000
0010
0000
0100
0000
0001
0000
0100
0000
,
0020
0000
0000
0000
1030
0000
0000
0000
0100
0000
0100
1000
0000
0000
0100
0000
,
0010
0000
0000
0000
0001
0000
0000
0000
0010
0000
0010
0100
0000
0000
1000
0000
,
0001
0000
0000
0000
0100
0000
0000
0000
0010
0000
0010
1000
0000
0000
0010
0000
,
0100
0000
0000
0000
0001
0000
0000
0000
0100
0000
0100
0010
0000
0000
1000
0000
,
0002
0000
0000
0000
1003
0000
1000
0000
0100
0000
0100
0010
0000
0000
0001
0000
,
2000
0000
0000
0000
3010
0000
0010
0000
0100
0000
0100
0001
0000
0000
1000
0000
,
0200
0000
0000
0000
0310
0000
0010
0000
0001
0000
0001
0100
0000
0000
0001
0000
,
0020
0000
0000
0000
0130
0000
0100
0000
1000
0000
1000
0001
0000
0000
0100
0000
,
0001
0000
0100
0000
0010
0000
0100
0000
0001
0000
0100
0010
0000
0000
1000
0000
,
0001
0000
0010
0000
0100
0000
0010
0000
0001
0000
0010
0100
0000
0000
1000
0000
,
0100
0000
0010
0000
0100
0000
1000
0000
0100
0000
0010
0100
0000
0000
1000
0000
,
0001
0000
0100
0000
1000
0000
0100
0000
0001
0000
0100
0010
0000
0000
1000
0000
,
0010
0100
0010
0000
1000
0000
0001
0000
1000
0000
0100
0010
0000
0000
0001
0000
,
1000
0001
1000
0000
0100
0000
0010
0000
0100
0000
1000
0001
0000
0000
0100
0000
,
0001
0100
0001
0000
0100
0000
0010
0000
0100
0000
0001
0100
0000
0000
0001
0000
,
1000
0100
1000
0000
0100
0000
0010
0000
0100
0000
1000
0100
0000
0000
0010
0000
,
0000
0000
M100
0000
0000
M100
0000
0000
M100
0000
0000
M100
0000
0000
M100
0000
,
0010
0000
0M01
0000
0000
0M01
0000
0000
0M01
0000
0000
0M01
0000
0000
0M01
0000
,
0000
0000
10M0
0000
0000
10M0
0000
0000
10M0
0000
0000
10M0
0000
0000
10M0
0000
,
0000
0000
001M
0000
0000
001M
0000
0000
001M
0000
0000
001M
0000
0000
001M
0000
,
0000
0000
1000
0000
0000
0001
0000
0000
0100
0000
0000
0001
0000
0000
0100
0000
,
0010
0000
1000
0000
0000
0100
0000
0000
1000
0000
0000
0010
0000
0000
1000
0000
,
0000
0000
0001
0000
0000
0010
0000
0000
0100
0000
0000
1000
0000
0000
0001
0000
,
0000
0000
1000
0000
0000
0100
0000
0000
0010
0000
0000
0001
0000
0000
1000
0000
,
0100
0000
0000
0000
1001
0000
0000
0000
1000
0100
0000
0000
1000
0000
0000
0000
,
0001
0000
0000
0000
0101
0000
0000
0000
0100
0010
0000
0000
0010
0000
0000
0000
,
1000
0000
0000
0000
1010
0000
0000
0000
0100
0001
0000
0000
0001
0000
0000
0000
,
1000
0000
0000
0000
1100
0000
0000
0000
0001
0010
0000
0000
0001
0000
0000
1000
,
0100
0000
0000
0000
1001
0000
0000
0000
0100
0001
0000
0000
0001
0000
0000
0000
,
1000
0000
0000
0000
0110
0000
0000
0000
1000
0001
0000
0000
1000
0000
0000
1000
,
0001
0000
0000
0000
0101
0000
0000
0000
1000
0001
0000
0000
1001
0000
0000
0000
,
1000
0000
0000
0000
1100
0000
0000
0000
0010
0100
0000
0000
1000
0000
0001
1000
,
0100
0000
0000
0000
1000
0000
0000
0000
0010
0100
0000
0000
0001
0000
0000
0000
,
1000
0000
0000
0000
0100
0000
0000
0000
0010
0100
0000
0000
0010
0000
0001
0010
,
0100
0000
0000
0000
0010
0000
0000
0000
0001
1000
0000
0000
0010
0000
0000
0000
,
0100
0000
0000
0000
0001
0000
0000
0000
1000
0100
0000
0000
0010
0000
0100
1000
,
0100
0000
0000
0000
0010
0000
0000
0000
0001
1000
0000
0000
0010
0000
0000
0000
,
0100
0000
0000
0000
0001
0000
0000
0000
0100
0010
0000
0000
1000
0000
0001
1000
,
0001
0000
0000
0000
1000
0000
0000
0000
0100
0010
0000
0000
0001
0000
0000
0000
,
0000
0000
1000
0000
0001
0000
1000
0100
0000
0100
0000
0100
0010
0000
0010
0001
,
1000
0000
0100
0000
0010
0100
0000
0000
1000
0001
0000
0001
1000
0000
0000
0000
,
0100
0000
0100
0000
0010
0001
0000
0000
0100
0001
0000
0001
0010
0000
0000
0000
,
0001
0000
0001
0000
0100
0010
0000
0000
1000
0010
0000
0010
1000
0000
0000
0000
,
0010
0000
0010
0000
1000
0100
0000
0000
0010
0001
0000
0001
0010
0000
0000
0000
,
1000
0000
1000
0000
0001
1000
0000
0001
1000
0000
0010
0000
0100
0000
0000
0000
,
0001
0000
0001
0000
0100
0010
0000
0100
0010
0000
1000
0000
0001
0000
0000
0000
,
0010
0000
0010
0000
0100
1000
0000
0100
1000
0000
0001
0000
0100
0000
0000
0000
,
0100
0000
0100
0000
0010
0100
0000
0010
0100
0000
0001
0000
1000
0000
0000
0000
,
0010
0000
0100
0000
0001
1000
0000
0100
1000
0000
0001
0000
1001
0000
0000
0000
,
0100
0000
0001
0000
0010
0001
0000
0100
0001
0000
1000
0000
1100
0000
0000
0000
,
0001
0000
0001
0000
1000
0100
0000
0100
1000
0000
0010
0000
0110
0000
0000
0000
,
0001
0000
1000
0000
0010
0100
0000
0001
1000
0000
0010
0000
1001
0000
0000
0000
,
0010
0000
0100
0000
1000
0100
0000
0100
1000
0000
0010
0000
0001
0000
0010
0000
,
1000
0000
0100
0000
0100
0010
0000
0010
0100
0000
1000
0000
0001
0000
0100
0000
,
1000
0000
0100
0000
0010
1000
0000
1000
0100
0000
0010
0000
0001
0000
1000
0000
,
0000
0001
1000
0000
0100
0000
1000
0001
0000
0001
0000
0100
0010
0000
1000
0000
,
2002
0000
0000
0000
,
3003
0000
0000
0000
;
