#TITLE:Lonely Raider;
#SUBTITLE:;
#ARTIST:Hit 'n Hide;
#TITLETRANSLIT:;
#SUBTITLETRANSLIT:;
#ARTISTTRANSLIT:;
#GENRE:;
#CREDIT:;
#BANNER:lonelyraiderbn.png;
#BACKGROUND:lonelyraiderbg.png;
#LYRICSPATH:;
#CDTITLE:;
#MUSIC:lonelyraider.ogg;
#OFFSET:-1.314896;
#SAMPLESTART:75.679901;
#SAMPLELENGTH:12.000000;
#SELECTABLE:YES;
#BPMS:0.000000=138.350006
;
#STOPS:
;
#BGCHANGES:16.000=volumetric.mp4=1.000=1=0=1=SongBgWithMovieViz==CrossFade==,
36.000=flash=1.600=0=0=1=====,
36.250=volumetric.mp4=1.000=0=0=1=====,
70.000=palegreen.mp4=1.000=0=0=0=StretchNoLoop==CrossFade_Fastest==,
100.000=flash=1.600=0=0=1=====,
100.250=palegreen.mp4=1.000=0=0=1=====,
132.000=flash=1.600=0=0=1=====,
132.250=palegreen.mp4=1.000=0=0=1=SongBgWithMovieViz====,
136.000=flash=1.600=0=0=1=====,
136.250=volumetric.mp4=1.000=0=0=0=StretchNoLoop====,
168.000=volumetric.mp4=1.000=1=0=1=SongBgWithMovieViz==CrossFade==,
172.000=flash=1.600=0=0=1=====,
172.250=palegreen.mp4=1.000=0=0=0=StretchNoLoop====,
204.000=flash=1.600=0=0=1=====,
204.250=volumetric.mp4=1.000=0=0=0=StretchNoLoop====,
236.000=volumetric.mp4=1.000=1=0=1=SongBgWithMovieViz==CrossFade==,
240.000=flash=1.000=0=0=1=====,
240.250=lonelyraiderbg.png=1.000=0=0=1=====,
99999=-nosongbg-=1.000=0=0=0 // don't automatically add -songbackground-
;
#KEYSOUNDS:;
#ATTACKS:;

//---------------dance-single - C. Picardy----------------
#NOTES:
     dance-single:
     :
     Beginner:
     1:
     0.088596,0.138845,0.046282,0.037025,0.000000,67.000000,62.000000,5.000000,4.000000,0.000000,0.000000,0.088596,0.138845,0.046282,0.037025,0.000000,67.000000,62.000000,5.000000,4.000000,0.000000,0.000000:
0000
0000
0000
0000
,
0000
0000
0000
0000
,
0000
0000
0000
0000
,
0000
0000
0000
0000
,
0010
0000
0000
0000
,
0100
0000
0000
0000
,
0001
0000
0001
0000
,
0001
0000
0000
0000
,
2002
0000
3003
0000
,
0100
0000
0000
0000
,
0010
0000
0000
0000
,
1000
0000
0000
0000
,
0001
0000
0000
0000
,
1000
0000
0000
0000
,
0001
0000
0000
0000
,
0010
0000
0000
0000
,
0100
0000
0000
0000
,
1000
0000
1000
0000
,
1000
0000
0000
0000
,
0001
0000
0001
0000
,
0001
0000
0000
0000
,
0100
0000
0000
0000
,
0010
0000
0000
0000
,
1000
0000
0000
0000
,
0001
0000
0001
0000
,
0001
0000
0000
0000
,
1000
0000
0000
0000
,
0010
0000
0000
0000
,
0100
0000
0000
0000
,
0001
0000
0000
0000
,
1000
0000
0000
0000
,
0001
0000
0000
0000
,
0100
0000
0000
0000
,
1001
0000
0000
0000
,
1000
0000
0000
0000
,
0001
0000
0000
0000
,
1000
0000
0000
0000
,
0001
0000
0000
0000
,
0100
0000
0000
0000
,
0010
0000
0000
0000
,
0100
0000
0000
0000
,
0010
0000
0000
0000
,
2002
0000
3003
0000
,
0100
0000
0000
0000
,
0100
0000
0000
0000
,
0010
0000
0000
0000
,
0010
0000
0000
0000
,
1000
0000
0000
0000
,
1000
0000
0000
0000
,
0001
0000
0001
0000
,
0001
0000
0000
0000
,
1001
0000
0000
0000
,
0100
0000
0000
0000
,
0010
0000
0000
0000
,
1000
0000
0000
0000
,
0001
0000
0000
0000
,
1000
0000
0000
0000
,
0001
0000
0000
0000
,
1000
0000
0000
0000
,
0010
0000
0000
0000
,
1001
0000
0000
0000
;

//---------------dance-single - C. Picardy----------------
#NOTES:
     dance-single:
     :
     Challenge:
     9:
     0.640010,0.694226,0.518355,0.342485,0.134217,484.000000,428.000000,56.000000,37.000000,55.000000,0.000000,0.640010,0.694226,0.518355,0.342485,0.134217,484.000000,428.000000,56.000000,37.000000,55.000000,0.000000:
0000
0000
0000
0000
,
0000
0000
0000
0000
,
0000
0000
0000
0000
,
0000
0000
0000
0000
0000
0000
1000
0010
,
0110
0100
0M00
0001
0000
1000
0001
0100
,
1001
1000
M000
0100
0000
0010
0001
0100
,
0101
0M00
1000
0010
1010
00M0
0000
0000
,
0011
0000
0010
0000
1100
0000
0100
0000
0010
0100
0010
0100
1000
0001
1000
0001
,
0200
0000
M000
0000
00M2
0000
M000
0303
,
1M1M
1000
0001
0100
1000
0100
0001
0100
,
0010
1000
0100
0010
0100
0001
0100
1000
,
1100
0010
0100
1000
0001
0010
1000
0010
,
0001
0100
0010
1000
0100
0010
0100
1100
,
0101
0010
1000
0001
0100
0010
1000
0100
,
0010
0001
0100
0001
0010
0100
1000
0001
,
0101
0M00
1000
0001
1010
M000
0001
0010
,
0101
0000
0100
0000
1010
0000
0100
0000
0001
0100
0001
0100
0001
1000
0001
1000
,
0200
0000
1300
0002
0000
1003
0001
0100
,
1000
0100
0010
1000
0100
0010
0100
2000
,
0000
0001
3001
M00M
0100
0010
0100
0001
,
0020
0000
0100
0230
0000
1000
1300
0010
,
0110
0MM0
0001
1000
0000
0010
0100
0001
,
2000
0000
3100
M020
0000
0000
0031
00M1
,
1001
M000
0100
0100
0101
000M
0010
0010
,
1010
0000
1000
0000
1100
0000
0001
0000
1000
0010
1000
0010
0100
0001
0100
0001
,
1000
0020
0100
0130
0001
1000
0100
0001
,
0100
2000
0010
3010
0100
0001
1000
0010
,
0100
0010
0001
0010
0100
0010
0001
0010
,
1000
0001
0100
0010
1000
0100
0010
0110
,
0011
0001
0100
0001
0010
0100
1000
0010
,
0110
0100
0001
1000
0100
0010
0100
1000
,
1001
0001
0100
0010
0110
0100
0001
0010
,
0011
0000
0010
0000
1100
0000
0100
0000
0010
0100
0010
0100
1000
0001
1000
0001
,
2000
0000
0MMM
0000
0MMM
0000
3MMM
1000
,
0001
0100
1000
0100
0001
0100
1000
0100
,
0001
0010
1000
0010
0001
0010
1000
0010
,
0100
0001
0100
0010
0100
0001
0100
1000
,
0010
0100
1000
0100
0010
0100
0001
0101
,
1010
1000
0010
1000
0010
1000
0010
0100
,
0011
0001
0010
0001
0010
0001
0010
0100
,
1100
0M00
0001
0010
0011
00M0
0100
0010
,
0110
0000
1000
0000
1001
0000
0001
0000
0100
0010
0100
0010
1000
0001
1000
0001
,
0200
0000
0000
0000
0020
0000
0330
1MM0
,
1001
0100
0001
1000
1010
0001
0100
0010
,
0110
0001
1000
0100
1001
0010
0100
1000
,
0110
0001
1000
0010
1001
0100
0010
1000
,
0101
0100
0010
1000
1001
0001
0100
0110
,
0101
1000
0001
0100
0001
1000
0001
0010
,
0110
0100
1000
0100
0010
0100
1000
0001
,
0101
0100
0010
1000
1001
0100
0010
1000
,
0101
0000
0001
0000
1100
0000
1000
0000
0001
0010
0001
0010
0100
1000
0100
1000
,
0001
0010
0001
0020
0100
0230
10M0
2300
,
0M10
0000
3020
0000
M100
0000
0230
0000
10M0
0000
2300
0M00
0100
0000
3200
0000
,
M001
0302
0M10
0023
010M
0230
00M1
0302
,
1M00
2003
001M
3020
M001
0031
01M0
0110
,
1010
2000
0001
3002
M100
0203
001M
0320
,
1M00
0000
2030
0000
01M0
0000
3200
0000
M010
0000
0320
0M00
0100
0000
0130
0000
,
10M1
0000
0100
0010
1001
0000
0010
0100
,
1001
0000
0100
0000
0110
0000
1000
0000
0001
0010
0100
1000
0001
0010
0100
0000
,
2002
0000
3000
M000
0200
0000
0000
0303
,
1M1M
0000
0000
0000
;

//---------------dance-single - ----------------
#NOTES:
     dance-single:
     :
     Easy:
     3:
     0.279013,0.360997,0.388766,0.101820,0.000000,211.000000,169.000000,42.000000,11.000000,0.000000,0.000000,0.279013,0.360997,0.388766,0.101820,0.000000,211.000000,169.000000,42.000000,11.000000,0.000000,0.000000:
0000
0000
0000
0000
,
0000
0000
0000
0000
,
0000
0000
0000
0000
,
0000
0000
0000
0000
,
1001
0000
0000
0000
,
1001
0000
0000
0000
,
0110
0000
0110
0000
,
0001
1000
0010
0100
,
2002
0000
3003
0000
,
1000
0100
1000
0100
,
1000
0001
1000
0001
,
0100
0010
0100
0010
,
1000
0010
1000
0010
,
1001
0100
0001
0100
,
0001
0100
0010
0100
,
1001
0000
0110
0000
,
1001
0110
1000
0001
,
0110
0000
0001
0000
,
1000
0000
0100
0100
,
0010
0000
0001
0000
,
1000
0000
0010
0100
,
0110
0000
0001
0000
,
1000
0000
0001
0001
,
1001
0000
0110
0000
,
0100
0010
0110
1001
,
0100
0000
0010
0000
,
1000
0000
0001
0000
,
2000
0000
3002
0000
,
0203
0000
0310
1000
,
0110
0000
0001
0100
,
1001
0000
0100
0010
,
1001
0000
0110
0000
,
0110
1001
0010
0100
,
2002
0000
3003
0000
,
0001
0100
0001
0100
,
0010
0010
1000
0000
,
0100
1000
0100
1000
,
0001
0001
0010
0000
,
1001
0000
0100
0001
,
1000
0000
0100
0010
,
0011
0000
1100
0000
,
1100
0101
1000
0001
,
0220
0000
0330
0000
,
0001
0010
0001
0100
,
0010
1000
0001
0000
,
1000
0100
0010
0100
,
1000
0001
0100
0000
,
0110
0000
0001
1000
,
0110
0000
0001
0100
,
1001
0010
1001
0100
,
0110
1001
0010
0100
,
1000
0100
1000
0100
,
0010
0100
0010
0100
,
0010
0001
0010
0001
,
0100
0001
0100
0001
,
1001
1000
0001
1000
,
0100
0010
0100
0010
,
0011
0000
1010
0000
,
0101
1100
0001
1000
,
0220
0000
0330
0000
,
1001
0000
0000
0000
;

//---------------dance-single - C. Picardy----------------
#NOTES:
     dance-single:
     :
     Medium:
     5:
     0.350419,0.416536,0.277690,0.129589,0.000000,265.000000,235.000000,30.000000,14.000000,0.000000,0.000000,0.350419,0.416536,0.277690,0.129589,0.000000,265.000000,235.000000,30.000000,14.000000,0.000000,0.000000:
0000
0000
0000
0000
,
0000
0000
0000
0000
,
0000
0000
0000
0000
,
0000
0000
0000
0000
,
0110
0000
0000
0100
0000
0010
0000
0000
,
1001
0000
0000
1000
0000
0001
0000
0000
,
1100
0000
0101
0000
,
1000
0000
0001
0000
0100
0010
0100
0000
,
2002
0000
3003
0000
,
0001
0010
0001
0010
,
0100
0000
1000
0000
0100
0000
1000
0100
,
1000
0010
0100
0010
,
0100
0000
0001
0000
0100
0000
0001
0100
,
0010
1000
0010
1000
,
0010
0100
0001
1000
,
0101
1000
1100
0010
,
0101
0000
1100
0000
0010
0100
1000
0000
,
1001
0000
0100
0010
,
1000
0001
1000
0000
0100
0000
0010
0000
,
0001
0000
1000
0000
0010
0100
0010
0000
,
1000
0000
0001
0000
1000
0000
0010
0100
,
0000
0000
0010
0100
0000
0000
0001
0000
,
1000
0000
0100
0000
0010
0000
0001
1000
,
0000
0010
0110
0100
,
0101
0000
1100
0000
0001
1000
0001
1000
,
0001
0000
0010
0010
0000
0000
0100
0100
,
0000
0000
1000
1000
0000
0000
0001
0001
,
2000
3010
0200
0301
,
0020
0000
0031
0000
1000
0000
0100
0010
,
0100
0000
1000
0000
0001
0000
0010
0100
,
0010
0000
0001
0000
0100
0000
0010
1000
,
0100
0010
0011
1000
,
1010
0000
0101
0000
1000
0001
0100
0000
,
2002
0000
0000
3003
,
0001
1000
0100
1000
,
0010
0000
0100
0000
0001
0000
1000
0100
,
0001
0100
1000
0010
,
0100
0000
0001
0000
0010
0000
0001
0100
,
1000
0000
0100
0000
0010
0000
1000
0010
,
0100
0000
0001
0000
1000
0000
0100
0010
,
0001
1000
1010
0001
,
0011
0000
0110
0000
1000
0001
1000
0000
,
0120
0000
0200
0330
,
0001
1000
0100
1000
,
0010
0000
0100
0000
0001
0000
0010
0001
,
0010
0100
0010
0001
,
0100
0000
0010
0000
1000
0000
0001
0100
,
0010
0000
1000
0000
0001
0000
0010
0100
,
1000
0000
0001
0000
0100
0000
0010
1000
,
0001
0100
1001
0010
,
1000
0100
0010
0001
0100
0000
0010
0000
,
2001
0010
0100
0010
,
0001
0001
0100
0010
,
3001
0200
0010
0001
,
0010
0010
0301
1000
,
1200
0010
0001
0010
,
0010
0001
1000
1300
,
0101
0100
1010
0100
,
0101
0000
1100
0000
0010
0100
1000
0000
,
0201
0000
0020
0330
,
1001
0000
0000
0000
;

//---------------dance-single - C. Picardy----------------
#NOTES:
     dance-single:
     :
     Hard:
     7:
     0.412569,0.416536,0.166614,0.212896,0.000000,312.000000,294.000000,18.000000,23.000000,0.000000,0.000000,0.412569,0.416536,0.166614,0.212896,0.000000,312.000000,294.000000,18.000000,23.000000,0.000000,0.000000:
// measure 0
0000
0000
0000
0000
,  // measure 1
0000
0000
0000
0000
,  // measure 2
0000
0000
0000
0000
,  // measure 3
0000
0000
0000
0000
,  // measure 4
1000
0001
0000
1000
0000
0000
0100
0010
,  // measure 5
0100
0010
0000
0001
0000
1000
0001
0100
,  // measure 6
0010
0000
1000
0100
0010
0000
0000
0000
,  // measure 7
1000
0001
1000
0001
0100
0010
0100
0000
,  // measure 8
2001
0000
0002
3003
,  // measure 9
0101
0100
0010
1000
,  // measure 10
0001
0000
0100
0000
0010
0100
0001
0100
,  // measure 11
0010
1000
0100
0010
,  // measure 12
0100
0000
1000
0000
0010
1000
0100
1000
,  // measure 13
0010
0100
0001
0010
,  // measure 14
0100
0010
0001
0000
1000
0100
0010
0100
,  // measure 15
1000
0001
0101
1000
,  // measure 16
0011
0000
1100
0000
0001
0010
0100
1000
,  // measure 17
0001
0000
0100
0010
0000
0100
0010
1000
,  // measure 18
0001
0100
0010
1000
0000
0010
0100
0010
,  // measure 19
0000
1000
1000
0000
0001
0010
0100
1000
,  // measure 20
0010
0000
0100
0010
0000
1000
0001
0100
,  // measure 21
0100
0000
0010
0100
0000
0001
0100
0010
,  // measure 22
1000
0000
0001
1000
0000
0100
1000
0100
,  // measure 23
0010
0001
0101
1000
,  // measure 24
0010
0100
0010
0100
0001
1000
0001
1000
,  // measure 25
0100
0000
1000
0100
0000
0010
0001
0010
,  // measure 26
0000
0100
1000
0100
0000
0000
0010
0001
,  // measure 27
2000
3010
0200
0301
,  // measure 28
2000
0000
3100
0000
0020
0000
0130
1000
,  // measure 29
0001
0000
0100
0000
0100
0000
0100
0010
,  // measure 30
1000
0000
1000
0000
1000
0000
0001
0100
,  // measure 31
0010
1000
0101
1000
,  // measure 32
0001
0100
0010
1000
0100
0010
0100
0000
,  // measure 33
2002
0000
0000
3003
,  // measure 34
1000
0001
0010
0100
,  // measure 35
0010
0000
0001
0000
0010
0100
1000
0100
,  // measure 36
0010
0001
0100
0001
,  // measure 37
0010
0000
0100
0000
0010
0001
0100
0001
,  // measure 38
0010
0000
0001
0100
1000
0000
1000
0100
,  // measure 39
0001
0000
0001
0100
0010
0000
0010
1000
,  // measure 40
0100
0010
1100
0010
,  // measure 41
0101
0000
1100
0000
1000
0100
0001
0000
,  // measure 42
0210
0000
0020
0330
,  // measure 43
0001
0000
1000
0000
0010
1000
0100
0000
,  // measure 44
0010
0000
0001
0000
1000
0100
0010
0100
,  // measure 45
1000
0000
0001
0000
0100
0010
1000
0000
,  // measure 46
0100
0000
0010
0000
0001
0010
0100
0010
,  // measure 47
0001
0000
0100
0010
0100
0000
0001
1000
,  // measure 48
0001
0000
1000
0100
1000
0000
0001
0010
,  // measure 49
0001
1000
0110
0001
,  // measure 50
0110
0000
1010
0000
0001
0010
0100
1000
,  // measure 51
0002
0203
0320
0230
,  // measure 52
0301
0100
0010
0100
0001
0100
0010
0100
,  // measure 53
0001
2000
3200
0320
,  // measure 54
0130
1000
0010
1000
0100
1000
0010
1000
,  // measure 55
0200
0320
0032
2003
,  // measure 56
3010
0100
0001
0100
0010
0100
0001
0100
,  // measure 57
0010
1000
0011
1000
,  // measure 58
0101
0000
1100
0000
1000
0100
0010
0001
,  // measure 59
2000
0000
0000
0000
0002
3000
1003
0010
,  // measure 60
0100
0000
0000
0000
;
