#TITLE:Liquid Plasma;
#SUBTITLE:;
#ARTIST:Rom Di Prisco;
#TITLETRANSLIT:;
#SUBTITLETRANSLIT:;
#ARTISTTRANSLIT:;
#GENRE:;
#CREDIT:;
#BANNER:liquidplasmabn.png;
#BACKGROUND:liquidplasmabg.png;
#LYRICSPATH:;
#CDTITLE:;
#MUSIC:liquidplasma.ogg;
#OFFSET:-0.141353;
#SAMPLESTART:111.510338;
#SAMPLELENGTH:12.400000;
#SELECTABLE:YES;
#BPMS:0.000000=155.149994
;
#STOPS:
;
#BGCHANGES:17.000=liquidplasmabg.png=1.000=0=0=1====#FF0000=,
19.000=liquidplasmabg.png=1.000=0=0=1====#00FF00=,
21.000=liquidplasmabg.png=1.000=0=0=1====#0000FF=,
23.000=liquidplasmabg.png=1.000=0=0=1====#FFFF00=,
25.000=liquidplasmabg.png=1.000=0=0=1====#00FFFF=,
27.000=liquidplasmabg.png=1.000=0=0=1====#FF00FF=,
29.000=liquidplasmabg.png=1.000=0=0=1=====,
31.000=white reverse flash=1.000=0=0=1=====,
31.250=liquidplasmabg.png=1.000=0=0=1=====,
32.000=flash=1.000=0=0=1=====,
32.250=plasma.mp4=1.000=0=0=0=StretchNoLoop====,
60.000=liquidplasmabg.png=1.000=0=0=1=====,
61.500=liquidplasmabg.png=1.000=0=0=1====#FF0000=,
62.250=liquidplasmabg.png=1.000=0=0=1====#00FF00=,
62.500=liquidplasmabg.png=1.000=0=0=1====#0000FF=,
62.750=liquidplasmabg.png=1.000=0=0=1====#FFFF00=,
63.500=liquidplasmabg.png=1.000=0=0=1=====,
64.000=flash=1.000=0=0=1=====,
64.250=plasma.mp4=1.000=0=0=1=====,
220.000=liquidplasmabg.png=1.000=0=0=1=====,
221.500=liquidplasmabg.png=1.000=0=0=1====#FF00FF=,
222.000=flash=1.000=0=0=1=====,
222.250=yellow flash=1.000=0=0=1=====,
222.500=flash=1.000=0=0=1=====,
222.750=yellow flash=1.000=0=0=1=====,
223.000=liquidplasmabg.jpg=1.000=0=0=1====#00FF00=,
223.500=liquidplasmabg.jpg=1.000=0=0=1====#0000FF=,
224.000=flash=1.000=0=0=1=====,
224.250=plasma.mp4=1.000=0=0=0=StretchNoLoop====,
286.000=liquidplasmabg.png=1.000=0=0=1====#0000FF=,
286.500=liquidplasmabg.png=1.000=0=0=1====#00FF00=,
287.000=liquidplasmabg.png=1.000=0=0=1====#FF0000=,
288.000=flash=1.000=0=0=1=====,
288.250=plasma.mp4=1.000=0=0=1=====,
318.000=liquidplasmabg.png=1.000=0=0=1====#FFFF00=,
318.500=liquidplasmabg.png=1.000=0=0=1====#00FFFF=,
319.000=liquidplasmabg.png=1.000=0=0=1====#FF00FF=,
319.500=liquidplasmabg.png=1.000=0=0=1====#FFFF00=,
320.000=flash=1.000=0=0=1=====,
320.250=liquidplasmabg.png=1.000=0=0=1=====,
99999=-nosongbg-=1.000=0=0=0 // don't automatically add -songbackground-
;
#KEYSOUNDS:;
#ATTACKS:;

//---------------dance-single - C. Picardy----------------
#NOTES:
     dance-single:
     :
     Beginner:
     1:
     0.103833,0.158007,0.023701,0.063203,0.000000,92.000000,89.000000,3.000000,8.000000,0.000000,0.000000,0.103833,0.158007,0.023701,0.063203,0.000000,92.000000,89.000000,3.000000,8.000000,0.000000,0.000000:
0000
0000
0000
0000
,
0000
0000
0000
0000
,
0000
0000
0000
0000
,
0000
0000
0000
0000
,
0100
0000
0000
0000
,
0000
0000
0000
0000
,
0000
0000
0000
0000
,
0000
0000
0000
0000
,
0010
0000
0000
0000
,
0100
0000
0000
0000
,
0001
0000
0000
0000
,
1000
0000
0000
0000
,
0100
0000
0000
0000
,
0010
0000
0000
0000
,
0001
0000
0000
0000
,
1000
0000
0000
0000
,
1001
0000
0000
0000
,
0100
0000
0000
0000
,
0010
0000
0000
0000
,
1000
0000
0000
0000
,
0001
0000
0000
0000
,
0100
0000
0000
0000
,
0010
0000
0000
0000
,
1000
0000
0000
0000
,
1001
0000
0000
0000
,
0100
0000
0000
0000
,
0010
0000
0000
0000
,
0001
0000
0000
0000
,
1000
0000
0000
0000
,
0100
0000
0000
0000
,
0010
0000
0000
0000
,
0000
0000
0000
0000
,
0010
0000
0010
0000
,
0010
0000
0000
0000
,
0100
0000
0100
0000
,
0100
0000
0000
0000
,
0001
0000
0001
0000
,
0001
0000
0000
0000
,
1000
0000
1000
0000
,
1000
0000
0000
0000
,
0100
0000
0100
0000
,
0010
0000
0000
0000
,
0010
0000
0010
0000
,
0100
0000
0000
0000
,
1000
0000
1000
0000
,
0001
0000
0000
0000
,
0001
0000
0001
0000
,
1000
0000
0000
0000
,
0100
0000
0000
0000
,
0010
0000
0000
0000
,
0001
0000
0000
0000
,
1000
0000
0000
0000
,
0010
0000
0000
0000
,
0100
0000
0000
0000
,
0001
0000
0000
0000
,
1000
0000
0000
0000
,
0110
0000
0000
0000
,
1000
0000
0000
0000
,
0001
0000
0000
0000
,
0100
0000
0000
0000
,
0010
0000
0000
0000
,
1000
0000
0000
0000
,
0001
0000
0000
0000
,
0100
0000
0000
0000
,
0010
0010
0000
0000
,
0100
0100
0000
0000
,
0010
0010
0000
0000
,
0100
0100
0000
0000
,
0001
0001
0000
0000
,
1000
1000
0000
0000
,
0001
0001
0000
0000
,
1000
1000
0000
0000
,
2000
3000
0000
0000
,
2000
3000
0000
0000
,
0002
0003
0000
0000
,
0002
0003
0000
0000
,
0020
0030
0000
0000
,
0020
0030
0000
0000
,
0200
0300
0000
0000
,
0200
0300
0000
0000
,
0010
0000
0000
0000
;

//---------------dance-single - C. Picardy----------------
#NOTES:
     dance-single:
     :
     Challenge:
     11:
     0.943525,0.982702,0.221209,0.213309,1.058644,836.000000,808.000000,28.000000,27.000000,52.000000,0.000000,0.943525,0.982702,0.221209,0.213309,1.058644,836.000000,808.000000,28.000000,27.000000,52.000000,0.000000:
0000
0000
0000
0000
,
0000
0000
0000
0000
,
0000
0000
0000
0000
,
0000
0000
0000
0000
,
2000
0000
3001
0001
0200
0000
0310
2000
,
0000
0000
3001
0000
2000
0000
0001
0000
3000
0100
0000
0100
1000
0000
0001
0000
,
0010
0200
0000
0310
0002
0000
1003
0100
,
1000
0100
1000
0100
1000
0100
1000
0100
0010
0001
0010
0001
0010
0001
0010
0001
,
2000
0000
0000
0000
3010
0000
00M0
0010
0100
0000
0001
0000
1000
0000
0100
0000
,
1001
0000
0100
0000
0100
0000
0M00
0100
0000
0100
0010
0100
1000
0000
0001
0000
,
0101
0000
0100
0000
0010
0000
00M0
0100
0001
0000
1000
0000
0010
0000
0100
0000
,
0100
0000
0001
0000
1000
0000
M010
0000
0100
0000
0001
0010
0100
0010
0001
1000
,
1001
0000
0100
0000
0001
0000
100M
0010
0100
0010
1000
0000
0001
0000
010M
0000
,
0110
0000
0001
0000
1000
0000
M100
1000
0000
0001
0010
0100
1000
0000
0001
0000
,
0101
0000
1000
0000
0001
0000
000M
1000
0010
0000
0100
0000
0010
0000
1010
0000
,
0110
0000
0000
0000
0MM0
0000
0001
0000
0000
0100
0010
1000
0001
0000
0010
0000
,
2100
0000
0M00
0000
3010
0000
0100
0000
0001
0000
0001
0000
1000
0000
0010
1000
,
0010
0000
0100
0000
0001
0000
1000
0100
0000
0010
0100
1000
0001
0100
0001
0000
,
0210
0000
00M0
0000
0301
0000
1000
0000
0001
0100
0001
0000
1000
0000
0100
1000
,
0001
0000
0010
0000
0100
0000
0010
0000
0001
0000
0100
0010
0000
1000
0100
0000
,
1002
0000
M000
0000
0103
0000
0100
0000
0010
0000
1000
0001
1000
0000
0001
0100
,
0001
0000
1000
0000
0010
0000
0100
0000
0001
0100
0001
0100
0001
0100
0001
0100
,
0020
0000
0000
0000
1030
0000
1000
0000
0001
0000
0100
0010
0100
0000
0001
0000
,
1000
0000
0001
0100
0001
0100
0001
0000
1000
0000
0001
0010
0001
0000
1000
0001
,
1002
0000
M000
0000
0103
0000
0010
1000
0001
0000
0010
0000
0100
0000
0010
0100
,
1000
0000
0001
0000
0100
0000
0010
1000
0000
0010
0100
0010
1000
0010
0100
0000
,
2010
0000
00M0
0000
3001
0000
1000
0100
0010
0000
0001
0000
1000
0000
0010
0100
,
0001
0000
1000
0000
0010
0000
1000
0100
0010
0000
0100
1000
0000
0010
0100
0000
,
0201
0000
000M
0000
1300
0000
0100
0010
1000
0000
0100
0000
0001
0100
0010
0100
,
0001
0000
0100
0000
1000
0000
0010
0000
0100
0010
0001
0010
0100
0010
1000
0010
,
0002
0000
0000
0000
0013
0000
1000
0100
0001
0000
0100
0000
1000
0000
0010
0100
,
0001
0000
1000
0100
0001
0000
0100
0010
0001
0000
0010
0100
1000
0000
0001
0100
,
0010
0000
1000
0001
0000
0100
0010
0000
1000
0001
0100
0010
0000
1000
0001
0000
,
0010
0000
0100
1000
0000
0100
0010
0000
0001
0010
0100
1000
0000
0100
0010
0000
,
0001
0000
0010
0001
0010
0100
0000
0000
0010
0001
0000
0100
0000
0100
0010
0000
,
1000
0000
0001
0100
0001
0100
0000
0000
0010
1000
0010
1000
0000
0001
0100
0000
,
0010
1000
0010
0100
0000
0001
1000
0000
0100
0010
0100
1000
0100
1000
0010
0000
,
0100
0001
0010
0001
0000
0100
0010
0000
1000
0001
1000
0001
0100
0001
1000
0000
,
0001
1000
0100
0010
0100
1000
0000
0000
0001
0010
0100
1000
0000
0100
0010
0000
,
0001
0000
0010
0100
1000
0010
0000
0100
0010
1000
0001
0100
0000
0010
1000
0000
,
1001
0000
1000
0010
1000
0010
1000
0001
1000
0000
0010
0100
0000
0001
0010
0000
,
1100
0000
0010
0100
0010
0001
0010
0100
1000
0000
0001
0100
0000
0010
1000
0000
,
0101
0000
0100
0001
0100
0010
0100
0001
1000
0000
0100
0010
0000
0001
1000
0000
,
0011
0000
0100
0010
0001
0010
0100
0010
0001
0000
0100
0010
0000
1000
0100
0000
,
0010
0100
0010
0001
1000
0100
0010
0100
1000
0000
0001
0100
0000
0010
1000
0000
,
0001
0100
0010
0100
0001
0100
0010
1000
0001
0000
1000
0100
0000
1000
0010
0000
,
0100
0010
1000
0010
0100
0010
1000
0010
0100
0000
0001
0010
0000
0100
1000
0001
,
1000
0100
1000
0100
1000
0100
1000
0100
0010
0001
0010
0001
0010
0001
0010
0001
,
1000
0000
0100
0010
0100
0000
2000
0000
0001
0000
3001
0000
M100
0001
0100
0001
,
0100
0000
0010
1000
0001
0000
0020
0000
0100
0000
0130
0000
10M0
0100
0010
0100
,
1000
0000
0001
0100
0010
0000
2000
0000
0010
0000
3010
0000
M100
0010
0100
0010
,
0100
0000
0001
0000
0001
0000
1000
0000
0100
0000
1000
0010
0000
0100
0001
0000
,
1001
0000
0100
0010
1000
0000
0002
0000
0010
0000
0013
0000
010M
0010
0001
0010
,
0100
0000
0010
0001
0100
0000
0020
0000
1000
0000
1030
0000
00M1
0100
0010
0100
,
0001
0000
1000
0100
0010
0000
0200
0000
1000
0000
1300
0000
0M10
0100
0001
0100
,
0020
0000
0000
0000
0000
0000
1030
0000
00M1
0100
0001
1000
0100
0000
1000
0000
,
2001
0000
0000
0000
3010
0000
M100
0010
0100
0001
0100
0000
0010
1000
0010
1000
,
0001
0000
1000
0000
0100
0000
0010
0000
0010
0001
0010
0001
0010
0001
0010
0001
,
0020
0000
0000
0000
0130
0000
10M0
0100
0001
0100
1000
0000
0001
0010
0100
0010
,
0001
0000
1000
0000
0010
0000
0100
0000
0001
0000
0100
1000
0000
0100
0001
0000
,
0120
0000
0000
0000
1030
0000
00M1
0000
0010
0000
0100
1000
0001
0000
0000
0000
,
1000
0000
0100
0000
0010
0000
0001
0000
0100
0010
0100
0010
0100
0010
0100
0010
,
0200
0000
0000
0000
0301
0000
0M10
0000
0100
0000
0010
0001
1000
0000
0000
0000
,
0001
0100
0001
0100
0001
0100
0001
0100
0010
1000
0010
1000
0010
1000
0010
1000
,
0001
0000
0100
0000
0010
0000
01M0
0001
0000
0010
0100
0000
1000
0000
0100
0000
,
0010
0000
0100
0000
1000
0000
M010
0100
0000
0001
0010
0000
0100
0000
0010
0000
,
0001
0000
0100
0000
1000
0000
M100
0001
0000
0010
1000
0000
0010
0000
0001
0000
,
1000
0000
0100
0000
0001
0000
010M
1000
0000
0010
0001
0000
0010
0000
0100
0000
,
0001
0000
1000
0000
0001
0000
001M
0100
0000
1000
0001
1000
0100
0000
0010
0000
,
1000
0000
0010
0000
0001
0000
100M
0100
0000
0010
0100
0010
1000
0000
0010
0000
,
0001
0000
0010
0000
0100
0000
0M10
0001
0000
0100
0001
0100
0010
0000
1000
0000
,
0001
0100
0001
0000
1000
0000
M00M
0000
0010
0100
0001
1000
0010
0100
0001
1000
,
0010
0000
0100
0000
0101
0000
1M0M
0001
0100
0010
1000
0001
0010
0100
1000
0000
,
0010
0000
0100
0000
1010
0000
M0M1
0100
0010
1000
0010
0100
0001
1000
0100
0000
,
0010
0000
0100
0000
0011
0000
10MM
0010
0100
0010
1000
0001
0100
0001
0010
0000
,
0100
0000
0010
0000
1100
0000
MM10
0001
0100
0001
0010
0001
0100
0010
1000
0000
,
0001
0000
0100
0000
1001
0000
M10M
0010
0100
0001
1000
0100
0010
0100
1000
0001
,
0100
0000
0010
0000
1001
0000
M01M
0100
0010
0001
1000
0010
0100
0010
1000
0001
,
0100
0000
0001
0000
1010
0000
M0M1
0100
0001
0010
0100
1000
0100
0010
0001
1000
,
0001
0000
0100
0000
1001
0000
M00M
0000
0001
0010
0100
1000
0001
0010
0100
1000
,
0002
0013
0000
0000
;

//---------------dance-single - C. Picardy----------------
#NOTES:
     dance-single:
     :
     Hard:
     9:
     0.609454,0.665702,0.181708,0.213309,0.276512,540.000000,517.000000,23.000000,27.000000,0.000000,0.000000,0.609454,0.665702,0.181708,0.213309,0.276512,540.000000,517.000000,23.000000,27.000000,0.000000,0.000000:
0000
0000
0000
0000
,
0000
0000
0000
0000
,
0000
0000
0000
0000
,
0000
0000
0000
0000
,
0002
0000
1003
1000
0001
0000
0100
0010
,
0000
0000
1000
0000
0001
0000
0000
0000
0000
1000
0000
1000
0001
0000
0100
0000
,
0010
0100
0000
0001
1000
0000
0100
0010
,
0200
0000
0010
1300
,
0101
0000
0000
0000
0010
0000
0000
0100
0010
0000
1000
0000
0001
0000
0000
0000
,
1000
0000
1000
0000
0100
0000
0000
0000
0000
0010
0000
0010
0001
0000
0100
0000
,
0010
1000
0001
1000
0100
0000
0010
0010
,
0000
0000
0001
0000
0001
0000
1000
0000
1000
0000
0100
1000
0000
0100
1000
0000
,
1001
0000
0100
0100
0010
0000
1000
0001
,
0000
0000
1000
0000
0100
0000
1000
0000
0000
0010
0000
0010
0100
0000
0001
0000
,
0100
0010
0000
1000
0100
0000
0010
0001
,
1000
0000
0000
0000
0000
0000
0010
0000
0000
0100
0010
0000
0100
0000
0001
0000
,
2001
0000
3100
0100
0010
0000
0001
1000
,
0000
0000
0010
0000
0100
0000
0001
0000
0000
1000
0000
0100
1000
0000
0001
0000
,
0102
0000
0013
0010
0100
0000
0010
0001
,
0000
0000
0100
0000
0010
0000
1000
0000
0001
0000
0010
0100
0000
0100
1000
0000
,
1200
0000
0310
0001
0100
0000
0010
1000
,
0000
0000
0000
0000
0000
0000
0000
0000
0000
0000
0000
0000
0000
0000
0000
0000
0000
0000
0000
0000
0000
0000
0000
0000
0001
0000
0000
0000
0000
0000
0000
0000
0000
0000
0000
0000
0000
0000
0000
0000
0000
0000
0000
0000
0000
0000
0000
0000
1000
0000
0000
0000
0000
0000
0000
0000
0000
0000
0000
0000
0000
0000
0000
0000
0000
0000
0000
0000
0000
0000
0000
0000
0000
0000
0000
0000
0000
0000
0000
0000
0000
0000
0000
0000
0000
0000
0000
0000
0000
0000
0000
0000
0000
0000
0000
0000
0004
0000
0000
0000
0000
0000
0000
0000
0000
0000
0000
0000
0000
0000
0000
0000
0000
0000
0000
0000
0000
0000
0000
0000
0000
0000
0000
0000
0000
0000
0000
0000
0000
0000
0000
0000
0000
0000
0000
0000
0000
0000
0000
0000
0000
0000
0000
0000
0400
0000
0000
0000
0000
0000
0000
0000
0000
0000
0000
0000
0000
0000
0000
0000
0000
0000
0000
0000
0000
0000
0000
0000
0000
0000
0000
0000
0000
0000
0000
0000
0000
0000
0000
0000
0000
0000
0000
0000
0000
0000
0000
0000
0000
0000
0300
0000
,
0203
0000
0310
1000
0001
0000
0010
0100
,
0000
0000
1000
0000
0010
0000
0100
0000
0001
0000
1000
0010
0000
0100
0010
0000
,
1001
0000
1000
0001
0100
0010
1000
0001
,
0010
0000
0100
0000
1000
0000
0100
0000
0010
0000
0000
0100
1000
0000
0100
0000
,
0020
0000
0031
0100
1000
0100
0001
0100
,
0010
0000
1000
0000
0001
0000
0010
0000
0100
0000
0010
0001
0000
0010
0001
0000
,
2000
0000
3010
0100
0001
0010
0100
0010
,
0001
0000
0000
0000
0000
0000
0000
0000
0100
0000
0000
0000
0000
0000
0000
0000
0010
0000
0000
0000
0000
0000
0000
0000
1000
0000
0000
0000
0000
0000
0000
0000
0400
0000
0000
0000
0000
0000
0000
0000
0000
0000
0000
0000
0000
0000
0000
0000
4000
0000
0000
0000
0000
0000
0000
0000
0000
0000
0000
0000
0000
0000
0000
3000
,
2300
0000
3001
0100
0010
0100
0001
2000
,
0000
0100
0100
0000
0000
0001
3001
0000
,
1000
0000
0000
0010
0000
0000
0100
0000
0000
0010
0000
0000
1000
0000
0100
0000
,
0010
0000
0000
0001
0000
0000
0010
0000
0000
0000
0001
0000
0010
0000
0100
0000
,
1000
0000
0000
0001
0000
0000
0100
0000
0000
0000
0010
0000
0100
0000
0001
0000
,
1000
0000
0000
0001
0000
0000
1000
0000
0000
0000
0010
0000
1000
0000
0100
0000
,
0010
0000
0000
0001
0000
0000
1000
0000
0000
0010
0000
0000
0100
0000
0001
0000
,
0010
0000
0000
0100
0000
0000
0010
0000
0000
0000
0001
0000
0100
0000
0010
0000
,
0100
0000
0000
0001
0000
0000
0010
0000
0000
0000
0100
0000
1000
0000
0100
0000
,
0010
0000
0000
0001
0000
0000
0100
0000
0000
0000
1000
0000
0100
0000
0001
0000
,
1000
0000
0001
0000
0100
0000
0001
0000
1000
0000
0010
0100
0000
0100
0001
0000
,
0010
0000
0100
0000
1000
0000
0100
0000
0010
0000
0100
1000
0000
1000
0001
0000
,
0100
0000
0001
0000
0010
0000
0001
0000
0100
0000
0010
0100
0000
0100
0001
0000
,
1000
0000
0100
0000
0010
0000
0100
0000
1000
0000
0100
0010
0000
0100
1000
0000
,
0001
0000
0100
0000
1000
0000
0100
0000
0001
0000
0010
0100
0000
1000
0100
0000
,
1000
0000
0100
0000
0001
0000
0100
0000
1000
0000
0010
0100
0000
0001
0010
0000
,
0001
0000
0010
0000
1000
0000
0010
0000
0001
0000
0100
0010
0000
0010
1000
0000
,
2002
0000
0000
3003
,
0001
0010
0100
1000
1001
1001
0000
0000
,
0100
0010
0100
0001
0110
0110
0000
0000
,
1000
0001
0100
0010
1010
1010
0000
0000
,
0001
0010
0100
0010
0011
0011
0000
0000
,
1000
0001
0100
0001
1001
1001
0100
0000
,
0010
0100
1000
0100
0110
0110
0001
0000
,
0100
0001
1000
0001
0101
0101
0010
0000
,
0200
0000
0000
0000
0000
0000
0000
0000
0301
0000
0100
0001
0100
0000
0010
0000
,
2000
0000
3001
0100
0010
0010
1000
0000
,
0001
0000
0000
0000
0000
0000
0000
0000
0010
0000
0000
0000
0000
0000
0000
0000
0100
0000
0000
0000
0000
0000
0000
0000
0000
0000
0000
0000
0000
0000
0000
0000
0040
0000
0000
0000
0000
0000
0000
0000
0000
0000
0000
0000
0000
0000
0000
0000
0004
0000
0000
0000
0000
0000
0000
0000
0000
0000
0000
0000
0000
0000
0000
0030
,
0023
0000
0130
1000
0010
0010
0100
0000
,
0001
0000
0000
0000
0100
0000
0010
0000
1000
0000
0100
0010
0000
0100
0010
0000
,
0002
0000
1003
0100
1000
1000
0000
0000
,
0002
0000
0000
0000
0000
0000
0103
0000
0040
4000
0000
0000
0000
0000
0000
3030
,
0002
0000
1003
0100
0010
0000
0001
0000
,
2000
0000
0000
0000
0000
0000
3001
0000
0100
0000
0001
0100
0000
0001
0100
0000
,
0010
0010
1000
0001
0000
2000
0000
3100
,
0010
0001
0010
0100
0000
0020
0000
0031
,
0100
1000
0100
0001
0000
0020
0000
0130
,
1000
1000
0010
0100
0000
0002
0000
1003
,
0100
0000
0001
0000
0100
0000
1000
0001
0000
0000
0200
0000
0000
0000
0310
0000
,
0100
0000
0001
0000
0100
0000
0010
1000
0000
0000
0020
0000
0000
0000
0130
0000
,
0010
0000
1000
0000
0010
0000
0100
0001
0000
0000
2000
0000
0000
0000
3001
0000
,
0010
0000
0100
0000
1000
0000
0000
0000
0001
0000
0001
0000
1000
0100
1000
0100
,
1000
0000
0010
0000
0100
0000
0010
1000
0000
1000
0010
0000
0100
0000
0001
0000
,
0010
0000
0001
0000
0100
0000
0001
0010
0000
0010
0001
0000
0100
0000
0010
0000
,
1000
0000
0100
0000
0010
0000
0100
1000
0000
1000
0001
0000
1000
0000
0100
0000
,
0010
0000
0100
0000
1000
0000
0010
0100
0000
0100
0001
0000
1000
0000
0100
0000
,
0001
0000
0100
0000
1000
0000
0010
1000
0000
1000
0010
0000
1000
0000
0100
0000
,
0001
0000
0100
0000
1000
0000
0010
0001
0000
0001
0010
0000
1000
0000
0001
0000
,
0100
0000
1000
0000
0100
0000
0001
0010
0000
0010
0100
0000
0010
0000
0001
0000
,
0100
0000
0010
0000
1000
0000
0000
0000
1001
0000
1001
0000
0010
0100
0010
0100
,
0020
0031
0000
0000
;

//---------------dance-single - C. Picardy----------------
#NOTES:
     dance-single:
     :
     Medium:
     6:
     0.460476,0.507201,0.284412,0.094804,0.000000,408.000000,372.000000,36.000000,12.000000,0.000000,0.000000,0.460476,0.507201,0.284412,0.094804,0.000000,408.000000,372.000000,36.000000,12.000000,0.000000,0.000000:
0000
0000
0000
0000
,
0000
0000
0000
0000
,
0000
0000
0000
0000
,
0000
0000
0000
0000
,
2000
0000
3001
0000
0100
0000
0010
0010
,
0000
1000
1000
0000
0000
0000
0001
0000
,
1000
0000
0100
0000
0020
0000
0001
0031
,
0000
0000
0000
1000
0001
0000
1000
0000
,
0110
0000
0001
0100
1000
0000
0100
0000
,
0010
1000
0001
0000
0010
0000
0100
0100
,
1000
0000
0010
0000
0100
0000
0001
1000
,
0000
0000
0010
0000
0100
0000
0001
0100
,
0010
0000
1000
0000
0001
0000
0010
0010
,
0000
0100
0100
0000
1000
0000
0010
0000
,
0100
0000
0001
1000
0100
0000
0010
0100
,
0000
0000
0000
0010
0000
0100
0010
0000
,
1001
0110
0100
0001
,
1000
0001
0100
0000
0010
0000
1000
0000
,
0011
0000
1100
0000
0001
0000
0010
0100
,
1000
0001
0100
0010
,
1010
0000
0101
0000
1000
0000
0010
0100
,
0001
0000
0010
0000
0100
1000
0001
0000
,
0110
0000
1001
0000
0100
0000
0010
0100
,
0002
1000
0010
0103
,
1010
0000
0011
0000
1000
0000
0001
0010
,
0001
0000
1000
0000
0010
0100
0001
0000
,
1100
0000
0101
0000
1000
0000
0001
0100
,
0010
1000
0001
0010
,
0110
0000
0011
0000
1000
0000
0100
0010
,
0100
0000
1000
0000
0001
0100
0010
0000
,
1001
1010
0100
0001
,
2000
0010
0000
3001
,
1000
0000
0001
0000
0100
0000
0010
1000
,
0001
0000
0010
0000
0100
0000
1000
0100
,
0010
0000
0001
0000
1000
0000
0010
0100
,
0001
0000
1000
0000
0100
0000
0001
0100
,
1000
0000
0010
0000
0001
0000
0010
1000
,
0010
0000
0100
0000
0001
0000
0010
1000
,
0010
0000
0001
0000
0100
0000
1000
0100
,
1000
0000
0001
0000
0010
0000
1000
0100
,
1000
0000
0001
0000
0010
0001
0100
0000
,
0010
0000
1000
0000
0100
1000
0010
0000
,
0100
0000
0001
0000
0010
0100
1000
0000
,
0001
0000
1000
0000
0100
0010
0001
0000
,
1000
0000
0010
0000
0100
0010
1000
0000
,
0001
0000
0100
0000
1000
0100
0001
0000
,
0010
0000
1000
0000
0001
0010
1000
0000
,
0010
0000
0001
0000
0010
0100
1000
0000
,
0010
0100
0010
0000
1001
0000
1001
0000
,
0100
0010
0100
0000
1001
0000
1001
0000
,
1000
0001
1000
0000
0110
0000
0110
0000
,
0001
1000
0001
0000
0110
0000
0110
0000
,
1000
0100
0010
0000
0011
0000
0101
0000
,
0010
1000
0100
0000
1010
0000
0101
0000
,
0010
0001
0100
0000
1100
0000
0101
0000
,
2002
0000
0000
3003
,
2000
0000
3010
0100
0001
0000
0101
0000
,
1000
0000
0100
1000
0010
0000
0110
0000
,
0002
0000
1003
0100
0010
0000
1100
0000
,
0001
0000
0010
0001
1000
0000
0110
0000
,
2000
0000
3001
0100
0010
0000
0000
0000
,
1000
0000
0000
0001
0001
0000
1000
1000
,
2000
0000
0000
3001
0100
0000
0000
0000
,
0020
0000
0000
1000
1000
0000
1030
0000
,
0001
0100
0010
0000
0000
1000
0000
0001
,
1000
0100
0010
0000
0000
0010
0000
0100
,
1000
0100
0010
0000
0000
0001
0000
1000
,
0010
0100
0001
0000
0000
1000
0000
0001
,
0100
0010
1000
0000
0000
0100
0000
0010
,
0100
1000
0001
0000
0000
0100
0000
0001
,
0010
0001
0100
0000
0000
0010
0000
1000
,
0001
0100
0010
0000
1000
0001
1000
0001
,
0100
0010
0100
0000
0001
1000
0000
0001
,
1000
0100
0010
0000
0100
0010
0000
0100
,
0010
0001
0100
0000
0010
1000
0000
0010
,
1000
0001
0100
0000
0001
0010
0000
0001
,
0010
0100
1000
0000
0001
0100
0000
0001
,
0100
0010
1000
0000
0100
1000
0000
0100
,
1000
0001
0010
0000
0100
0010
0000
0100
,
0010
0001
1000
0000
0100
0010
0001
0010
,
0200
1300
0000
0000
;

//---------------dance-single - C. Picardy----------------
#NOTES:
     dance-single:
     :
     Easy:
     4:
     0.321656,0.380401,0.308113,0.221209,0.000000,285.000000,246.000000,39.000000,28.000000,0.000000,0.000000,0.321656,0.380401,0.308113,0.221209,0.000000,285.000000,246.000000,39.000000,28.000000,0.000000,0.000000:
// measure 0
0000
0000
0000
0000
,  // measure 1
0000
0000
0000
0000
,  // measure 2
0000
0000
0000
0000
,  // measure 3
0000
0000
0000
0000
,  // measure 4
0000
0100
0000
0100
,  // measure 5
0000
0100
0000
0010
,  // measure 6
0000
0010
0000
0010
,  // measure 7
0000
1000
0000
1000
,  // measure 8
0001
0100
0000
0010
,  // measure 9
1000
0001
0000
1000
,  // measure 10
0100
1000
0000
0010
,  // measure 11
0100
0001
1000
1000
,  // measure 12
1001
0100
0010
0000
,  // measure 13
1000
0001
1000
0000
,  // measure 14
0100
0010
0001
0100
,  // measure 15
0010
0000
0000
0100
,  // measure 16
1001
0100
0100
0010
,  // measure 17
1000
0000
0001
1000
,  // measure 18
0010
0010
0100
0001
,  // measure 19
1000
0000
0100
0001
,  // measure 20
1000
1000
0100
0010
,  // measure 21
0001
0000
2000
0000
,  // measure 22
3001
0001
0100
0010
,  // measure 23
1000
0000
0010
0000
,  // measure 24
1001
0100
0010
0100
,  // measure 25
0001
1000
0000
0100
,  // measure 26
0110
1000
0001
0100
,  // measure 27
0010
1000
0000
0010
,  // measure 28
1001
0010
0100
0010
,  // measure 29
1000
0001
0200
0300
,  // measure 30
0110
1000
0001
0100
,  // measure 31
0010
1000
0000
1000
,  // measure 32
0002
0000
0103
0100
,  // measure 33
0020
0000
1030
1000
,  // measure 34
0200
0000
0310
0010
,  // measure 35
2000
0000
3001
0001
,  // measure 36
0200
0000
0310
1000
,  // measure 37
0002
0000
0013
0100
,  // measure 38
2000
0000
3001
0100
,  // measure 39
0020
0000
1030
0001
,  // measure 40
0100
0001
0100
0001
,  // measure 41
0100
0010
0100
0010
,  // measure 42
1000
0010
1000
0010
,  // measure 43
1000
0001
1000
0001
,  // measure 44
1000
0001
0100
0001
,  // measure 45
1000
0010
1000
0001
,  // measure 46
0100
0001
0010
0001
,  // measure 47
1000
0010
0100
0001
,  // measure 48
0010
0100
2002
3003
,  // measure 49
0100
0010
2002
3003
,  // measure 50
0001
1000
0220
0330
,  // measure 51
1000
0001
0220
0330
,  // measure 52
1000
0001
0202
0303
,  // measure 53
1000
0001
2200
3300
,  // measure 54
0010
0001
2020
3030
,  // measure 55
2002
0000
0000
3003
,  // measure 56
0001
1000
0100
0100
,  // measure 57
0010
0001
2000
0000
,  // measure 58
3010
0100
0001
1000
,  // measure 59
0100
0010
0100
1000
,  // measure 60
1001
0000
0100
0000
,  // measure 61
0010
0000
1000
0000
,  // measure 62
0001
0000
0100
0000
,  // measure 63
0020
0000
0000
0030
,  // measure 64
1001
1001
0000
0010
,  // measure 65
1001
1001
0000
1000
,  // measure 66
0110
0110
0000
0001
,  // measure 67
0110
0110
0000
1000
,  // measure 68
0101
0101
0000
0001
,  // measure 69
1100
1100
0000
1000
,  // measure 70
0011
0011
0000
0001
,  // measure 71
1010
1010
0100
0001
,  // measure 72
0100
1001
0010
1000
,  // measure 73
0100
1001
0001
1000
,  // measure 74
0100
0110
0001
1000
,  // measure 75
0010
0110
0001
1000
,  // measure 76
0100
1100
0001
0100
,  // measure 77
0010
0101
1000
0100
,  // measure 78
0010
0011
0001
1000
,  // measure 79
0001
1010
0001
1000
,  // measure 80
0100
0010
0000
0000
;
