#TITLE:Lightning Over Japan;
#SUBTITLE:;
#ARTIST:Dejo;
#TITLETRANSLIT:;
#SUBTITLETRANSLIT:;
#ARTISTTRANSLIT:;
#GENRE:;
#CREDIT:;
#BANNER:lightningoverjapanbn.png;
#BACKGROUND:lightningoverjapanbg.png;
#LYRICSPATH:;
#CDTITLE:;
#MUSIC:lightningoverjapan.ogg;
#OFFSET:-1.857879;
#SAMPLESTART:62.531620;
#SAMPLELENGTH:12.559999;
#SELECTABLE:YES;
#DISPLAYBPM:154.000000;
#BPMS:0.000000=154.000000
,191.000000=616.000000
,192.000000=154.000000
;
#STOPS:191.000000=0.281000
;
#BGCHANGES:16.000=lightningorb.mp4=1.000=1=0=1=SongBgWithMovieViz==CrossFade==,
31.000=flash=1.600=0=0=1=====,
31.250=lightningoverjapanbg.png=1.000=0=0=1=====,
32.000=flash=1.600=0=0=1=====,
32.250=redlightning.mp4=1.000=0=1=1=StretchRewind====,
48.000=lightningorb.mp4=1.000=0=1=1=StretchRewind==CrossFade_Fastest==,
64.000=flash=1.600=0=0=1=====,
64.250=storm2.mp4=1.000=0=1=1=StretchRewind====,
96.000=flash=1.600=0=0=1=====,
96.250=lightningorb.mp4=1.000=0=1=1=StretchRewind====,
128.000=flash=1.600=0=0=1=====,
128.250=storm2.mp4=1.000=0=1=1=StretchRewind====,
156.000=flash=1.800=0=0=1=====,
156.250=lightningoverjapanbg.png=1.000=0=0=1=====,
156.500=flash=1.800=0=0=1=====,
156.750=lightningoverjapanbg.png=1.000=0=0=1=====,
157.500=flash=1.800=0=0=1=====,
157.750=lightningoverjapanbg.png=1.000=0=0=1=====,
158.500=flash=1.800=0=0=1=====,
158.750=lightningoverjapanbg.png=1.000=0=0=1=====,
160.000=flash=1.600=0=0=1=====,
160.250=lightningripple.mp4=1.000=0=1=1=StretchRewind====,
192.000=flash=1.600=0=0=1=====,
192.250=storm2.mp4=1.000=0=1=1=StretchRewind====,
224.000=flash=1.600=0=0=1=====,
224.250=lightningorb.mp4=1.000=0=1=1=StretchRewind====,
252.000=flash=1.800=0=0=1=====,
252.250=lightningoverjapanbg.png=1.000=0=0=1=====,
252.500=flash=1.800=0=0=1=====,
252.750=lightningoverjapanbg.png=1.000=0=0=1=====,
253.500=flash=1.800=0=0=1=====,
253.750=lightningoverjapanbg.png=1.000=0=0=1=====,
254.500=flash=1.800=0=0=1=====,
254.750=lightningoverjapanbg.png=1.000=0=0=1=====,
256.000=flash=1.600=0=0=1=====,
256.250=lightningripple.mp4=1.000=0=1=1=StretchRewind====,
272.000=flash=1.600=0=0=1=====,
272.250=redlightning.mp4=1.000=0=1=1=StretchRewind====,
287.000=flash=1.400=0=0=1=====,
287.250=lightningoverjapanbg.png=1.000=0=0=1=====,
99999=-nosongbg-=1.000=0=0=0 // don't automatically add -songbackground-
;
#KEYSOUNDS:;
#ATTACKS:;

//---------------dance-single - C. Picardy----------------
#NOTES:
     dance-single:
     :
     Beginner:
     1:
     0.105102,0.185660,0.077899,0.000000,0.000000,85.000000,76.000000,9.000000,0.000000,0.000000,0.000000,0.105102,0.185660,0.077899,0.000000,0.000000,85.000000,76.000000,9.000000,0.000000,0.000000,0.000000:
// measure 0
0000
0000
0000
0000
,  // measure 1
0000
0000
0000
0000
,  // measure 2
0000
0000
0000
0000
,  // measure 3
0000
0000
0000
0000
,  // measure 4
0000
0000
0000
0000
,  // measure 5
0000
0000
0000
0000
,  // measure 6
0000
0000
0000
0000
,  // measure 7
0000
0000
0000
0000
,  // measure 8
1000
0000
0000
0000
,  // measure 9
1000
0000
0000
0000
,  // measure 10
0001
0000
0000
0000
,  // measure 11
0001
0000
0000
0000
,  // measure 12
0100
0000
0000
0000
,  // measure 13
0100
0000
0000
0000
,  // measure 14
0010
0000
0000
0000
,  // measure 15
0010
0000
0000
0000
,  // measure 16
1001
0000
0000
0000
,  // measure 17
0100
0000
0100
0000
,  // measure 18
0000
0000
0000
0000
,  // measure 19
0010
0000
0010
0000
,  // measure 20
0010
0000
0000
0000
,  // measure 21
1000
0000
1000
0000
,  // measure 22
1000
0000
0000
0000
,  // measure 23
0001
0000
0001
0000
,  // measure 24
1001
0000
0000
0000
,  // measure 25
0110
0000
0000
0000
,  // measure 26
1000
0000
1000
0000
,  // measure 27
1000
0000
0000
0000
,  // measure 28
1001
0000
0000
0000
,  // measure 29
0110
0000
0000
0000
,  // measure 30
0001
0000
0001
0000
,  // measure 31
0001
0000
0000
0000
,  // measure 32
0100
0000
0000
0000
,  // measure 33
0010
0000
0000
0000
,  // measure 34
1000
0000
0000
0000
,  // measure 35
0001
0000
0000
0000
,  // measure 36
0010
0000
0000
0000
,  // measure 37
0100
0000
0000
0000
,  // measure 38
1000
0000
0000
0000
,  // measure 39
0001
0000
0000
0000
,  // measure 40
1001
0000
0000
0000
,  // measure 41
0010
0000
0010
0000
,  // measure 42
0010
0000
0000
0000
,  // measure 43
0100
0000
0100
0000
,  // measure 44
0100
0000
0000
0000
,  // measure 45
0001
0000
0001
0000
,  // measure 46
0001
0000
0000
0000
,  // measure 47
1000
0000
1000
0000
,  // measure 48
0000
0000
0000
0000
,  // measure 49
0010
0000
0000
0000
,  // measure 50
1000
0000
0000
0000
,  // measure 51
0001
0000
0000
0000
,  // measure 52
0100
0000
0000
0000
,  // measure 53
0010
0000
0000
0000
,  // measure 54
1000
0000
0000
0000
,  // measure 55
0001
0000
0000
0000
,  // measure 56
1001
0000
0000
0000
,  // measure 57
0110
0000
0000
0000
,  // measure 58
0100
0000
0000
0000
,  // measure 59
0010
0000
0000
0000
,  // measure 60
1000
0000
0000
0000
,  // measure 61
0001
0000
0000
0000
,  // measure 62
0100
0000
0000
0000
,  // measure 63
0010
0000
0000
0000
,  // measure 64
1001
0000
0000
0000
,  // measure 65
0100
0000
0100
0000
,  // measure 66
0100
0000
0000
0000
,  // measure 67
0010
0000
0010
0000
,  // measure 68
0010
0000
0000
0000
,  // measure 69
0001
0000
0001
0000
,  // measure 70
0001
0000
0000
0000
,  // measure 71
1000
0000
1000
0000
;

//---------------dance-single - C. Picardy----------------
#NOTES:
     dance-single:
     :
     Easy:
     4:
     0.326435,0.373916,0.190420,0.060588,0.000000,264.000000,242.000000,22.000000,7.000000,0.000000,0.000000,0.326435,0.373916,0.190420,0.060588,0.000000,264.000000,242.000000,22.000000,7.000000,0.000000,0.000000:
0000
0000
0000
0000
,
0000
0000
0000
0000
,
0000
0000
0000
0000
,
0000
0000
0000
0000
,
0010
0000
0100
0000
,
0001
0000
1000
0000
,
0100
0000
0010
0000
,
0100
0000
1000
1001
,
0100
0010
1000
0001
,
0100
0100
0010
0010
,
1000
0001
0010
0100
,
1000
0001
1000
0001
,
0100
0010
1000
0001
,
0010
0010
0100
0100
,
1000
0100
0010
0001
,
0100
0010
0100
1001
,
0100
0100
0010
0000
,
1000
1000
0001
0000
,
0001
0100
0010
0000
,
1000
0001
0100
1001
,
0010
0100
0010
0000
,
1000
0100
1000
0000
,
0001
0100
0010
0000
,
1000
0001
0100
0010
,
1001
0000
0110
0000
,
1000
0000
0110
0000
,
1000
0001
0100
0010
,
1000
1000
0010
0100
,
1001
0000
1100
0000
,
0001
0000
0011
0000
,
0100
0010
0100
0010
,
1000
0002
0000
0003
,
0110
0100
1000
0001
,
0100
0100
0010
1000
,
0001
0001
1000
0100
,
0010
0100
1000
0001
,
0110
1000
0001
0100
,
0010
0010
1000
0100
,
0010
0010
0001
0100
,
2002
0000
0000
3003
,
1001
1000
0001
1000
,
0100
0010
0100
0010
,
0001
0010
0001
0010
,
0100
1000
0100
1000
,
0001
0010
0100
1000
,
0001
0100
0010
1000
,
0100
0010
0001
1000
,
0010
0010
0100
0020
,
0030
1000
0100
0010
,
0001
0001
0010
0100
,
1000
1000
0001
0100
,
0010
0100
0010
0100
,
1001
0010
0100
0010
,
0010
0001
1000
0010
,
0100
0100
0001
1000
,
0020
0000
0100
0130
,
1001
0100
0010
1000
,
1001
0100
0001
0010
,
0110
1000
0001
0100
,
0010
0010
1000
0001
,
0100
0010
1000
0100
,
1001
0010
0100
1000
,
0110
0001
1000
0100
,
0220
0000
0000
0330
,
1001
0100
0010
1000
,
0100
0010
0001
0001
,
1000
0010
0100
0010
,
1000
0001
0100
0100
,
0010
1000
0100
0010
,
0001
0100
0010
1000
,
0001
0010
0001
0100
,
0010
1000
0100
1001
,
0001
0000
0000
0000
;

//---------------dance-single - C. Picardy----------------
#NOTES:
     dance-single:
     :
     Challenge:
     11:
     0.964466,0.941281,0.787647,0.112521,0.887185,780.000000,689.000000,91.000000,13.000000,20.000000,0.000000,0.964466,0.941281,0.787647,0.112521,0.887185,780.000000,689.000000,91.000000,13.000000,20.000000,0.000000:
0000
0000
0000
0000
,
0000
0000
0000
0000
,
0000
0000
0000
0000
,
0000
0000
0000
0000
,
0102
0000
0000
0000
0103
0000
0000
0010
0000
0000
1000
0000
0000
0001
0000
0000
,
1000
0000
1000
0000
0100
0000
0010
0001
0000
0200
0000
0000
0310
0000
0110
0000
,
0100
0000
0001
0000
0000
1000
0000
0000
0100
0000
0100
0010
0000
0001
0000
1000
,
0100
0000
0100
0000
0010
0100
1000
0001
0100
0010
1000
0100
1001
0000
M00M
0000
,
0101
0000
0100
0010
1000
0000
0001
0100
0010
0000
1000
0001
0100
0000
0010
1000
,
0001
0000
0001
0000
0010
0000
0100
1000
0010
1000
0100
0000
0110
0000
1100
0000
,
0001
0100
0001
0000
1000
0100
1000
0000
0001
0010
0100
1000
0000
0001
0100
0010
,
1000
0100
0000
0010
0001
0100
0000
0010
1000
0000
0001
0100
0001
0000
1000
0100
,
1001
0000
1000
0001
0100
0000
0100
0010
0000
0010
1000
0000
1000
0001
0000
0000
,
1000
0000
1100
0000
0110
0000
0001
0010
0100
0010
0001
0000
0011
0000
0101
0000
,
0010
1000
0001
0000
0010
0001
1000
0000
1000
0100
0010
0001
0000
0100
0010
1000
,
0100
0000
0110
0000
0000
0100
0010
0001
1000
0000
1000
0001
0100
0000
0101
0000
,
1001
0100
1000
0100
0010
1000
0100
0010
,
0011
0100
0010
0001
0010
1000
0100
1000
,
1010
0010
0100
0001
0010
0100
0001
0100
,
4000
0400
0000
0300
0000
0040
0000
3000
0400
0000
0000
0000
0030
0004
0000
0303
,
0101
0100
0010
1000
0001
0100
0010
1000
,
1001
0100
0010
1000
1001
0100
0001
0010
,
0110
0100
1000
0001
0100
0010
1000
0100
,
0004
0400
0000
0003
0040
0000
0000
0030
4000
0000
0000
0300
0000
0040
0000
3030
,
0100
0001
0010
0001
1000
0001
0100
0010
,
1000
1000
0001
0010
0100
1000
0100
0010
,
0001
0010
0001
0010
0001
0000
1000
0000
1000
0100
1000
0100
1000
0000
0001
0000
,
0100
0001
0100
0001
0100
0000
0010
1000
0010
1000
0010
1000
0010
0000
0100
0000
,
0110
1000
0100
1100
0010
0100
1000
0010
,
0110
0100
0001
1001
1000
0100
0010
0001
,
0010
0100
0010
0001
0010
0000
0001
1000
0100
1000
0001
0010
0100
0000
2200
0000
,
0000
3300
0001
0000
0202
0000
0000
0000
0303
0000
0100
0010
1000
0000
01MM
0000
,
1100
0000
0100
0000
0110
0000
0001
0000
0100
0001
0010
0001
0100
0000
0010
0000
,
0110
0000
1000
0000
1010
0000
0001
0000
1000
0100
0010
0100
1000
0000
0001
0000
,
1010
0000
0100
0000
0101
0000
1000
0000
0001
0100
0010
0100
0001
0000
1000
0000
,
1001
0100
0010
1000
0001
0100
0001
0010
,
0011
0000
0100
0000
1001
0000
0010
0000
1000
0001
0100
0010
1000
0000
0001
0000
,
0101
0000
1000
0000
1100
0000
0010
0000
0100
0001
1000
0001
0010
0000
0100
0000
,
1100
0000
0001
0000
0101
0000
1000
0000
0010
1000
0010
0100
0010
0000
1000
0000
,
1001
1MM1
0000
M11M
0000
2MM2
0000
3003
,
1001
0000
1000
0001
0100
0000
0010
1000
0001
0000
0010
0100
1000
0000
0001
0100
,
0010
0000
0010
0000
1000
0000
0100
0010
0001
0010
0100
0000
0011
0000
0101
0000
,
1000
0010
0100
0000
0001
0010
0100
0000
1000
0100
0010
0001
0000
0100
0010
1000
,
0001
0100
0000
0001
0010
0100
0000
1000
0100
0010
0000
0001
0010
0000
0100
0000
,
1001
0000
0001
0100
0010
0000
0010
1000
0000
1000
0001
0000
0001
0010
0000
0000
,
1100
0000
1100
0000
0110
0000
0001
0010
0100
0010
0001
0000
0101
0000
0110
0000
,
1010
0000
1010
0000
0000
1000
0001
0000
0100
0010
1000
0001
0000
1000
0001
0100
,
0101
0000
0000
0000
0000
0000
0000
0000
0000
0000
0000
0000
0000
0000
0000
0000
0000
0000
0000
0000
0000
0000
0000
0000
0100
0000
0000
0000
0000
0000
0000
0000
0000
0000
0000
0000
0000
0000
0000
0000
0000
0000
0000
0000
0000
0000
0000
0000
0001
0000
0000
0000
0000
0000
0000
0000
0000
0000
0000
0000
0100
0000
0000
0000
0000
0000
0000
0000
0000
0000
0000
0000
0010
0000
0000
0000
0000
0000
0000
0000
0000
0000
0000
0000
1000
0000
0000
0000
0000
0000
0000
0000
0000
0000
0000
0000
0001
0000
0000
0000
0000
0000
0000
0000
0000
0000
0000
0000
0000
0000
0000
0000
0000
0000
0000
0000
0000
0000
0000
0000
0100
0000
0000
0000
0000
0000
0000
0000
0000
0000
0000
0000
0002
0000
0000
0000
0000
0000
0000
0000
0000
0000
0000
0000
2000
3003
0000
0000
0000
0000
0000
0000
0000
0000
0000
0000
0000
0000
0000
0000
0000
0000
0000
0000
0000
0000
0000
0000
MMMM
0000
0000
0000
0000
0000
0000
0000
0000
0000
0000
0000
0000
0000
0000
0000
0000
0000
0000
0000
0000
0000
0000
0000
,
0011
0000
0001
0000
1001
0000
1000
0000
0001
0010
0001
0010
0100
1000
0100
0000
,
1100
0000
0001
0000
0101
0000
1000
0000
0010
1000
0010
1000
0001
0100
0001
0000
,
0110
0000
1000
0000
1010
0000
0100
0000
0001
0010
0001
0010
0001
1000
0001
0000
,
1100
0000
1000
0001
0100
0000
0010
1000
0001
0000
0010
0100
1000
0000
0001
0100
,
0101
0000
0010
0000
1010
0000
1000
0000
0001
0010
0100
1000
0100
0010
0001
0000
,
0011
0000
1000
0000
1100
0000
0010
0000
0100
0010
1000
0100
0010
0001
0100
0000
,
0110
0000
0001
0000
1001
0000
1000
0000
0001
0010
0100
1000
0001
0100
0010
1000
,
1001
0100
0010
1001
0000
1100
0101
0000
,
1000
0010
1000
0000
0001
1000
0001
0000
0100
0001
0100
0001
1000
0001
1000
0001
,
1000
0100
1000
0000
0010
1000
0010
0000
0100
0010
0100
0010
0100
0001
0100
0001
,
0010
0001
0010
0000
0001
0100
0001
0000
1000
0100
1000
0100
0010
0001
0010
0001
,
1000
0010
0100
0000
0001
1000
0100
0000
0010
0100
1000
0000
0001
0000
1001
0000
,
0001
0100
0010
0000
1000
0001
0100
0000
0001
0100
0010
1000
0100
0010
0001
0100
,
0010
1000
0100
0000
0010
0001
0100
0000
0010
1000
0100
0010
0001
0100
0010
1000
,
0100
0010
0001
0000
0100
0010
1000
0000
0100
0010
0001
0100
0010
1000
0100
0010
,
0110
M11M
0000
1MM1
0000
M22M
0000
0330
,
1001
0000
1000
0001
0100
0000
0100
0010
0000
0010
1000
0000
1000
0001
0100
0010
,
0100
0000
0110
0000
0101
0000
1000
0010
0100
0010
1000
0000
0101
0000
1001
0000
,
1000
0100
0010
0000
0001
0010
0100
0000
0010
0100
1000
0001
0000
0100
0010
1000
,
0001
0100
0000
0100
0010
0100
0000
0001
1000
0100
0000
1000
0001
0000
0010
0001
,
1000
0000
0100
0010
0001
0000
0001
0010
0000
0010
0100
0000
0100
0010
0000
0000
,
0011
0000
0110
0000
1100
0000
0001
0010
0100
0010
0001
0000
0101
0000
0110
0000
,
1001
0000
1001
0000
0000
1000
0001
0000
0100
0010
1000
0001
0000
0010
0100
1000
,
0001
0000
0001
0000
1000
0010
1000
0001
1001
0000
0001
0010
0011
0000
1000
0000
,
0200
0000
0300
0000
;

//---------------dance-single - C. Picardy----------------
#NOTES:
     dance-single:
     :
     Medium:
     6:
     0.415462,0.502017,0.302941,0.095210,0.017311,336.000000,301.000000,35.000000,11.000000,0.000000,0.000000,0.415462,0.502017,0.302941,0.095210,0.017311,336.000000,301.000000,35.000000,11.000000,0.000000,0.000000:
0000
0000
0000
0000
,
0000
0000
0000
0000
,
0000
0000
0000
0000
,
0000
0000
0000
0000
,
0001
0000
0000
0000
0000
0000
0000
1000
0000
0000
1000
0000
0000
0000
0000
0000
,
0001
0000
0000
0000
0001
0000
0000
0000
0000
1000
0000
0000
1000
0000
0000
0000
,
0100
0000
0000
0000
0100
0000
0000
0000
0010
0000
0000
0010
0000
0000
0000
0000
,
0100
0100
0000
0010
0010
0000
0110
0000
,
1001
0100
1000
0010
,
1000
0100
0010
0000
0001
1000
0100
0000
,
0010
0100
1000
0010
,
0200
0001
0010
0301
,
1100
0010
0100
0001
,
0010
0100
1000
0000
0001
0100
0010
0000
,
1000
0000
0000
0000
0001
0000
0000
0000
0100
0000
0000
0100
0000
0000
0000
0000
,
0001
1000
0000
0001
1000
0000
0100
0000
,
0110
0001
1000
0010
,
0100
0010
1000
0100
,
0001
0100
1000
0100
,
0020
0001
0100
0031
,
0101
0000
0000
0010
0000
1000
0000
0001
,
0000
0100
0000
0010
0000
0010
0000
0000
,
1000
0100
0000
0100
0000
0010
0000
0100
,
2000
0010
0001
3100
,
1001
0000
0000
1001
0000
0000
0100
0000
,
0010
0100
0000
0110
0000
0000
0001
0000
,
1000
0000
0100
0000
0010
0000
0001
0010
,
0000
0001
0002
0000
0010
0000
0103
0000
,
1010
0000
0000
1001
0000
0000
1000
0000
,
0001
0100
0000
0101
0000
0000
0010
0000
,
1000
0000
0001
0000
0010
0000
0100
0010
,
0000
0100
2000
0000
0000
0000
3000
0000
,
1001
0000
0100
0000
0010
0000
1000
0001
,
0100
0000
0100
0000
0010
0000
0010
1000
,
0001
0001
1000
0100
,
0010
0001
0000
0001
0000
0001
1000
0000
,
0110
0000
1000
0000
0001
0000
0100
0010
,
1000
0000
1000
0000
0100
0000
0100
0010
,
0001
0001
1000
0001
,
1000
2002
0000
0000
0000
0000
3003
0000
,
0110
0001
1000
0100
,
0010
0001
0100
0000
0010
1000
0100
0000
,
0010
0001
1000
0010
,
0100
0010
0000
0100
0010
0000
1001
0000
,
0110
1000
0001
1000
,
0100
0010
0001
0000
0100
0010
1000
0000
,
0001
1000
0100
0010
,
0011
0100
0110
2000
,
3001
0000
0100
0000
0010
1000
0100
0000
,
1100
0000
1100
0000
0010
0001
0100
0000
,
0110
0110
1000
0001
,
0010
0100
0000
1000
0000
0001
0100
0000
,
1010
0000
1010
0000
0001
0100
1000
0000
,
0101
0000
0101
0000
0010
0001
0100
0000
,
1001
1001
0100
0010
,
1000
0001
0000
0100
0000
0010
0000
1000
,
0001
0000
1000
0000
0100
0000
1000
0100
,
0001
0000
0100
0000
1000
0000
0001
0100
,
1000
1000
0100
0010
,
1000
0001
0000
1000
0000
0010
0100
0000
,
0101
0000
0010
0000
1000
0100
0010
0000
,
0011
0000
1000
0000
0010
0100
0001
0000
,
0110
1000
0001
0100
,
0010
0220
0000
0000
0000
0000
0330
0000
,
1001
0100
0010
1000
,
0001
0010
0100
0000
1000
0100
0010
0000
,
0001
1000
0010
0100
,
0001
0100
1000
0000
1000
0100
0001
0000
,
1001
0100
0010
0001
,
0010
0100
1000
0000
0010
0100
0001
0000
,
1000
0001
0100
0010
,
1000
0001
0000
0001
0010
0000
0010
0001
,
2000
0000
3000
0000
;

//---------------dance-single - C. Picardy----------------
#NOTES:
     dance-single:
     :
     Hard:
     9:
     0.578679,0.627521,0.285630,0.060588,0.246681,468.000000,435.000000,33.000000,7.000000,12.000000,0.000000,0.578679,0.627521,0.285630,0.060588,0.246681,468.000000,435.000000,33.000000,7.000000,12.000000,0.000000:
0000
0000
0000
0000
,
0000
0000
0000
0000
,
0000
0000
0000
0000
,
0000
0000
0000
0000
,
1000
0000
0000
0000
0001
0000
0000
0100
0000
0000
0100
0000
0000
0010
0000
0000
,
1000
0000
0001
0000
0100
0000
0000
0000
0000
0010
0000
0000
1000
0000
0001
0000
,
1000
0000
1000
0000
0000
0100
0000
0000
0010
0000
0000
0001
0000
0000
0000
0000
,
1000
0000
0100
0000
0000
1000
0000
0010
0100
0000
0000
0000
1001
0000
0000
0000
,
1000
0001
0100
0001
0010
0001
1000
0100
,
0010
0000
0010
0000
0001
0000
0000
0000
0100
0001
0000
0000
0010
0000
0010
0000
,
0100
1000
0000
0000
0100
0010
0000
0000
0100
0000
0100
1000
0000
0000
0001
0000
,
0100
0010
0000
0000
0100
0001
0000
0000
1000
0000
0000
0001
0100
0000
0010
0000
,
1010
0000
0000
0000
0100
0000
0000
0010
0000
0000
1000
0000
0000
0001
0000
0000
,
1000
0000
1000
0000
0010
0000
0000
0000
0100
0001
0000
0000
0010
0000
0010
0000
,
0100
0000
0100
0000
0010
0000
0001
0000
0010
0000
0100
0010
0000
0000
0100
0000
,
1000
0000
1000
0000
0000
0001
0000
0100
0010
0000
0000
0010
1000
0000
0001
0000
,
1000
0100
0010
0100
1000
0000
0010
0000
,
1000
0010
0100
0010
1000
0000
0001
0000
,
0010
0100
0010
0001
0100
0000
0010
0000
,
0404
M0M0
M0M0
M3M3
,
0001
0100
0000
0010
0000
0110
0000
1000
,
0000
1010
0000
0001
0000
1001
0000
0000
,
0100
0010
0000
0100
0000
0010
0000
1000
,
0004
MM40
MM00
MM33
,
1001
0000
0000
1100
0000
0001
0010
0100
,
1000
0001
0000
1001
0000
1000
0001
0100
,
0020
0000
0230
0000
0301
0100
0010
2000
,
0000
3001
0001
1000
0000
0100
0010
0001
,
0011
0000
0000
0101
0000
0100
0010
1000
,
0001
0100
0000
1010
0000
1000
0010
0100
,
0002
0000
2003
0000
3100
0010
0002
0100
,
0000
0100
0103
0000
0000
0000
0010
0000
,
1001
0000
0000
0000
0101
0000
0000
0000
0010
0000
0000
0100
0000
0000
0010
0000
,
0100
0000
0000
0000
1100
0000
0000
0000
0001
0000
0000
0100
0000
0000
0001
0000
,
0010
0000
0000
0000
1001
0000
0000
0000
0100
0000
0000
0010
0000
0000
1000
0000
,
0001
0001
0000
1000
0000
0100
0010
0001
,
1000
0000
0000
0000
0110
0000
0000
0000
1000
0000
0000
0001
0000
0000
0100
0000
,
0010
0000
0000
0000
1001
0000
0000
0000
0010
0000
0000
0100
0000
0000
1000
0000
,
0001
0000
0000
0000
1010
0000
0000
0000
0100
0000
0000
0010
0000
0000
0001
0000
,
1000
1001
0000
0010
0000
1001
0000
0000
,
0100
0010
1000
0010
0100
0010
1000
0100
,
0010
0000
0010
0000
0001
0000
0100
0000
0010
1000
0000
0000
0001
0000
0001
0000
,
1000
0100
0000
0000
0001
0100
0000
0000
1000
0000
0100
0010
0000
0000
0001
0000
,
0100
0010
0000
0000
1000
0001
0000
0000
0010
0100
0000
1000
0001
0000
0100
0000
,
0001
0100
0010
0100
0001
0100
0010
1000
,
0100
0000
0100
0000
0010
0000
0001
0000
0100
0010
0000
0000
1000
0000
1000
0000
,
0001
0000
0001
0000
1000
0000
0100
0000
0010
0000
0100
1000
0000
0000
0001
0000
,
0100
0000
0100
0000
0010
1000
0000
0010
1000
0000
0001
1000
0100
0000
0000
0000
,
1001
0000
0110
0000
1000
0100
0010
0100
,
1000
0000
0101
0000
1000
0010
0100
0010
,
1000
0000
0011
0000
0100
0010
0001
0010
,
0100
1000
0000
1001
0000
0100
0010
1000
,
0001
0000
1100
0000
0001
0100
1000
0100
,
0001
0000
1010
0000
1000
0100
0010
0100
,
1000
0000
0011
0000
0100
0001
0010
0100
,
1000
0010
0000
0100
0000
0010
0000
1000
,
0001
0010
0100
0010
0001
0010
0100
1000
,
1000
0100
0010
0100
1000
0100
0010
0001
,
0001
0100
0010
0100
0001
0100
0010
1000
,
1000
0001
0000
0010
0000
0100
1000
0001
,
0100
0010
1000
0010
0100
0010
1000
0100
,
0010
0100
1000
0100
0010
0100
1000
0100
,
0010
0001
0100
0001
0010
0001
0100
0010
,
1000
1001
0000
0110
0000
1001
0000
0000
,
0100
0000
0001
0100
0001
0000
0100
0000
0010
0000
1000
0000
0100
0000
0010
0100
,
0010
0000
0001
0000
0001
0000
1000
0000
0100
0010
0000
0000
0001
0000
0001
0000
,
1000
0010
1000
0000
0001
0100
0000
0000
0010
0000
0010
1000
0000
0000
0001
0000
,
0100
0010
0000
0010
0100
0000
0000
0100
0001
0000
0010
0000
0100
0000
1000
0000
,
0001
0000
0000
0000
0100
0000
0000
0010
0000
0000
0100
0000
0000
0001
0000
0000
,
0010
0000
0010
0000
0100
0000
0000
0000
1000
0001
0000
0000
0100
0000
0100
0000
,
0010
0000
0010
0000
1000
0100
0000
0000
0010
0000
0010
0001
0000
0000
1000
0000
,
0001
0000
1001
0000
0000
0100
0000
0100
0010
0000
0010
1000
0001
0000
0010
0000
,
0002
0000
0003
0000
;
