#TITLE:Life;
#SUBTITLE:;
#ARTIST:Haddaway;
#TITLETRANSLIT:;
#SUBTITLETRANSLIT:;
#ARTISTTRANSLIT:;
#GENRE:;
#CREDIT:;
#BANNER:lifebn.png;
#BACKGROUND:lifebg.png;
#LYRICSPATH:;
#CDTITLE:;
#MUSIC:life.ogg;
#OFFSET:-0.008157;
#SAMPLESTART:62.550400;
#SAMPLELENGTH:23.080009;
#SELECTABLE:YES;
#DISPLAYBPM:128.000000;
#BPMS:0.000000=128.479996
,34.000000=64.239998
,35.000000=32.119999
,36.000000=128.479996
;
#STOPS:
;
#BGCHANGES:;
#KEYSOUNDS:;
#ATTACKS:;

//---------------dance-single - C. Picardy----------------
#NOTES:
     dance-single:
     C. Picardy:
     Beginner:
     1:
     0.082703,0.130947,0.055135,0.000000,0.000000,63.000000,57.000000,6.000000,0.000000,0.000000,0.000000,0.082703,0.130947,0.055135,0.000000,0.000000,63.000000,57.000000,6.000000,0.000000,0.000000,0.000000:
0000
0000
0000
0000
,
0000
0000
0000
0000
,
0000
0000
0000
0000
,
0000
0000
0000
0000
,
0000
0000
0000
0000
,
0010
0000
0000
0000
,
0000
0000
0000
0000
,
0100
0000
0000
0000
,
0010
0000
0010
0000
,
0000
0000
0000
0000
,
1000
0000
0000
0000
,
0001
0000
0000
0000
,
0100
0000
0000
0000
,
1001
0000
0000
0000
,
0010
0000
0000
0000
,
1000
0000
0000
0000
,
0001
0000
0000
0000
,
0100
0000
0000
0000
,
0010
0000
0000
0000
,
1000
0000
0000
0000
,
0001
0000
0000
0000
,
0100
0000
0000
0000
,
0100
0000
0000
0000
,
0001
0000
0000
0000
,
1000
0000
0000
0000
,
0110
0000
0000
0000
,
0001
0000
0000
0000
,
1000
0000
0000
0000
,
0010
0000
0000
0000
,
1001
0000
0000
0000
,
0100
0000
0000
0000
,
0010
0000
0000
0000
,
0001
0000
0000
0000
,
0100
0000
0100
0000
,
0010
0000
0010
0000
,
1000
0000
1000
0000
,
1000
0000
0000
0000
,
0001
0000
0001
0000
,
0001
0000
1000
0000
,
1000
0000
1000
0000
,
0000
0000
0000
0000
,
1001
0000
0000
0000
,
0100
0000
0000
0000
,
0010
0000
0000
0000
,
0100
0000
0000
0000
,
1000
0000
0000
0000
,
0001
0000
0000
0000
,
0100
0000
0000
0000
,
0010
0000
0000
0000
,
1001
0000
0000
0000
,
0100
0000
0000
0000
,
0010
0000
0000
0000
,
0001
0000
0000
0000
,
1001
0000
0000
0000
,
0100
0000
0000
0000
,
0010
0000
0000
0000
,
1000
0000
0000
0000
,
0001
0000
0000
0000
;

//---------------dance-single - C. Picardy----------------
#NOTES:
     dance-single:
     :
     Easy:
     3:
     0.228418,0.314272,0.211352,0.128649,0.000000,174.000000,151.000000,23.000000,14.000000,0.000000,0.000000,0.228418,0.314272,0.211352,0.128649,0.000000,174.000000,151.000000,23.000000,14.000000,0.000000,0.000000:
0000
0000
0000
0000
,
0000
0000
0000
0000
,
0000
0000
0000
0000
,
0000
0000
0000
0000
,
0000
0000
0000
0000
,
0010
0000
0000
0000
,
0001
0000
0000
0000
,
1000
0000
0000
0000
,
0100
0000
0000
0000
,
1000
0010
1000
0000
,
0001
0010
0001
0000
,
1000
1000
0100
0000
,
0001
0001
0100
0000
,
0001
1000
0100
0100
,
0010
0001
1000
1000
,
0010
0100
0001
0001
,
1000
0100
0100
0010
,
1001
0000
0101
0000
,
0110
0000
1010
0000
,
1100
0000
0110
0000
,
0011
0000
0101
0000
,
1000
0200
0300
0010
,
0001
0002
0003
1000
,
0001
0020
0030
0000
,
2002
0000
0000
3003
,
0110
0110
0000
1000
,
0001
1000
0010
0000
,
0001
0100
1000
0100
,
0001
0002
0003
1000
,
1001
1001
0000
0100
,
0000
0010
0000
1000
,
0000
0001
1000
0010
,
0100
0000
0000
0010
,
1001
0100
0000
0010
,
1000
0001
0000
0100
,
0010
0020
0030
1000
,
0001
0100
0000
0100
,
1001
0100
0000
0010
,
1000
0001
0000
0010
,
0100
2000
3000
0100
,
0010
0001
0000
0000
,
1001
1001
0100
0010
,
1000
1000
0001
0100
,
0020
0000
0030
0000
,
0200
0300
0020
0030
,
0110
0110
1000
0001
,
0010
0100
0010
0001
,
2000
0000
3000
0001
,
0200
0300
0020
0030
,
1000
0001
1000
0001
,
0100
0001
0100
0001
,
1000
0010
1000
0010
,
1000
0100
1000
0100
,
0010
0100
1001
0100
,
0010
1000
1001
0100
,
0001
0010
1001
1000
,
0100
0010
0001
1000
,
1001
0000
0000
0000
;

//---------------dance-single - C. Picardy----------------
#NOTES:
     dance-single:
     :
     Medium:
     6:
     0.333438,0.419029,0.238920,0.128649,0.000000,254.000000,228.000000,26.000000,14.000000,0.000000,0.000000,0.333438,0.419029,0.238920,0.128649,0.000000,254.000000,228.000000,26.000000,14.000000,0.000000,0.000000:
0000
0000
0000
0000
,
0000
0000
0000
0000
,
0000
0000
0000
0000
,
0000
0000
0000
0000
,
0000
0000
0000
0000
,
0001
0100
0000
0010
,
1000
0001
0000
1000
,
0100
0000
0010
0000
0000
0001
0000
0000
,
0001
0000
1000
0000
0000
0000
2002
0000
0000
0000
0000
0000
0000
0000
0000
3003
,
1000
0000
0100
0000
0010
0000
0001
0010
,
0001
0000
0100
0000
0010
0000
0100
0010
,
0100
0000
0010
0000
1000
0000
0010
1000
,
0010
1000
0110
1001
,
0100
0000
0001
0000
1000
0000
0001
0100
,
0010
0000
1000
0000
0010
0000
1000
0100
,
0010
0000
0001
0000
0010
0000
0100
0010
,
0001
0000
0100
0000
0001
1000
0100
1000
,
0001
0101
0000
0100
,
0010
1000
0100
0010
,
0100
0100
0010
0001
,
0100
0000
1000
0000
0100
0000
0001
0100
,
1000
0100
0010
0010
,
1000
0100
0010
0100
,
1100
1100
0100
0010
,
0022
0000
0000
0033
,
0101
0000
0110
0000
1000
0100
0001
0000
,
1000
0100
0000
0010
0000
0000
0100
0000
,
0100
0000
0010
0000
0001
1000
0000
0010
,
0000
0010
0100
0000
0000
0000
0001
1000
,
0010
0000
1000
0000
0010
1000
0000
0000
,
0001
0001
0000
1000
0000
0000
0001
1000
,
0100
0000
0010
0100
0010
0100
0000
2002
,
0000
0000
0000
3003
,
0001
0000
1000
0000
0100
0010
0100
0000
,
1000
0000
1000
0000
0010
0000
0010
0100
,
0010
0000
2000
0000
3000
0002
0000
0003
,
0100
0010
0000
0000
1000
0000
1000
0001
,
0100
0000
0001
0000
0000
1000
0000
0000
,
0001
1000
0000
0100
0000
0010
0000
0001
,
1000
0000
0020
0000
0030
2000
0000
3000
,
0001
0100
0000
0000
0010
0100
0010
0100
,
0010
0110
1010
1010
,
1100
0000
1000
0000
0100
0000
0010
0002
,
0010
0000
0100
0000
0010
0000
1003
0200
,
0000
0300
0000
0020
0000
0031
0100
0010
,
0010
1010
1010
1001
,
0100
0000
0001
0000
0100
0001
0100
0020
,
1000
0000
1000
0000
0100
0000
1030
0010
,
0000
0000
0000
1001
0000
0001
1000
0100
,
0010
0000
0001
0000
0100
0000
0001
0100
,
1000
0000
0100
0000
0010
0000
1000
0100
,
0001
0000
0100
0000
1000
0000
0010
0001
,
0010
0000
1000
0000
0100
0010
0100
0010
,
0001
0000
0011
0000
0011
0000
1000
0100
,
0010
0000
1100
0000
1100
0000
0001
0100
,
1000
0000
0101
0000
0101
0000
0010
1000
,
0100
0000
1001
0000
1001
0000
1000
0001
,
0100
0000
0000
0000
;

//---------------dance-single - C. Picardy----------------
#NOTES:
     dance-single:
     :
     Hard:
     8:
     0.463400,0.497597,0.294055,0.128649,0.124055,353.000000,321.000000,32.000000,14.000000,0.000000,0.000000,0.463400,0.497597,0.294055,0.128649,0.124055,353.000000,321.000000,32.000000,14.000000,0.000000,0.000000:
0000
0000
0000
0000
,
0000
0000
0000
0000
,
0000
0000
0000
0000
,
0000
0000
0000
0000
,
0000
0000
0000
0000
,
1000
0000
0100
0000
0010
0001
0010
0000
,
0100
0000
1000
0000
0010
1000
0010
0000
,
0100
0000
0001
0000
0000
1000
0000
0000
,
0001
0000
1000
0000
0000
0000
0002
0000
0000
2000
0000
0000
0000
0000
0000
3003
,
1001
0000
0101
0000
0101
0000
0001
0100
,
0110
0000
0110
0000
1010
0000
1000
0100
,
1100
0000
1100
0000
0110
0000
0001
0010
,
0011
0011
2002
3003
,
1000
0000
0100
0000
1000
0000
0100
0000
1000
0000
0100
1000
0100
0000
0010
0000
,
0100
0000
0010
0000
0100
0000
0010
0000
0100
0000
0010
0100
0010
0000
0001
0000
,
0010
0000
0001
0000
1000
0000
0001
0000
0010
0000
0001
1000
0001
0000
0100
0000
,
0001
0000
0100
0000
0010
0000
0100
0000
0001
0000
0100
0001
0100
0000
0010
0000
,
1000
0000
0000
0000
0100
0000
0000
0100
1000
0000
0100
0000
0010
0000
0000
0000
,
0010
0001
0100
0000
0100
0001
0010
0001
,
0100
0000
0000
0000
0110
0000
0000
0001
1000
0000
0100
0000
0010
0000
0000
0000
,
0001
0000
1000
0100
0010
0100
1000
0100
,
0010
0000
0000
0000
1100
0000
0000
0010
0100
0000
1000
0000
0010
0000
0000
0000
,
0100
0001
1000
0010
0000
0100
0100
0010
,
0110
0000
0000
0000
0010
0000
0000
0100
0001
0000
0100
0000
0000
0000
0010
0000
,
2000
0000
0010
0000
0100
0000
3001
0100
,
1000
0000
0000
0000
0110
0000
0000
0001
1000
0000
0100
0000
0010
0000
0000
0000
,
1000
0100
0001
0000
1000
0100
1000
0001
,
0010
0000
0000
0000
0101
0000
0000
1000
0001
0000
1000
0000
0010
0000
0000
0000
,
0100
0100
0001
0000
0100
0100
0010
1000
,
0010
0000
1001
0000
0001
0100
1000
0000
,
1000
0100
0001
0000
0001
0100
0010
0100
,
1000
0000
1000
0100
0001
1000
0000
0001
,
0000
0100
0000
0000
1000
0000
0001
1000
,
1001
0000
0000
0000
0001
0000
0000
0001
0100
0000
0010
0000
1000
0000
0000
0000
,
1000
0100
0001
0000
0001
0100
1000
0100
,
0001
0000
0000
0000
0100
0000
0000
0100
0010
0000
0001
0000
0100
0000
0000
0000
,
0010
0020
0000
0030
1000
0000
0001
0100
,
0101
0000
0110
0000
1000
0010
0001
0000
,
0001
0010
0100
0010
0001
0010
1000
0100
,
0010
1100
0011
0101
,
2002
0000
0000
0000
3003
0000
1000
0001
,
0100
0000
0001
0010
0100
0010
0001
0010
,
0100
1000
0100
0010
0100
1000
0100
0020
,
0000
0000
0001
0000
0031
0000
1000
2000
,
0000
0000
0000
0200
0000
3300
0010
1000
,
1001
0000
1000
0010
0100
0010
1000
0010
,
0100
0001
0010
0001
0100
0001
0010
0002
,
1000
0000
0100
0000
0013
0000
0100
0200
,
0000
0000
0010
0020
0330
0000
1001
0000
,
1000
0000
0001
0000
0100
0000
0001
0000
1000
0000
0001
0100
0001
0000
0100
0000
,
0010
0000
0100
0000
0001
0000
0100
0000
0010
0000
1000
0010
1000
0000
0100
0000
,
1000
0000
0010
0000
1000
0000
0100
0000
1000
0000
0001
1000
0001
0000
0100
0000
,
0010
0110
1010
1001
,
0001
0000
0000
0001
1000
0000
0000
1000
0100
0000
0000
0100
0010
0000
0001
0000
,
0010
0000
0000
0010
0100
0000
0000
0100
0010
0000
0000
0010
0001
0000
0100
0000
,
0010
0000
0000
0010
1000
0000
0000
1000
0010
0000
0000
0010
1000
0000
0001
0000
,
1000
0000
0000
0000
0101
0000
0000
0000
0001
0100
0000
0100
0010
0000
1000
0000
,
1001
0000
0000
0000
;

//---------------dance-single - C. Picardy----------------
#NOTES:
     dance-single:
     :
     Challenge:
     9:
     0.599926,0.680922,0.358380,0.073514,0.229731,457.000000,418.000000,39.000000,8.000000,4.000000,0.000000,0.599926,0.680922,0.358380,0.073514,0.229731,457.000000,418.000000,39.000000,8.000000,4.000000,0.000000:
0000
0000
0000
0000
,
0000
0000
0000
0000
,
0000
0000
0000
0000
,
0000
0000
0000
0000
,
0000
0000
0000
0000
,
1000
0100
1000
0100
0010
0001
0010
0001
,
1000
0001
0100
0010
1000
0100
0010
0001
,
1000
1000
0001
0100
1000
1000
0100
0010
,
1000
0000
0000
0000
0100
0000
0000
0000
0000
0000
0000
0000
0040
0000
0000
0000
0000
0000
0004
0000
0000
0000
0000
0000
0030
0000
2003
0002
0000
0000
0000
3003
,
1010
0000
1000
0000
1010
0000
0100
0000
0011
0000
1000
0100
0010
0000
0001
0000
,
1100
0000
0001
0000
0101
0000
1000
0000
1010
0000
0001
0100
0010
0000
0100
0000
,
1010
0000
1000
0000
1100
0000
0010
0000
0011
0000
1000
0100
0010
0000
0001
0000
,
0101
0000
1000
0000
1010
0000
0100
0000
0202
0000
0303
0001
1000
0000
0001
0000
,
0101
0000
0100
0000
0110
0000
1000
0000
1010
0000
0001
1000
0100
0000
0010
0000
,
0011
0000
0100
0000
0110
0000
0100
0000
0101
0000
1000
0100
0010
0000
0100
0000
,
1100
0000
0001
0000
0101
0000
1000
0000
1100
0000
0001
0100
1000
0000
0001
0000
,
1001
0000
0010
0000
1001
0000
0100
0000
1010
0000
0001
0100
0010
0000
0100
0000
,
0101
0000
0000
1000
0001
0000
0010
0000
0100
0000
0010
0000
0001
0000
0100
0000
,
1000
1000
0100
0010
1000
0001
0010
1000
,
0001
1000
0010
0001
1000
0010
0001
1000
,
0100
0001
1000
0010
0100
0010
0001
0010
,
1000
0000
0100
0000
0010
0000
00M0
1000
0100
0000
0001
0000
0100
0000
0010
0000
,
0001
0100
1000
0100
0100
0001
0001
0010
,
0100
0M00
1000
0100
0010
0011
0000
0202
,
0000
0000
0000
0000
0000
0000
0000
0000
0000
0000
0303
0000
0100
0001
0100
0001
,
0100
0000
0010
0000
0110
0000
0010
1000
0001
0000
0001
0000
0010
0000
0100
0000
,
1000
1000
0100
0010
0010
0100
1000
0100
,
0010
0000
0100
0000
0001
0000
0100
0010
0001
0000
0010
0000
0100
0000
0010
0000
,
0001
0000
0100
0000
0010
0000
0100
0000
0001
0000
0001
0000
1000
0010
1000
0010
,
1000
0000
0010
0000
1000
0000
M000
0100
0010
0000
1000
0000
0001
0000
0010
0000
,
0100
1000
0100
1000
0100
0010
0100
0010
,
0001
000M
0001
0100
0010
2000
0000
0200
,
0000
0000
0000
0000
0000
0000
3300
0000
1100
0000
0000
0001
1000
0000
0001
1000
,
0001
0000
0000
0000
1000
0000
0000
0100
0010
0000
0001
0000
0010
0000
0100
0000
,
1000
0000
0100
0000
0010
0000
0100
0000
1000
0000
0100
0000
0010
0000
0001
1000
,
0001
0000
0000
0000
0001
0000
1000
0001
0100
0000
0100
0000
0010
0000
1000
0000
,
0010
0100
0010
0000
0000
0000
0000
0000
1000
0000
0000
0010
1000
0000
0010
1000
,
0010
0000
1000
0000
0100
0000
0010
0100
0010
0000
0100
0000
1000
0000
0100
0000
,
0010
0000
0001
0000
0010
0000
0001
0000
0100
0000
0001
0100
0010
0000
1000
0000
,
0001
0000
0100
0000
0010
0000
0100
0001
0100
0000
0010
0000
1000
0000
0100
0000
,
1000
0001
1000
0000
0000
0000
0000
0000
0100
1000
0100
0000
0010
0001
0010
0001
,
0010
0000
0100
0010
0100
0010
0001
0100
,
1000
0100
0010
1000
0100
0100
0010
0001
,
4000
0000
0000
0000
0040
0000
3000
0000
0400
0000
0030
0000
0001
0300
0100
0000
,
0040
0000
0000
0000
0004
0000
0030
0000
0040
0000
0003
0000
1000
0030
0100
1000
,
0010
0000
0100
0000
0001
0000
0100
0010
0100
0000
0001
0000
0010
0000
0100
0000
,
1000
0100
0001
0100
0010
0100
1000
0010
,
0004
0000
0000
0000
0040
0000
0003
0000
4000
0000
0030
0000
0100
3000
1000
0000
,
0040
0000
0400
0030
0004
0300
0010
0103
,
1000
0000
0100
0000
0001
0000
0100
0000
1000
0000
0010
0100
0001
0000
0010
0000
,
0100
0000
0010
0000
1000
0000
0010
0000
0001
0000
0010
0100
1000
0000
0100
0000
,
0010
0000
0001
0000
0100
0000
1000
0000
0100
0000
0001
0100
0010
0000
0100
0000
,
0001
0000
1000
0000
0100
0000
0000
0000
0010
0100
0000
0010
0100
0010
0100
0000
,
1000
0000
0100
0000
0110
0000
1000
0000
1100
0000
0010
0100
1000
0000
0001
0000
,
0101
0000
1000
0000
1010
0000
0100
0000
0101
0000
0001
1000
0100
0000
0010
0000
,
0011
0000
1000
0000
1010
0000
1000
0000
0101
0000
1000
0010
0100
0000
0001
0000
,
0101
0000
1000
0000
1100
0000
0000
0000
0010
0100
0000
1000
0001
1000
0001
1000
,
0100
0000
0000
0000
;
