#TITLE:Let's Break It!;
#SUBTITLE:;
#ARTIST:Lagoona;
#TITLETRANSLIT:;
#SUBTITLETRANSLIT:;
#ARTISTTRANSLIT:;
#GENRE:;
#CREDIT:;
#BANNER:letsbreakitbn.png;
#BACKGROUND:letsbreakitbg.png;
#LYRICSPATH:;
#CDTITLE:;
#MUSIC:letsbreakit.ogg;
#OFFSET:-0.591942;
#SAMPLESTART:98.209885;
#SAMPLELENGTH:10.000001;
#SELECTABLE:YES;
#BPMS:0.000000=149.949997
,116.000000=74.974998
,148.000000=149.949997
;
#STOPS:
;
#BGCHANGES:;
#KEYSOUNDS:;
#ATTACKS:;

//---------------dance-single - C. Picardy----------------
#NOTES:
     dance-single:
     :
     Beginner:
     1:
     0.087668,0.162443,0.090246,0.000000,0.000000,68.000000,58.000000,10.000000,0.000000,0.000000,0.000000,0.087668,0.162443,0.090246,0.000000,0.000000,68.000000,58.000000,10.000000,0.000000,0.000000,0.000000:
0000
0000
0000
0000
,
0000
0000
0000
0000
,
0000
0000
0000
0000
,
0000
0000
0000
0000
,
0000
0000
0000
0000
,
0000
0000
0000
0000
,
0000
0000
0000
0000
,
0000
0000
0000
0000
,
1000
0000
0000
0000
,
0001
0000
0000
0000
,
1000
0000
0000
0000
,
0001
0000
0000
0000
,
0100
0000
0000
0000
,
0010
0000
0000
0000
,
0100
0000
0000
0000
,
0010
0000
0000
0000
,
0010
0000
0010
0000
,
0000
0000
0000
0000
,
0100
0000
0100
0000
,
0000
0000
0000
0000
,
1000
0000
1000
0000
,
0000
0000
0000
0000
,
0001
0000
0001
0000
,
0000
0000
0000
0000
,
1000
0000
0000
0000
,
0001
0000
0000
0000
,
0010
0000
0000
0000
,
0100
0000
0000
0000
,
0000
0000
0000
0000
,
1001
0000
0000
0000
,
0000
0000
0000
0000
,
0100
0000
0000
0000
,
0010
0000
0000
0000
,
1000
0000
0001
0000
,
0100
0000
0010
0000
,
1000
0000
0001
0000
,
0010
0000
0000
0000
,
1001
0000
0000
0000
,
0100
0000
0000
0000
,
0010
0000
0000
0000
,
1000
0000
0000
0000
,
0001
0000
0000
0000
,
0010
0000
0000
0000
,
0100
0000
0000
0000
,
0010
0000
0000
0000
,
1000
0000
1000
0000
,
1000
0000
0000
0000
,
0001
0000
0001
0000
,
0001
0000
0000
0000
,
0100
0000
0100
0000
,
0100
0000
0000
0000
,
0010
0000
0010
0000
,
0010
0000
0000
0000
,
1001
0000
0000
0000
,
1001
0000
0000
0000
,
1001
0000
0000
0000
,
1001
0000
0000
0000
,
0110
0000
0000
0000
,
0110
0000
0000
0000
,
0110
0000
0000
0000
,
0110
0000
0000
0000
;

//---------------dance-single - C. Picardy----------------
#NOTES:
     dance-single:
     :
     Easy:
     4:
     0.247532,0.327594,0.117320,0.054148,0.000000,192.000000,179.000000,13.000000,6.000000,0.000000,0.000000,0.247532,0.327594,0.117320,0.054148,0.000000,192.000000,179.000000,13.000000,6.000000,0.000000,0.000000:
0000
0000
0000
0000
,
0000
0000
0000
0000
,
0000
0000
0000
0000
,
0000
0000
0000
0000
,
0010
0000
0100
0000
,
0001
0000
1000
0000
,
0100
0000
0010
0000
,
0100
0000
1000
0000
,
0001
0010
0001
0100
,
0010
1000
0100
1000
,
0001
0100
0010
0100
,
0001
0010
0100
0010
,
0001
0010
0100
1000
,
0100
0010
0001
1000
,
0010
1000
0100
0010
,
0001
1000
0010
0100
,
0001
1000
0010
0100
,
0001
1000
0100
1001
,
0010
0001
0100
0010
,
1000
0100
0010
1001
,
0010
0001
0100
1001
,
0010
1000
0100
1001
,
1000
0001
0100
1001
,
0010
1000
0100
0010
,
1001
0000
0100
0000
,
0010
0000
1000
0000
,
0100
0000
1000
0000
,
0010
0000
0100
0000
,
1001
0000
1000
0001
,
0110
0000
0000
0000
,
0000
0000
0000
0000
,
1000
1000
0001
0001
,
1000
1000
0100
0100
,
0020
0000
0000
0030
,
0002
0000
0000
0003
,
2000
0000
0000
3000
,
0200
0000
1000
1300
,
0100
0000
0010
0000
,
0001
0000
0100
0010
,
1000
0000
0100
0000
,
1000
0000
0010
0100
,
0001
0000
1000
0000
,
0100
0000
0010
0100
,
1000
0000
0001
0000
,
0100
0000
0010
1000
,
0001
0010
0001
0100
,
0010
1000
0100
1000
,
0001
0100
0010
0100
,
0001
1000
0100
0010
,
0100
0100
1000
1000
,
0001
0001
0100
0100
,
0010
1000
0001
0100
,
0001
1000
0100
0010
,
0001
0100
0010
1000
,
0100
0010
0001
1001
,
0100
0010
1000
0100
,
0010
0100
1000
1001
,
0001
0100
0010
1001
,
0010
0100
0010
1001
,
0100
0010
1000
0100
,
2002
0000
3003
0000
;

//---------------dance-single - C. Picardy----------------
#NOTES:
     dance-single:
     :
     Medium:
     6:
     0.364852,0.491391,0.261714,0.099271,0.000000,283.000000,254.000000,29.000000,11.000000,0.000000,0.000000,0.364852,0.491391,0.261714,0.099271,0.000000,283.000000,254.000000,29.000000,11.000000,0.000000,0.000000:
0000
0000
0000
0000
,
0000
0000
0000
0000
,
0000
0000
0000
0000
,
0000
0000
0000
0000
,
1000
0000
0001
0000
0000
0100
0100
0000
,
0010
0000
1000
0000
0000
0001
0001
0000
,
1000
0000
0100
0000
0000
0010
0010
0000
,
0002
0000
0000
0003
,
1000
0100
0010
0001
,
1000
0000
0100
0000
0010
0001
0010
0000
,
0100
1000
0001
0010
,
0100
0000
1000
0000
0001
0010
0001
0000
,
0100
0010
1000
0010
,
0100
0000
0010
0000
1000
0001
1000
0000
,
0100
0100
0010
0010
,
0001
0000
0001
0000
1000
0000
0010
0100
,
0001
0100
0010
0000
1000
0000
0100
0000
,
0010
0100
1000
0000
0001
0000
0100
0000
,
0010
0100
0001
0000
0010
0000
0100
0000
,
1000
0100
0010
0000
0001
0000
1000
0000
,
0100
0010
0001
0000
1000
0000
0010
0000
,
0100
0001
1000
0000
0100
0000
0010
0000
,
0100
0010
0100
0000
0010
0001
0010
0000
,
0100
1000
0100
0000
0010
0000
0001
0000
,
1001
0100
1010
0100
,
0011
1000
0011
1000
,
1010
0100
1100
0010
,
1100
0000
0001
0000
0100
0000
0000
0010
,
1000
0000
0100
0000
0000
0100
0000
0010
,
0100
0000
0001
0100
,
0010
1000
0100
0010
,
0001
0100
0010
1000
,
0001
0100
1000
0100
,
0020
2030
3002
0203
,
0302
0023
0230
2300
,
3001
0001
0010
0010
0100
0100
1000
1000
,
0010
0010
1000
1000
0001
0001
0100
0100
,
0010
1000
0001
0100
,
0010
1000
0100
0011
,
1000
0100
0010
0001
,
1000
0010
0100
1001
,
1000
0101
0010
1100
,
0001
1100
0010
0101
,
0110
0110
1010
1010
,
1001
1001
0110
0110
,
1000
0001
0010
0100
,
1000
0000
0100
0000
0010
0001
0100
0000
,
0010
1000
0001
0100
,
0010
0000
1000
0000
0100
0010
0001
0000
,
1000
0000
0010
0000
0100
0001
1000
0000
,
0010
0000
1000
0000
0100
1000
0010
0000
,
0100
0010
0100
0000
0001
1000
0001
0000
,
1000
0001
1000
0000
0100
0000
0110
0000
,
0001
0100
0010
0101
,
0010
0000
1000
0000
0100
0010
0001
0000
,
0100
1010
0100
1000
,
0010
0000
0100
0000
0010
1000
0100
0000
,
0010
0000
0011
0000
1000
0100
0010
0000
,
0001
0000
0110
0000
1000
0010
0100
0000
,
0001
0100
0010
0000
1010
0000
0110
0000
,
0202
0000
0303
0000
;

//---------------dance-single - C. Picardy----------------
#NOTES:
     dance-single:
     :
     Hard:
     7:
     0.446074,0.491391,0.153419,0.126345,0.013537,346.000000,329.000000,17.000000,14.000000,0.000000,0.000000,0.446074,0.491391,0.153419,0.126345,0.013537,346.000000,329.000000,17.000000,14.000000,0.000000,0.000000:
0000
0000
0000
0000
,
0000
0000
0000
0000
,
1000
0100
1000
0100
,
0010
0001
0010
0001
,
1000
0000
0100
0000
0010
0001
0010
0000
,
0100
0000
0010
0000
0001
0010
0001
0000
,
0100
0010
1000
0100
,
2002
0000
0000
3003
,
0001
0100
0010
0000
0010
0100
0001
0000
,
0001
0100
0010
0000
0010
1000
0100
0000
,
0100
1000
0010
0000
0010
1000
0100
0000
,
0100
1000
0001
0000
0001
1000
0100
0000
,
0100
0010
0001
0000
0001
0010
0100
0000
,
0100
1000
0010
0000
0010
0100
0001
0000
,
0001
0100
1000
0000
1000
0100
0001
0000
,
0001
0100
1000
0000
0100
0000
0010
0000
,
1000
0100
0010
0000
1001
0000
0100
0000
,
0001
0000
0010
0000
0100
1000
0010
1000
,
0100
0010
0001
0000
0101
0000
1000
0000
,
0100
0000
1000
0000
0010
1000
0100
1000
,
0010
0100
1000
0000
0110
0000
0001
0000
,
1000
0000
0100
0000
0010
0001
0010
0100
,
1000
0100
0010
0000
0001
0100
0010
0000
,
1000
0000
0000
0000
0001
0000
0000
0000
1000
0000
0000
0100
1000
0000
0010
0000
,
0100
0001
1000
0110
,
0001
1000
0100
0101
,
0010
0100
0010
1100
,
0010
0000
0101
0000
2000
0000
0000
0001
,
3001
0100
0000
0010
0000
1000
0000
0001
,
1001
0000
2000
3100
,
0020
0130
2000
3010
,
0200
0301
2000
3100
,
0020
0031
0200
0310
,
1000
0100
1000
0001
1000
0100
1000
0001
,
0010
0100
0010
0001
0010
0100
0010
0001
,
0100
0001
0010
0001
0100
0001
0010
0001
,
1000
0100
1000
0010
2200
0000
0000
3300
,
0100
0010
0001
0000
0001
0100
0010
0000
,
0010
1000
0100
0000
0100
1000
0010
0000
,
1000
0001
0100
0000
0100
0001
0010
0000
,
0010
0001
1000
0000
1000
0100
0010
0000
,
0100
0010
0001
0000
0001
0100
1000
0000
,
1000
0100
0001
0000
0001
0010
1000
0000
,
1000
0010
0001
0000
0001
0100
0010
0000
,
1000
0000
0000
0000
0001
0000
0000
0000
0100
0000
0000
0010
0100
0000
0001
0000
,
1000
0100
0010
0100
1000
0000
0110
0000
,
0001
0010
0100
0010
0001
0000
0110
0000
,
1000
0001
0100
0010
0100
0000
1001
0000
,
0010
0001
0100
0010
0100
0000
1010
0000
,
0001
0100
1000
0100
0001
0000
0110
0000
,
1000
0010
0001
0010
1000
0000
0101
0000
,
1000
0001
1000
0001
0100
0010
0100
0010
,
1000
0000
0100
0000
0010
0000
0001
0000
1000
0000
0000
0010
0100
0000
0001
0000
,
1000
0010
0100
0001
1000
0100
0010
0000
,
0001
0010
0100
1000
0100
0010
0001
0000
,
1000
0001
0100
0010
1000
0100
0010
0000
,
0100
1000
0010
0100
0001
0010
0100
0000
,
1000
0100
0001
0100
1000
0100
0001
0100
,
1000
0100
0010
0100
1000
0100
0010
0100
,
1000
0001
0100
0010
,
2002
0000
3003
0000
;

//---------------dance-single - C. Picardy----------------
#NOTES:
     dance-single:
     :
     Challenge:
     9:
     0.639459,0.900883,0.216591,0.135369,0.383546,496.000000,472.000000,24.000000,15.000000,0.000000,4.000000,0.639459,0.900883,0.216591,0.135369,0.383546,496.000000,472.000000,24.000000,15.000000,0.000000,4.000000:
0000
0000
0000
0000
,
0000
0000
0000
0000
,
1000
0100
0001
0000
1000
0010
0001
0000
,
1000
0100
0001
0000
1000
0010
0001
0000
,
0001
0100
1000
0000
0001
0010
1000
0000
,
0001
0100
1000
0000
0001
0010
1000
0000
,
1000
0100
0010
0000
0001
0100
0010
0000
,
4004
0000
0000
3003
,
1000
0100
0001
0100
1000
0100
0001
0100
,
1000
0010
0001
0010
1000
0010
0001
0010
,
0100
1000
0100
0010
0100
1000
0100
0010
,
0001
0010
0100
0010
0001
0010
0100
0010
,
2000
0100
3100
0020
0001
0031
0100
0020
,
1000
2030
0001
3001
0100
0010
1000
0200
,
0001
0302
0100
0103
1000
0200
0010
0310
,
0001
0000
0000
0000
0001
0000
0000
0000
0100
0000
0000
0000
0001
0000
0000
0000
0020
0000
0000
0000
0000
0000
0001
0030
1000
0000
0000
0000
0100
0000
0000
0000
,
0010
0100
0010
0000
0100
0000
0000
0000
0010
0001
0010
0000
0001
0000
0000
0000
,
1000
0100
1000
0000
0100
0000
0000
0000
1000
0010
1000
0000
0010
0000
0000
0000
,
0100
0010
0100
0000
0110
0000
0000
0000
0001
0100
0001
0000
0101
0000
0000
0000
,
1000
0010
1000
0000
1010
0000
0000
0000
0100
0010
0100
0000
0110
0000
0000
0000
,
0001
0100
0001
0000
1000
0000
0010
0000
1000
0100
1000
0000
0001
0000
0010
0000
,
0100
1000
0100
0000
0010
0000
0001
0000
1000
0100
1000
0000
0001
0000
0010
0000
,
0100
0010
0001
0000
1000
0000
0100
0000
0010
0001
1000
0000
0010
0000
0100
0000
,
0001
1000
0100
0000
0010
0000
0000
0000
0001
1000
0000
0010
0100
0000
0001
0000
,
1000
0000
0110
0000
0001
1000
1001
0000
,
0100
0000
1010
0000
0100
1000
1100
0000
,
0010
0000
0101
0000
0100
0010
0110
0000
,
1000
0000
0101
0000
1000
2000
0000
3001
,
0100
0000
0010
0000
0000
0000
0101
0000
0000
0000
0010
0000
0000
0000
1000
0001
,
0100
0000
0000
0000
0000
0000
0000
0000
0100
0001
0100
0001
0100
0010
0100
0010
,
0100
1000
0100
1000
0100
0010
0100
0010
1000
0100
1000
0100
0001
0100
0001
0100
,
0010
0100
0010
0100
0010
0001
0010
0001
0100
1000
0100
1000
0001
0010
0001
0010
,
0100
0010
0100
0010
1000
0100
1000
0100
0001
0100
0001
0100
1000
0010
1000
0010
,
0200
0000
0002
0000
1000
0000
0010
0303
,
2000
0000
0200
0000
0001
0000
0010
3300
,
0100
0010
0001
0000
0001
0010
0100
0000
0100
0010
0001
0000
0001
0010
0100
0000
,
1000
0100
0010
0000
0010
0100
1000
0000
1000
0100
0010
0000
0010
0100
1000
0000
,
0001
0100
0010
0100
1000
0100
0010
0100
,
1000
0100
0010
0100
0001
0010
0100
0000
,
0001
0100
0010
0100
0001
0100
0010
0100
,
1000
0100
0010
0100
1000
0100
0001
0000
,
0100
0010
1000
0010
0100
0010
0001
1000
,
0010
0100
0001
0010
0100
1000
0010
0000
,
0100
0001
0010
0001
0100
0010
1000
0100
,
0010
0000
0000
0000
0011
0000
0000
0000
1100
0000
0000
0001
0010
0000
0100
0000
,
1000
0001
0100
0000
0010
0000
0000
0000
1000
0010
0100
0000
0010
0000
0000
0000
,
1000
0001
0100
0000
0001
0000
0000
0000
0010
0001
1000
0000
0100
0000
0000
0000
,
0010
0001
0100
0000
0010
0000
0000
0000
1000
0100
0010
0000
0100
0000
0000
0000
,
0010
0100
1000
0000
0010
0000
0000
0000
0100
0001
0010
0000
0001
0000
0000
0000
,
0010
0100
0010
0000
0110
0000
0000
0000
0001
0010
0001
0000
0011
0000
0000
0000
,
1000
0001
1000
0000
1001
0000
0000
0000
1000
0010
1000
0000
1010
0000
0000
0000
,
0001
1000
0100
0000
1100
0000
0000
0000
1000
0001
0100
0000
0101
0000
0000
0000
,
0001
1000
0010
0000
1010
0000
0000
0000
0110
0000
0000
0001
1000
0000
0010
0000
,
0100
0010
0100
0000
0001
0000
1000
0000
0100
1000
0100
0000
0010
0000
0001
0000
,
0100
0001
0100
0000
0010
0000
1000
0000
0001
1000
0001
0000
1000
0000
0100
0000
,
0010
0001
0010
0000
0100
0000
0010
0000
0100
1000
0100
0000
0010
0000
0001
0000
,
0100
0001
0100
0000
0001
0000
1000
0000
0010
1000
0010
0000
0100
0000
0001
0000
,
1000
0010
0100
0000
0001
0000
0010
0000
0100
0010
0001
0000
0010
0000
0100
0000
,
1000
0100
0010
0000
0001
0000
0100
0000
0010
1000
0001
0000
0010
0000
0100
0000
,
0010
0001
0100
0000
0010
0000
0000
0000
1000
0000
0000
0000
0010
0000
0100
0000
,
2002
0000
3003
0000
;
