#TITLE:Krystal;
#SUBTITLE:;
#ARTIST:Sanxion7;
#TITLETRANSLIT:;
#SUBTITLETRANSLIT:;
#ARTISTTRANSLIT:;
#GENRE:;
#CREDIT:;
#BANNER:krystalbn.png;
#BACKGROUND:krystalbg.png;
#LYRICSPATH:;
#CDTITLE:;
#MUSIC:krystal.ogg;
#OFFSET:-0.591208;
#SAMPLESTART:96.589981;
#SAMPLELENGTH:12.000000;
#SELECTABLE:YES;
#BPMS:0.000000=140.000000
;
#STOPS:
;
#BGCHANGES:;
#KEYSOUNDS:;
#ATTACKS:;

//---------------dance-single - C. Picardy----------------
#NOTES:
     dance-single:
     :
     Beginner:
     1:
     0.082177,0.172572,0.072918,0.000000,0.000000,71.000000,62.000000,9.000000,0.000000,0.000000,0.000000,0.082177,0.172572,0.072918,0.000000,0.000000,71.000000,62.000000,9.000000,0.000000,0.000000,0.000000:
0000
0000
0000
0000
,
0000
0000
0000
0000
,
0000
0000
0000
0000
,
0000
0000
0000
0000
,
0000
0000
0000
0000
,
0000
0000
0000
0000
,
0000
0000
0000
0000
,
0000
0000
0000
0000
,
1000
0000
0000
0000
,
1000
0000
0000
0000
,
0001
0000
0000
0000
,
0001
0000
0000
0000
,
0010
0000
0000
0000
,
0010
0000
0000
0000
,
0100
0000
0000
0000
,
0100
0000
0000
0000
,
1000
0000
0000
0000
,
0001
0000
0000
0000
,
0010
0000
0000
0000
,
0100
0000
0000
0000
,
1000
0000
1000
0000
,
0001
0000
0001
0000
,
0100
0000
0100
0000
,
0010
0000
0000
0000
,
1001
0000
0000
0000
,
1001
0000
0000
0000
,
1001
0000
0000
0000
,
1001
0000
0000
0000
,
0010
0000
0000
0000
,
0100
0000
0000
0000
,
0001
0000
0000
0000
,
1000
0000
0000
0000
,
0110
0000
0000
0000
,
1000
0000
0000
0000
,
0001
0000
0000
0000
,
0100
0000
0000
0000
,
0010
0000
0000
0000
,
0100
0000
0000
0000
,
0010
0000
0000
0000
,
1000
0000
0000
0000
,
1001
0000
0000
0000
,
0000
0000
0000
0000
,
0000
0000
0000
0000
,
0000
0000
0000
0000
,
0010
0000
0000
0000
,
0100
0000
0000
0000
,
0001
0000
0000
0000
,
0000
0000
0000
0000
,
1001
0000
0000
0000
,
0100
0000
0000
0000
,
0010
0000
0000
0000
,
1000
0000
0000
0000
,
0001
0000
0000
0000
,
0000
0000
0000
0000
,
0010
0000
0000
0000
,
0100
0000
0000
0000
,
1001
0000
0000
0000
,
0100
0000
0000
0000
,
0010
0000
0000
0000
,
1000
0000
0000
0000
,
0001
0000
0000
0000
,
1000
0000
0000
0000
,
0100
0000
0000
0000
,
0010
0000
0000
0000
,
0110
0000
0000
0000
,
0001
0000
0000
0000
,
1000
0000
0000
0000
,
0000
0100
0000
0000
,
0010
0000
0000
0000
,
0100
0000
0000
0000
,
0001
0000
0000
0000
,
1000
0000
0000
0000
;

//---------------dance-single - C. Picardy----------------
#NOTES:
     dance-single:
     :
     Easy:
     3:
     0.238429,0.289139,0.113427,0.186345,0.000000,206.000000,192.000000,14.000000,23.000000,0.000000,0.000000,0.238429,0.289139,0.113427,0.186345,0.000000,206.000000,192.000000,14.000000,23.000000,0.000000,0.000000:
0000
0000
0000
0000
,
0000
0000
0000
0000
,
0000
0000
0000
0000
,
0000
0000
0000
0000
,
1000
0000
0100
0100
,
0100
0000
0010
0000
,
0001
0000
1000
1000
,
2000
0000
3000
0000
,
0001
0100
0010
0000
,
1000
0100
0010
0000
,
0001
0010
0100
0000
,
0010
0100
1000
0000
,
0001
0100
1000
0000
,
1000
0100
0001
0000
,
0001
0010
1000
0000
,
1000
0010
0001
0000
,
1000
0000
0110
0000
,
0001
0000
1100
0000
,
0010
0000
0101
0000
,
1000
0000
0011
0000
,
1100
0000
0110
0000
,
0011
0000
1001
0000
,
1001
0000
0110
0000
,
1001
0000
0000
0000
,
1000
0001
1000
0001
,
0100
0001
0100
0001
,
0100
0010
0100
0010
,
1000
0010
1000
0010
,
1000
0100
1000
0100
,
0010
0100
0010
0100
,
0010
0001
0010
0001
,
1000
0001
1000
0001
,
1000
0100
0001
0100
,
1000
0010
0001
0010
,
1000
0001
0100
1000
,
0100
0001
0100
1000
,
0100
0010
0001
0010
,
1000
0010
0001
0010
,
1000
0100
0010
0001
,
1000
0100
0010
0000
,
1001
0000
0100
0000
,
1000
0000
0010
0000
,
0100
0000
0001
0000
,
1000
0000
0100
0000
,
0020
0030
0002
0003
,
2000
3000
0200
0300
,
0020
0030
0002
0003
,
0020
0030
0100
0000
,
1001
0000
0200
0000
,
0320
0000
2030
0000
,
3002
0000
0023
0000
,
0230
0000
0320
0000
,
0032
0000
0203
0000
,
0302
0000
2003
0000
,
3020
0000
2030
0000
,
3200
0000
0300
0000
,
1000
0100
0010
0001
,
1000
0100
0010
0001
,
1000
0010
0100
0001
,
1000
0010
0100
0001
,
0100
0010
1000
0001
,
0100
0010
1000
0001
,
0010
0100
1000
0001
,
0010
0100
1000
0001
,
0110
0000
1000
0000
,
0001
0000
0100
0000
,
0010
0000
1000
0001
,
0100
0010
1000
0000
,
0100
0000
0010
0000
,
0001
0000
1000
0000
,
0010
0000
0001
1000
,
0002
0000
0000
0003
0000
0000
0000
0000
;

//---------------dance-single - C. Picardy----------------
#NOTES:
     dance-single:
     :
     Medium:
     5:
     0.353014,0.404794,0.186345,0.202549,0.000000,305.000000,282.000000,23.000000,25.000000,0.000000,0.000000,0.353014,0.404794,0.186345,0.202549,0.000000,305.000000,282.000000,23.000000,25.000000,0.000000,0.000000:
0000
0000
0000
0000
,
0000
0000
0000
0000
,
0000
0000
0000
0000
,
0000
0000
0000
0000
,
1000
0000
0001
0001
,
0100
0000
0010
0000
,
1000
0000
0010
0010
,
0200
0000
0000
0310
,
1000
0001
0100
1001
,
0010
1000
0001
0110
,
0100
1000
0010
0101
,
0010
0001
0100
1100
,
0010
0110
0010
1010
,
1000
1001
0001
0101
,
0010
1100
0010
0101
,
1000
0101
0001
1010
,
1001
0000
0100
0010
0000
0000
0100
0000
,
0001
0000
1000
0001
0000
0000
1000
0000
,
0100
0000
0010
0100
0000
0000
0010
0000
,
0001
0000
1000
0001
0000
0000
1000
0000
,
0010
0000
0100
0010
0000
0010
0100
0000
,
0001
0000
1000
0001
0000
0001
1000
0000
,
0100
0000
1000
0100
0000
0100
1000
0000
,
2002
0000
0000
3003
,
0100
0000
0010
0100
0010
0000
1000
0000
,
0100
0000
0010
0100
0010
0000
0001
0000
,
1000
0000
0001
1000
0001
0000
0010
0000
,
0100
0000
1000
0001
1000
0000
0100
0000
,
0010
0000
0001
0010
0001
0000
0100
0000
,
0010
0000
1000
0010
1000
0000
0100
0000
,
1000
0000
0001
0100
0001
0000
1000
0000
,
0100
0000
0010
0100
0010
0000
0001
0000
,
1001
0000
1000
0100
0010
0000
0001
0000
,
0100
0000
0001
0100
0010
0000
1000
0000
,
0100
0000
0010
0100
1000
0000
0001
0000
,
0100
0000
0001
0010
0100
0000
1000
0000
,
0010
0000
0100
0001
1000
0000
0100
0000
,
0010
0000
0100
1000
0001
0000
0100
0000
,
0010
0000
1000
0100
0001
0000
0100
0000
,
1000
0000
0010
0000
0100
0001
1000
0000
,
0110
0000
0100
0100
0000
0000
0010
0010
,
0000
0000
1000
1000
0000
0000
0001
0001
,
0000
0000
0100
0100
0000
0000
0010
0010
,
0000
0000
1000
1000
0000
0000
0010
0010
,
0000
0000
0100
0100
0000
0000
0001
0001
,
0000
0000
1000
1000
0000
0000
0100
0100
,
0000
0000
0010
0010
0000
0000
0001
0001
,
0000
0000
1000
1000
0000
0000
0000
0000
,
1001
0000
0000
0200
0000
0000
0310
0000
,
2000
0000
0000
3002
0000
0000
0203
0000
,
0320
0000
0000
0230
0000
0000
0302
0000
,
2003
3200
0320
0030
,
0002
0000
0000
2003
0000
0000
3200
0000
,
0000
0000
0000
0320
0000
0000
0032
0000
,
0203
0000
0000
0320
0000
0000
2030
0000
,
3002
0000
0000
2003
0000
0000
3010
0000
,
0100
0000
0001
0000
0100
0010
0100
0000
,
0010
0000
1000
0000
0100
0010
0100
0000
,
1000
0000
0001
0000
1000
0001
1000
0000
,
0100
0000
0010
0000
0001
1000
0001
0000
,
1000
0000
0100
0000
0010
0001
0010
0000
,
0100
0000
1000
0000
0001
0010
0001
0000
,
1000
0000
0010
0000
1000
0010
1000
0000
,
0001
1000
0100
0010
,
1001
0000
0100
0000
0010
1000
0100
0000
,
0011
0000
1000
0000
0001
0100
0010
0000
,
1010
0000
0100
0000
0010
1000
0001
0000
,
0110
0000
1000
0000
0100
0010
0001
0000
,
1100
0000
0001
0000
0010
0100
1000
0000
,
0101
0000
1000
0000
0001
0100
0010
0000
,
0200
0000
0000
0310
0000
0000
1000
0000
,
0020
0000
0000
0130
0000
0000
0000
0000
;

//---------------dance-single - C. Picardy----------------
#NOTES:
     dance-single:
     :
     Challenge:
     10:
     0.722231,0.812424,0.048612,0.307874,0.806145,624.000000,618.000000,6.000000,38.000000,4.000000,0.000000,0.722231,0.812424,0.048612,0.307874,0.806145,624.000000,618.000000,6.000000,38.000000,4.000000,0.000000:
0000
0000
0000
0000
,
0000
0000
0000
0000
,
0000
0000
0000
0000
,
0000
0000
0000
0000
,
1000
0001
0000
0000
0000
0000
0000
0000
0100
0000
0100
0010
0000
0010
1000
0000
,
0000
0000
0000
0000
0000
0000
0001
0000
1000
0000
0000
0100
1000
0000
0000
0000
,
0001
0100
0000
0000
0000
0000
0000
0000
0010
0000
0010
1000
0000
0001
1000
0000
,
0200
0000
0000
0000
0000
0000
0000
0000
0000
0000
0000
0000
0310
0100
0010
0100
,
0010
0000
0100
0000
1000
0000
0001
0010
0001
0010
0001
0000
1000
0000
0001
0000
,
0010
0000
0001
0000
0100
0000
0010
1000
0010
1000
0010
0000
0100
0000
0001
0000
,
0010
0000
0001
0000
1000
0000
0100
1000
0100
1000
0100
0000
0010
0000
0100
0000
,
1000
0000
0001
0000
0100
0000
0010
0100
0010
0100
0010
0000
1000
0000
0100
0000
,
0001
0000
0100
0000
1000
0000
0001
0010
0100
0010
0001
0000
1000
0000
0010
0000
,
0001
0000
0010
0000
1000
0000
0001
0100
0010
0100
0001
0000
1000
0000
0100
0000
,
0010
0000
0001
0000
1000
0000
0001
0010
0100
1000
0001
0000
0100
0000
0010
0000
,
1000
0000
0100
0000
0010
0000
0001
0100
0010
1000
0001
0000
1000
0000
0100
0000
,
1001
0000
1000
0000
0100
0000
0100
0010
0000
0000
0001
0000
0010
0001
0010
0000
,
0001
0100
0001
0100
0001
0000
0100
0010
0000
0000
1000
0000
0010
1000
0010
0000
,
1000
0100
1000
0100
1000
0000
0001
0010
0000
0000
0100
0000
0010
0001
0010
0000
,
0100
1000
0100
1000
0100
0000
0010
0001
0000
0000
1000
0000
0100
1000
0100
0000
,
1000
0001
0100
0010
1000
0000
0001
0100
0000
0000
0010
0000
0010
1000
0001
0000
,
0010
0100
1000
0001
0100
0000
0010
1000
0000
0000
0001
0000
0001
1000
0100
0000
,
0010
0001
0010
0100
1000
0000
0001
1000
0000
0000
0100
0000
0100
1000
0001
0000
,
0401
0000
0000
0000
00MM
0000
0000
0340
0000
0000
M00M
0000
0000
1000
0130
0000
,
1000
0001
1000
0001
1000
0000
0100
0010
0000
0010
0100
0000
1000
0001
1000
0000
,
0001
0100
0001
0100
0001
0000
1000
0010
0000
0010
1000
0000
0010
0100
0010
0000
,
1000
0010
1000
0010
1000
0000
0001
0010
0000
0010
0001
0000
1000
0100
1000
0000
,
0010
0100
0010
0100
0010
0000
1000
0001
0000
0001
1000
0000
0100
0010
0100
0000
,
1000
0001
0100
0010
1000
0000
0001
0100
0000
0100
0010
0000
1000
0100
0010
0000
,
0001
0010
0100
0010
0001
0000
1000
0100
0000
0100
0010
0000
0001
0100
0010
0000
,
0100
0010
1000
0001
0100
0000
0010
1000
0000
1000
0001
0000
0010
0100
1000
0000
,
0001
0010
0100
1000
0001
0000
0010
0100
0000
0100
1000
0000
0001
1000
0100
0000
,
0010
0001
0010
0001
0010
0001
1000
0100
0000
0100
0010
0000
0001
0010
0001
0000
,
1000
0010
1000
0010
1000
0010
0100
0001
0000
0001
1000
0000
0001
1000
0001
0000
,
0100
0010
0100
0010
0100
0010
1000
0010
0000
0010
0100
0000
0010
1000
0010
0000
,
0100
0001
0100
0001
0100
0001
1000
0100
0000
0100
0010
0000
0100
0010
0100
0000
,
1000
0100
0010
0100
1000
0100
0010
0001
0000
0100
0010
0000
1000
0001
0100
0000
,
0001
0100
0010
0100
0001
0100
0010
1000
0000
0001
0100
0000
0010
1000
0001
0000
,
0010
0100
1000
0100
0010
0100
1000
0001
0000
0010
0100
0000
1000
0001
0100
0000
,
0001
0010
0100
1000
0100
0010
0001
1000
0000
0001
1000
0000
0100
0010
0100
0000
,
0110
0000
0000
0000
1000
0000
0100
0010
0000
0000
0000
0000
0001
0100
0010
0000
,
0000
0000
0000
0000
1000
0000
0001
0100
0000
0000
0000
0000
0010
1000
0001
0000
,
0000
0000
0000
0000
0010
0000
0001
0100
0000
0000
0000
0000
0010
1000
0100
0000
,
0000
0000
0000
0000
0010
0000
0100
1000
0000
0000
0000
0000
0001
0010
0001
0010
,
0002
0000
0000
0000
1003
0000
1000
0200
0000
0000
0000
0000
0310
0001
0010
0000
,
0200
0000
0000
0000
1300
0000
1000
0020
0000
0000
0000
0000
0130
0001
0100
0000
,
0002
0000
0000
0000
0013
0000
0010
0200
0000
0000
0000
0000
1300
0100
1000
0000
,
0002
0000
0000
0000
1003
0000
1000
0002
0000
0000
0000
0000
0103
0010
0100
0000
,
2001
0000
0000
0000
0000
0000
0200
0000
0000
0000
0000
3000
0002
0000
0000
0300
,
2000
0000
0000
0000
0000
0003
0020
0000
0000
0000
3000
0000
0002
0000
0000
0030
,
0200
0000
0000
0000
0000
0003
2000
0000
0000
0000
0000
0300
0002
0000
0000
3000
,
0020
0000
0000
0003
2000
0000
0000
0030
0200
0000
0000
0000
3300
0000
0010
0100
,
2000
0000
0000
0000
0000
0000
0002
0000
0000
0000
0000
3000
0200
0000
0000
0000
,
0000
0000
0000
0000
0000
0003
2000
0000
0000
0000
0000
0300
0002
0000
0000
3000
,
0020
0000
0000
0000
0000
0003
0200
0000
0000
0000
0000
0030
0002
0000
0000
0300
,
0020
0000
0000
0000
0000
0003
0200
0000
0000
0000
0000
0030
0002
0000
0000
0303
,
0100
0000
1000
0100
1000
0000
0001
0000
0100
0000
0010
1000
0010
0000
1000
0000
,
0001
0000
0100
0001
0100
0000
0010
0000
1000
0000
0100
1000
0100
0000
0010
0000
,
0001
0000
1000
0010
1000
0000
0001
0000
0010
0000
0001
1000
0001
0000
0100
0000
,
0010
0000
1000
0001
1000
0000
0100
0000
0010
0000
0001
0000
0100
0010
0100
0010
,
0100
0000
0001
0100
0010
0000
1000
0000
0001
0000
0010
0100
1000
0000
0001
0000
,
1000
0000
0100
0010
0001
0000
1000
0000
0010
0000
0100
0001
1000
0000
0010
0000
,
0100
0000
0001
0100
0010
0000
1000
0000
0100
0000
0010
0001
0100
0000
0010
0000
,
1000
0000
0001
1000
0100
0000
0010
0000
0001
0000
1000
0010
0100
0000
0001
0000
,
1001
0000
1000
0010
1000
0000
0001
0010
0001
0000
0100
0010
0100
0000
0001
1000
,
0001
0000
1000
0100
1000
0000
0001
0100
0001
0000
0010
0001
0010
0000
0100
1000
,
0100
0000
1000
0010
1000
0000
0010
0100
0010
0000
1000
0100
1000
0000
0100
0010
,
0100
0000
0010
0001
0010
0000
0001
0100
0001
0000
1000
0010
1000
0000
0001
0100
,
0001
0000
1000
0100
0010
0000
0001
0010
0100
0000
1000
0001
0100
0000
0010
1000
,
0001
0000
0100
0010
1000
0000
0001
0100
0010
0000
1000
0100
0010
0000
0100
0000
,
2200
0000
0000
0000
0000
0000
0000
0000
0000
0000
0000
0000
0000
0000
0000
0000
0300
0000
0200
0000
0000
0000
0000
0000
0000
0000
0000
0000
0000
0000
3000
0000
0000
0000
0000
0000
0002
0000
0000
0000
0000
0000
0000
0000
0000
0300
0000
0000
,
0200
0000
0003
0020
0000
0330
0000
0000
;

//---------------dance-single - C. Picardy----------------
#NOTES:
     dance-single:
     :
     Hard:
     7:
     0.412042,0.522272,0.129631,0.380792,0.182294,356.000000,340.000000,16.000000,47.000000,0.000000,0.000000,0.412042,0.522272,0.129631,0.380792,0.182294,356.000000,340.000000,16.000000,47.000000,0.000000,0.000000:
0000
0000
0000
0000
,
0000
0000
0000
0000
,
0000
0000
0000
0000
,
0000
0000
0000
0000
,
0001
0000
0000
0000
0000
0000
0000
0000
0100
0000
0000
0100
0000
0000
0100
0000
,
0000
0000
0010
1000
,
0001
0000
0000
0000
0000
0000
0000
0000
0010
0000
0000
0010
0000
0000
0010
0000
,
0020
0000
0000
0000
0000
0000
0100
0100
,
0130
0000
1000
0000
0001
0010
0001
0000
,
1000
0000
0001
0000
1000
0010
1000
0000
,
0001
0000
0100
0000
0010
1000
0010
0000
,
1000
0000
0001
0000
1000
0100
1000
0000
,
0001
0000
0010
0000
0100
1000
0001
0000
,
0010
0000
0100
0000
0010
0100
1000
0000
,
0100
0000
0010
0000
0001
0100
0010
0000
,
1000
0000
0001
0000
0100
0010
0100
0000
,
1001
0000
0000
0000
0100
0000
0100
0010
0000
0000
1000
0000
0100
0000
0000
0000
,
0010
0000
0000
0000
0001
0000
0001
0010
0000
0000
0100
0000
0010
0000
0000
0000
,
0100
0000
0000
0000
1000
0000
1000
0001
0000
0000
0100
0000
0010
0000
0000
0000
,
1000
0000
0000
0000
0001
0000
0001
0100
0000
0000
0010
0000
1000
0000
0000
0000
,
0100
0000
0000
0000
0010
0000
0001
1000
0000
0000
0100
0000
1000
0000
0000
0000
,
0001
0000
0000
0000
0100
0000
0010
1000
0000
0000
0001
0000
1000
0000
0000
0000
,
0010
0000
0000
0000
0100
0000
0001
0010
0000
0000
0001
0000
0100
0000
0000
0000
,
0020
0000
0000
0030
,
1001
0000
0000
0000
1000
0000
0100
1000
0000
0000
0001
0000
0100
0000
0001
0000
,
0100
0000
0010
0000
0100
0000
0001
0100
0000
0000
0010
0000
1000
0000
0010
0000
,
1000
0000
0100
0000
1000
0000
0001
1000
0000
0000
0001
0000
0100
0000
0010
0000
,
0100
0000
0010
0000
1000
0000
0010
1000
0000
0000
0100
0000
1000
0000
0100
0000
,
1000
0000
0001
0000
0010
0000
0100
1000
0000
0000
0100
0000
0010
0000
0001
0000
,
1000
0000
0100
0000
0010
0000
0001
1000
0000
0000
0010
0000
0100
0000
0001
0000
,
1000
0000
0010
0000
0100
0000
0001
1000
0000
0000
0100
0000
0010
0000
0001
0000
,
0100
0000
0010
0000
1000
0000
0001
0100
0000
0000
0010
0000
1000
0000
0100
0000
,
1100
0000
0000
0000
0100
0000
0100
0010
0000
0000
0000
0000
0001
0010
0001
0000
,
0100
0000
0000
0000
0010
0000
0010
1000
0000
0000
0000
0000
0001
1000
0001
0000
,
0010
0000
0000
0000
0100
0000
0100
1000
0000
0000
0000
0000
0010
1000
0010
0000
,
1000
0000
0000
0000
0001
0000
0001
0100
0000
0000
0000
0000
0010
0100
0010
0000
,
1000
0000
0000
0000
0001
0000
1000
0010
0000
0000
0000
0000
0100
0001
1000
0000
,
0100
0000
0000
0000
0010
0000
0001
1000
0000
0000
0000
0000
0001
1000
0100
0000
,
0010
0000
0000
0000
0001
0000
0100
0010
0000
0000
0000
0000
1000
0010
0100
0000
,
0001
0000
0000
0000
1000
0000
0100
0010
0000
0000
0000
0000
0001
0010
0100
0000
,
0110
0000
0000
0000
0001
0000
0000
0001
0000
0000
0000
0000
1000
0000
0000
0000
,
0010
0000
0000
0000
0100
0000
0000
0100
0000
0000
0000
0000
0001
0000
0000
0000
,
1000
0000
0000
0000
0010
0000
0000
0010
0000
0000
0000
0000
0100
0000
0000
0000
,
0001
0000
0000
0000
1000
0000
0000
1000
0000
0000
0000
0000
0010
0000
0000
0000
,
0100
0000
0000
0000
0001
0000
0000
1000
0000
0000
0000
0000
0100
0000
0000
0000
,
0010
0000
0000
0000
0001
0000
0000
1000
0000
0000
0000
0000
0100
0000
0000
0000
,
0010
0000
0000
0000
0100
0000
0000
1000
0000
0000
0000
0000
0001
0000
0000
0000
,
0100
0000
0000
0000
0010
0000
0000
1000
0000
0000
0000
0000
0001
0000
0000
0000
,
2001
0000
0000
3200
0000
0000
0320
0000
,
0032
0000
0000
0023
0000
0000
0230
0000
,
2300
0000
0000
3020
0000
0000
0230
0000
,
0302
0000
0000
0000
0023
0000
0000
0000
0230
0000
0000
0000
0300
0000
0010
0100
,
0020
0000
0000
0032
0000
0000
0203
0000
,
1000
0000
0000
0320
0000
0000
2030
0000
,
3200
0000
0000
2300
0000
0000
3002
0000
,
0023
0000
0000
0032
0000
0000
1003
0000
,
0010
0101
1000
0101
,
0010
1100
0001
1100
,
0010
1100
0010
0101
,
1000
0000
0000
0000
0110
0000
0000
0000
0001
0000
0000
0000
1000
0100
1000
0100
,
1000
0000
0101
0000
0010
0100
1000
0000
,
0002
0023
0230
2300
,
3010
0000
1001
0000
0100
0010
0000
1000
,
0002
0010
0013
0100
,
1001
0000
0100
0200
0000
0000
0310
0000
,
2000
0000
3001
0002
0000
0000
1003
0000
,
2000
0000
3100
0200
0000
0000
0320
0000
,
0230
0000
0000
0000
2300
0000
0000
0000
3002
0000
0000
0000
0003
0000
0010
0100
,
0020
0000
0031
0002
0000
0000
0203
0000
,
0010
0000
0301
0002
0000
0000
0013
0000
,
1002
0000
0000
0203
0000
0000
0320
0000
,
2030
0000
0000
0002
0000
3003
0000
0000
;
