#VERSION:0.83;
#TITLE:Kingdom of Eternity;
#SUBTITLE:;
#ARTIST:Hit'n'Hide;
#TITLETRANSLIT:;
#SUBTITLETRANSLIT:;
#ARTISTTRANSLIT:;
#GENRE:;
#ORIGIN:;
#CREDIT:;
#BANNER:kingdomofeternitybn.jpg;
#BACKGROUND:kingdomofeternitybg.jpg;
#PREVIEWVID:;
#JACKET:;
#CDIMAGE:;
#DISCIMAGE:;
#LYRICSPATH:;
#CDTITLE:;
#MUSIC:kingdomofeternity.ogg;
#OFFSET:-0.882734;
#SAMPLESTART:75.190094;
#SAMPLELENGTH:12.000000;
#SELECTABLE:YES;
#BPMS:0.000=137.990;
#STOPS:;
#DELAYS:;
#WARPS:;
#TIMESIGNATURES:0.000=4=4;
#TICKCOUNTS:0.000=4;
#COMBOS:0.000=1;
#SPEEDS:0.000=1.000=0.000=0;
#SCROLLS:0.000=1.000;
#FAKES:;
#LABELS:0.000=Song Start;
#BGCHANGES:;
#KEYSOUNDS:;
#ATTACKS:
;

//---------------dance-single - C. Picardy----------------
#NOTEDATA:;
#CHARTNAME:;
#STEPSTYPE:dance-single;
#DESCRIPTION:C. Picardy;
#CHARTSTYLE:;
#DIFFICULTY:Beginner;
#METER:1;
#RADARVALUES:0.080896,0.139516,0.041034,0.032827,0.000000,69.000000,64.000000,5.000000,4.000000,0.000000,0.000000,0.000000,0.000000,0.000000,0.080896,0.139516,0.041034,0.032827,0.000000,69.000000,64.000000,5.000000,4.000000,0.000000,0.000000,0.000000,0.000000,0.000000;
#CREDIT:C. Picardy;
#NOTES:
0000
0000
0000
0000
,
0000
0000
0000
0000
,
0000
0000
0000
0000
,
0000
0000
0000
0000
,
1001
0000
0000
0000
,
1001
0000
0000
0000
,
0010
0000
0010
0000
,
0010
0000
0010
0000
,
0000
0000
0000
0000
,
1000
0000
0000
0000
,
0001
0000
0000
0000
,
1000
0000
0000
0000
,
0001
0000
0000
0000
,
0100
0000
0000
0000
,
0010
0000
0000
0000
,
0100
0000
0000
0000
,
0010
0000
0000
0000
,
1000
0000
1000
0000
,
0000
0000
0000
0000
,
0001
0000
0001
0000
,
0000
0000
0000
0000
,
0100
0000
0100
0000
,
0000
0000
0000
0000
,
0010
0000
0010
0000
,
0010
0000
0000
0000
,
0100
0000
0000
0000
,
0010
0000
0000
0000
,
0001
0000
0000
0000
,
1000
0000
0000
0000
,
0100
0000
0000
0000
,
0010
0000
0000
0000
,
0010
0000
0000
0000
,
0100
0000
0000
0000
,
1001
0000
0000
0000
,
0100
0000
0000
0000
,
0010
0000
0000
0000
,
1000
0000
0000
0000
,
0001
0000
0000
0000
,
0010
0000
0000
0000
,
0010
0000
0000
0000
,
0100
0000
0000
0000
,
0100
0000
0000
0000
,
1001
0000
0000
0000
,
0010
0000
0000
0000
,
0010
0000
0000
0000
,
0100
0000
0000
0000
,
0100
0000
0000
0000
,
1000
0000
0000
0000
,
1000
0000
0000
0000
,
0001
0000
0000
0000
,
0001
0000
0001
0000
,
0002
0000
0000
0000
,
0003
0000
0000
0000
,
2000
0000
0000
0000
,
3000
0000
0000
0000
,
0020
0000
0000
0000
,
0030
0000
0000
0000
,
0200
0000
0000
0000
,
0300
0000
0000
0000
,
0010
0000
0000
0000
,
0100
0000
0000
0000
,
0001
0000
0000
0000
,
1000
0000
0000
0000
,
1000
0000
0000
0000
,
0001
0000
0000
0000
,
1000
0000
0000
0000
,
0100
0000
0000
0000
,
0010
0000
0000
0000
,
1001
0000
0000
0000
;

//---------------dance-single - C. Picardy----------------
#NOTEDATA:;
#CHARTNAME:;
#STEPSTYPE:dance-single;
#DESCRIPTION:C. Picardy;
#CHARTSTYLE:;
#DIFFICULTY:Easy;
#METER:3;
#RADARVALUES:0.245032,0.334838,0.270825,0.131309,0.000000,209.000000,176.000000,33.000000,16.000000,0.000000,0.000000,0.000000,0.000000,0.000000,0.245032,0.334838,0.270825,0.131309,0.000000,209.000000,176.000000,33.000000,16.000000,0.000000,0.000000,0.000000,0.000000,0.000000;
#CREDIT:C. Picardy;
#NOTES:
0000
0000
0000
0000
,
0000
0000
0000
0000
,
0000
0000
0000
0000
,
0000
0000
0000
0000
,
0110
0000
0000
0000
,
0110
0000
0000
0000
,
1001
0000
1001
0000
,
0010
0010
0100
0100
,
2002
0000
3003
0000
,
0200
0000
0310
1000
,
0001
0000
0010
0000
,
0001
2000
0000
3000
,
0100
0010
0001
1000
,
0002
0000
1003
0001
,
1000
0000
0100
0000
,
0110
0000
0110
0000
,
0001
1000
1001
0000
,
0100
0100
0010
0100
,
0010
0000
1000
0000
,
0001
0001
1000
0001
,
1000
0000
0100
0000
,
0010
0001
0100
0100
,
0010
1000
0100
0100
,
1001
0000
1001
0000
,
0010
0100
1001
0000
,
0100
0000
0010
0000
,
1000
0000
0100
0000
,
0001
0000
0100
0000
,
0010
0000
0001
0000
,
1001
0000
0100
0000
,
0010
0000
1000
0000
,
1001
0000
1001
0000
,
0010
0100
0010
0100
,
2002
0000
3003
0000
,
0100
0010
1000
0000
,
0100
1000
0010
0000
,
0001
0010
0100
0000
,
1000
0000
0010
0000
,
0100
0001
1000
0000
,
0100
0010
0001
0000
,
0110
0000
1001
0000
,
0010
0100
1000
0001
,
0220
0000
0330
0000
,
1000
0001
1000
0001
,
0100
0010
0100
0010
,
1000
0000
0100
0000
,
0010
0000
0001
0000
,
1000
0100
0010
0001
,
0010
0100
0010
0001
,
1001
0000
1001
0000
,
1000
0001
0110
0000
,
2000
0000
3100
0010
,
0002
0000
0103
0000
,
0010
2000
0000
3001
,
0100
0010
0100
0001
,
0020
0000
0130
1000
,
0020
0000
0030
0100
,
0110
0000
1001
0000
,
0110
1001
0110
0000
,
1000
0100
0001
0010
,
1000
0100
0001
0010
,
1000
0010
0001
0100
,
1000
0010
0001
0100
,
1000
0100
0001
0100
,
1000
0010
0001
0010
,
1001
0000
0110
0000
,
1001
0110
1001
0000
,
2002
0000
3003
0000
,
0110
0000
0000
0000
;

//---------------dance-single - C. Picardy----------------
#NOTEDATA:;
#CHARTNAME:;
#STEPSTYPE:dance-single;
#DESCRIPTION:C. Picardy;
#CHARTSTYLE:;
#DIFFICULTY:Medium;
#METER:5;
#RADARVALUES:0.323583,0.362741,0.344686,0.172343,0.000000,276.000000,234.000000,42.000000,21.000000,0.000000,0.000000,0.000000,0.000000,0.000000,0.323583,0.362741,0.344686,0.172343,0.000000,276.000000,234.000000,42.000000,21.000000,0.000000,0.000000,0.000000,0.000000,0.000000;
#CREDIT:C. Picardy;
#NOTES:
0000
0000
0000
0000
,
0000
0000
0000
0000
,
0000
0000
0000
0000
,
0000
0000
0000
0000
,
1001
0000
0100
0000
,
0110
0000
1000
0000
,
1001
0000
0110
0000
,
1001
0000
0110
0000
1000
0100
0010
0000
,
1001
0000
0000
0000
,
2001
0100
0100
0001
,
3010
0100
0010
0001
,
0100
0020
1000
0130
,
0001
0100
0010
1000
,
0002
0100
1000
0010
,
2003
0100
3010
0100
,
0101
0000
1100
0000
,
0010
0001
0100
0000
1001
0000
0000
0000
,
0001
0000
1000
0000
0100
0000
0010
0001
,
1000
0100
0010
0010
,
0001
0001
0100
0010
,
1000
0000
0100
0000
0010
0000
0100
1000
,
0001
0100
0010
1000
,
0100
1000
0010
0100
,
1010
0000
0101
0000
,
1100
0000
1001
0000
0010
0000
0100
0010
,
0002
0010
0100
0103
,
0020
1000
0100
0130
,
2002
3003
0100
0010
,
2002
0000
0000
0000
3003
0000
0010
0100
,
0010
0000
0000
0100
0000
1000
0000
0001
,
0000
0001
0000
1000
0000
1000
0000
0000
,
0110
0000
0010
0001
0000
0100
0000
2002
,
0000
3003
1001
1001
,
0110
0000
0000
0000
0000
0000
1000
0001
,
1000
0000
0000
0010
0000
0001
0000
1000
,
0000
0000
0000
0100
0000
0010
0000
0010
,
0000
0000
0000
0001
0000
1000
0000
2000
,
0000
0000
0000
0000
3001
0000
0100
0010
,
0100
0000
0000
0001
0000
0001
0000
1000
,
0000
0000
0000
0001
0000
1000
1000
0000
,
0110
0000
1010
0000
,
0101
0000
1100
0000
0001
0100
1000
0000
,
2002
0000
0000
3003
,
0100
0010
0001
0100
,
0010
0010
1000
0001
,
0100
0010
1000
0100
,
0010
0000
0010
0000
0001
0000
1000
0100
,
0010
0001
0100
0010
,
1000
0100
0010
0001
,
1100
0000
0011
0000
,
0110
0000
1100
0000
0010
0100
1000
0000
,
0120
0100
0100
0031
,
0200
0000
0310
0000
1000
0000
0100
0010
,
0001
2000
0010
0010
,
0100
0000
3100
0000
0010
0000
0100
1000
,
0020
1000
0100
0130
,
0001
1000
0100
0010
,
0110
0000
1001
0000
,
0011
0000
0101
0000
0010
1000
0100
0000
,
0010
0001
0100
0010
,
0100
0000
0001
0000
0010
0000
0100
0010
,
0001
1000
0010
0100
,
0001
0000
0100
0000
0010
0000
0100
0010
,
1000
0100
0010
0100
,
1000
0100
1000
0001
,
0110
0000
1010
0000
,
0110
0000
1001
0000
0100
0010
0100
0000
,
0022
0000
0000
0033
,
0011
0000
0000
0000
;

//---------------dance-single - C. Picardy----------------
#NOTEDATA:;
#CHARTNAME:;
#STEPSTYPE:dance-single;
#DESCRIPTION:C. Picardy;
#CHARTSTYLE:;
#DIFFICULTY:Hard;
#METER:7;
#RADARVALUES:0.425582,0.502257,0.377513,0.196963,0.049241,363.000000,317.000000,46.000000,24.000000,0.000000,0.000000,0.000000,0.000000,0.000000,0.425582,0.502257,0.377513,0.196963,0.049241,363.000000,317.000000,46.000000,24.000000,0.000000,0.000000,0.000000,0.000000,0.000000;
#CREDIT:C. Picardy;
#NOTES:
0000
0000
0000
0000
,
0000
0000
0000
0000
,
0000
0000
0000
0000
,
0000
0000
0000
0000
,
1001
0000
0010
0000
,
1001
0000
0100
0000
,
0101
0000
1100
0000
,
0101
0000
0000
0000
1100
0000
0000
0000
0010
0100
0010
0100
0010
0000
0000
0000
,
2002
0000
0000
3003
,
0200
0000
0010
0000
0301
0100
0010
0000
,
0002
0000
1003
0000
0100
0010
0001
0010
,
0100
2000
0010
3200
,
0310
0000
0001
0100
0010
1000
0100
0010
,
0002
0010
0100
0013
,
0200
1300
0010
0100
,
0101
1000
1100
0001
,
0110
1001
2002
3003
,
1000
0000
0100
0000
0010
0001
0010
0000
,
0100
0000
1000
0000
0010
0000
0100
0100
,
0010
0000
1000
0001
0000
1000
0000
0100
,
1000
0000
1000
0000
0100
0000
0010
0100
,
1000
0000
0100
0010
0000
0010
0000
0001
,
0000
0100
0000
0010
0000
1000
0000
0000
,
1001
0100
1001
0010
,
1100
0000
0000
0000
0011
0000
0000
0000
1000
0001
1000
0001
1000
0000
0000
0000
,
0100
0000
0010
0000
0001
0000
0010
0001
,
0100
0000
0001
0000
0010
0000
0100
0010
,
0100
0000
1000
0000
0010
0000
0100
0001
,
0100
0000
0010
0000
1000
0000
0001
1000
,
1001
0000
0100
0000
0010
0000
0100
1000
,
0100
0010
0001
0010
,
1100
0100
0101
0100
,
1010
0000
0101
0000
1000
0100
0001
0000
,
2200
0000
0000
3300
,
0100
0000
1000
0000
0001
0100
1000
0000
,
0100
0000
0010
0000
1000
0100
0001
0000
,
0100
0000
0010
0000
0001
0100
1000
0000
,
1000
0100
0001
0000
1000
0000
0001
0010
,
0021
0001
1000
1000
,
0100
1000
0031
1000
,
0101
0000
1100
0000
,
1001
0000
0000
0000
0110
0000
0000
0000
1000
0001
1000
0001
1000
0000
0000
0000
,
0220
0000
0000
0000
0330
0000
1000
0100
,
0010
0000
0001
0010
0100
0010
0001
0000
,
1100
0000
0010
0100
1000
0010
0100
0000
,
1001
0000
0100
0000
0010
0001
0100
0010
,
0100
0000
0010
0000
1000
0000
0100
1000
,
1001
0000
0100
0001
0010
0001
0100
0000
,
0010
0000
1000
0100
0010
0001
0010
0000
,
1001
0010
0101
0010
,
1100
0000
0000
0000
0011
0000
0000
0000
0100
0010
0100
0010
0100
0000
0000
0000
,
0120
0001
1000
0001
,
0230
0000
1000
0000
0301
0000
0010
0100
,
0010
0001
0200
0000
0010
0000
0302
0000
,
0010
0000
1003
0100
0001
0100
1000
0001
,
0020
0100
0001
0032
,
2003
0100
0001
3010
,
0110
1000
0101
0010
,
1100
0000
0000
0000
0011
0000
0000
0000
1000
0100
1000
0100
1000
0000
0000
0000
,
0100
0010
0100
0010
0100
0010
0100
0010
,
0100
1000
0100
1000
0100
1000
0100
1000
,
0001
0100
0001
0100
0001
0100
0001
0100
,
0010
0100
0010
0100
0010
0100
0010
0100
,
0001
0010
0100
0010
0001
0010
0100
1000
,
0100
0010
0001
0010
0100
0010
0001
1000
,
1001
0001
0101
1000
,
1100
0000
0000
0000
0101
0000
0000
0000
1000
0001
1000
0001
1000
0000
0000
0000
,
2200
0000
0000
3300
,
0011
0000
0000
0000
;

//---------------dance-single - C. Picardy----------------
#NOTEDATA:;
#CHARTNAME:;
#STEPSTYPE:dance-single;
#DESCRIPTION:C. Picardy;
#CHARTSTYLE:;
#DIFFICULTY:Challenge;
#METER:9;
#RADARVALUES:0.634269,0.641773,0.361100,0.229791,0.176446,541.000000,497.000000,44.000000,28.000000,50.000000,0.000000,0.000000,0.000000,0.000000,0.634269,0.641773,0.361100,0.229791,0.176446,541.000000,497.000000,44.000000,28.000000,50.000000,0.000000,0.000000,0.000000,0.000000;
#CREDIT:C. Picardy;
#NOTES:
0000
0000
0000
0000
,
0000
0000
0000
0000
,
0000
0000
0000
0000
,
0000
0000
0000
0000
0000
0000
1000
0001
,
1001
0000
1000
0001
0000
1000
0000
0001
,
1001
0000
1000
1000
0000
0001
1000
0000
,
0110
0MM0
1010
M0M0
,
01M1
0000
0100
0000
0110
0000
1000
0000
0010
0100
0010
0100
0010
0100
0010
0200
,
0020
M000
000M
M33M
,
0002
0010
0010
0013
0100
1000
0200
1000
,
0320
0100
0100
0130
1000
0100
0001
0100
,
1000
0100
2000
0100
0100
3100
0020
1000
,
2030
0000
0100
0000
3100
0000
0002
0000
0100
0000
0103
0000
2000
0000
0010
3000
,
1020
1000
1000
1030
0001
0100
0010
0100
,
0200
1000
1000
1300
0001
0010
0100
0010
,
101M
M100
0011
1M00
,
11MM
0000
0100
0000
0110
0000
0001
0000
0010
0001
0010
0001
0010
0001
0010
0001
,
0010
0100
1000
0100
0001
0100
0010
0001
,
0100
0010
0001
0010
1000
0100
0100
0100
,
0010
0001
0010
0100
1000
0100
0010
0001
,
1000
0100
0001
0100
1000
0010
0100
0001
,
0110
1000
0001
0100
0010
0100
0001
1000
,
0100
0010
0100
1000
0010
0100
0010
1000
,
1100
0000
MM10
0001
1001
0000
M01M
1000
,
0101
0000
0100
0000
1001
0000
1000
0000
0010
1000
0010
1000
0010
1000
0010
1000
,
0010
1000
0010
1000
0001
0100
0001
0100
,
1000
0100
1000
0100
0001
0010
0001
0010
,
0100
1000
0100
0001
0100
1000
0100
0001
,
1000
0010
0100
0010
1000
0010
0100
0010
,
0011
1000
0001
0100
1000
0100
0010
0100
,
1000
0100
0001
0010
0100
0010
0001
0100
,
0110
0000
1MM0
0100
1100
0000
MM10
0001
,
0011
0000
0000
0000
11MM
0000
0000
0000
0010
0100
1000
0100
0010
0000
0000
0000
,
0202
0000
M000
0000
00M0
0000
M0M0
0303
,
0101
0000
0100
0000
1000
0000
0100
0000
0010
0000
0100
0000
0001
0000
1000
0100
,
0010
0000
0100
0000
1000
0000
0100
0000
0001
0000
0100
0000
1000
0000
0001
1000
,
0100
0000
0010
0000
0001
0000
1000
0001
0100
0000
0010
0000
1000
0000
0100
0010
,
0001
0010
0100
1000
0001
0100
0010
1000
,
1001
0000
0010
0000
0100
0000
0010
0000
0001
0000
0100
0000
1000
0000
0100
0001
,
1000
0000
0100
0000
0010
0000
0001
0100
1000
0000
0100
0000
0010
0000
1000
0000
,
1001
0000
M10M
0010
0110
0000
1MM0
0001
,
1001
0000
0100
0000
1100
0000
0010
0000
0001
0010
0001
0010
0100
1000
0100
2000
,
0002
0M00
00M0
3MM3
,
1000
0000
0100
0000
0001
0000
0100
0000
1000
0000
0010
0000
0100
0000
0001
0100
,
0001
0000
0010
0000
0100
0000
0010
0000
0001
0000
0100
0000
0010
0000
1000
0010
,
1000
0000
0001
0000
0100
0000
0010
1000
0010
0000
1000
0000
0100
0000
0010
0001
,
0010
0000
0100
0000
1000
0000
0001
1000
0100
0000
0010
0000
0001
0000
1000
0000
,
1001
0000
0100
0000
0010
0000
0100
0000
1000
0000
0100
0000
0010
0000
0001
0010
,
0001
0000
0100
0000
0010
0000
1000
0010
1000
0000
0001
0000
0100
0000
0010
0000
,
1001
0000
M10M
0010
1010
0000
M1M0
0001
,
0101
0000
1000
0000
1010
0000
0100
0000
0001
0100
0001
0100
0010
1000
0010
1000
,
0002
0010
0010
0013
0100
1000
0010
0100
,
0020
1000
1030
0100
0020
0100
0130
0001
,
0100
0100
0020
0001
0001
0031
0200
0010
,
0320
1000
2030
0100
3200
0010
0310
0001
,
0102
0100
0100
0103
0010
1000
0001
0100
,
0020
1000
1000
1030
0100
0010
0100
1000
,
1001
M10M
0011
01MM
,
1M1M
0000
0100
0000
0101
0000
0001
0000
1000
0001
1000
0001
1000
0001
1000
0001
,
1000
0100
0001
0100
0010
0100
1000
0010
,
0100
0010
0001
0010
0100
0010
1000
0001
,
0001
1000
0100
1000
0010
1000
0001
0100
,
1000
0100
0010
1000
0001
0010
0100
1000
,
1001
0100
0010
0100
0001
0100
0010
1000
,
0100
0010
1000
0010
0100
0010
0001
0100
,
0110
0000
1MM0
0001
1001
0000
M01M
0100
,
0110
0000
0100
0000
1100
0000
0001
0000
1000
0001
0100
0010
1000
0100
0010
0002
,
0200
0000
0000
0000
0000
0000
0000
0000
0000
0000
0000
0000
0000
0000
0000
0303
,
0101
0000
0000
0000
;
