#TITLE:King of the Hill;
#SUBTITLE:;
#ARTIST:The Refreshments;
#TITLETRANSLIT:;
#SUBTITLETRANSLIT:;
#ARTISTTRANSLIT:;
#GENRE:;
#CREDIT:;
#BANNER:kingofthehillbn.png;
#BACKGROUND:kingofthehillbg.png;
#LYRICSPATH:;
#CDTITLE:;
#MUSIC:kingofthehill.ogg;
#OFFSET:-0.005047;
#SAMPLESTART:29.784702;
#SAMPLELENGTH:12.999999;
#SELECTABLE:YES;
#BPMS:0.000000=144.820007
,8.000000=145.893005
,12.000000=146.513000
,15.000000=145.953003
,20.000000=142.733002
,28.000000=144.813004
,36.000000=147.567001
,40.500000=145.507004
,48.000000=142.526993
,53.500000=147.087006
,64.000000=143.399002
,75.000000=146.158997
,84.000000=145.218994
,92.000000=142.319000
,96.000000=144.759003
,104.000000=143.009003
,120.000000=142.789001
,124.000000=142.828995
,127.000000=141.550003
,144.000000=143.110001
,160.000000=142.009995
,183.000000=144.369995
,195.500000=135.009995
,199.500000=141.869995
,208.000000=141.229996
,219.000000=141.429993
,246.500000=141.509995
,264.000000=138.839996
,273.000000=142.220001
,282.000000=143.000000
,288.000000=139.139999
;
#STOPS:
;
#BGCHANGES:11.500=kingofthehill.mp4=1.000=0=0=0=StretchNoLoop====,
99999=-nosongbg-=1.000=0=0=0 // don't automatically add -songbackground-
;
#KEYSOUNDS:;
#ATTACKS:;

//---------------dance-single - C. Picardy----------------
#NOTES:
     dance-single:
     :
     Beginner:
     1:
     0.093379,0.146972,0.047828,0.000000,0.000000,82.000000,76.000000,6.000000,0.000000,0.000000,0.000000,0.093379,0.146972,0.047828,0.000000,0.000000,82.000000,76.000000,6.000000,0.000000,0.000000,0.000000:
0000
0000
0000
0000
,
0000
0000
0000
0000
,
1000
0000
0000
0000
,
0001
0000
0000
0000
,
1000
0000
0000
0000
,
0001
0000
0000
0000
,
0100
0000
0000
0000
,
0010
0000
0000
0000
,
0100
0000
0000
0000
,
0010
0000
0000
0000
,
0000
1000
0000
0000
0000
0000
0000
0000
,
0000
0001
0000
0000
0000
0000
0000
0000
,
0000
1000
0000
0000
0000
0000
0000
0000
,
0000
0001
0000
0000
0000
0000
0000
0000
,
0000
0100
0000
0000
0000
0000
0000
0000
,
0000
0010
0000
0000
0000
0000
0000
0000
,
0000
0100
0000
0000
0000
0000
0000
0000
,
0000
0010
0000
0000
0000
0000
0000
0000
,
0001
0000
0000
0000
,
1000
0000
0000
0000
,
0010
0000
0000
0000
,
0100
0000
0000
0000
,
0001
0000
0000
0000
,
1000
0000
0000
0000
,
0100
0000
0100
0000
,
0100
0000
0000
0000
,
0000
0010
0000
0000
0000
0000
0000
0000
,
0000
0100
0000
0000
0000
0000
0000
0000
,
0000
1000
0000
0000
0000
0000
0000
0000
,
0000
0001
0000
0000
0000
0000
0000
0000
,
0000
0100
0000
0000
0000
0000
0000
0000
,
0000
0010
0000
0000
0000
0000
0000
0000
,
0000
1000
0000
0000
0000
0000
0000
0000
,
0000
0001
0000
0000
0000
0000
0000
0000
,
0100
0000
0000
0000
,
1001
0000
0000
0000
,
0010
0000
0000
0000
,
1001
0000
0000
0000
,
0100
0000
0000
0000
,
0010
0000
0000
0000
,
1000
0000
1000
0000
,
1000
0000
0000
0000
,
0000
0001
0000
0000
0000
0000
0000
0000
,
0000
0001
0000
0000
0000
0000
0000
0000
,
0000
1000
0000
0000
0000
0000
0000
0000
,
0000
1000
0000
0000
0000
0000
0000
0000
,
0000
0100
0000
0000
0000
0000
0000
0000
,
0000
0100
0000
0000
0000
0000
0000
0000
,
0000
0010
0000
0000
0000
0000
0000
0000
,
0000
0010
0000
0000
0000
0000
0000
0000
,
1001
0000
0000
0000
,
0100
0000
0000
0000
,
0010
0000
0000
0000
,
1000
0000
0000
0000
,
0001
0000
0000
0000
,
0100
0000
0000
0000
,
0010
0000
0010
0000
,
0010
0000
0000
0000
,
0000
1000
0000
0000
0000
0000
0000
0000
,
0000
1000
0000
0000
0000
0000
0000
0000
,
0000
0001
0000
0000
0000
0000
0000
0000
,
0000
0001
0000
0000
0000
0000
0000
0000
,
0000
0100
0000
0000
0000
0000
0000
0000
,
0000
0100
0000
0000
0000
0000
0000
0000
,
0000
0010
0000
0000
0000
0000
0000
0000
,
0000
0010
0000
0000
0000
0000
0000
0000
,
1001
0000
0000
0000
,
0100
0000
0000
0000
,
0010
0000
0000
0000
,
0001
0000
0000
0000
,
1001
0000
0000
0000
,
0100
0000
0000
0000
,
0010
0000
0000
0000
,
0100
0000
0000
1001
;

//---------------dance-single - C. Picardy----------------
#NOTES:
     dance-single:
     :
     Easy:
     4:
     0.310883,0.470311,0.278998,0.247112,0.000000,273.000000,238.000000,35.000000,31.000000,0.000000,0.000000,0.310883,0.470311,0.278998,0.247112,0.000000,273.000000,238.000000,35.000000,31.000000,0.000000,0.000000:
// measure 0
0000
0000
0000
0000
,  // measure 1
0000
0000
0000
0000
,  // measure 2
1000
0000
0001
0000
,  // measure 3
0100
0100
0100
0000
,  // measure 4
0010
0000
1000
0000
,  // measure 5
0001
1000
0001
1000
,  // measure 6
0100
0000
0010
0000
,  // measure 7
0001
0001
0001
0000
,  // measure 8
1000
0100
0010
0001
,  // measure 9
1000
0010
0100
1001
,  // measure 10
0000
0100
0000
0000
0000
0010
0000
0000
,  // measure 11
0000
1000
0000
1000
0000
1000
0000
0000
,  // measure 12
0000
0001
0000
0000
0000
0100
0000
0000
,  // measure 13
0000
0010
0000
0010
0000
0100
0000
0100
,  // measure 14
0000
0001
0000
0000
0000
1000
0000
0000
,  // measure 15
0000
0100
0000
0000
0000
0010
0000
0000
,  // measure 16
0000
0001
0000
0000
0000
1000
0000
0000
,  // measure 17
0000
0100
0000
0100
0000
0100
0000
0000
,  // measure 18
0010
0100
0010
0100
,  // measure 19
1000
0001
1000
0000
,  // measure 20
0010
0100
0010
0100
,  // measure 21
0001
0001
1000
1000
,  // measure 22
0100
0010
0100
0010
,  // measure 23
0001
0010
0100
0000
,  // measure 24
1000
1000
0100
0100
,  // measure 25
0010
0010
0001
0100
,  // measure 26
0000
0010
0000
0010
0000
0010
0000
0000
,  // measure 27
0000
0100
0000
0100
0000
0100
0000
0000
,  // measure 28
0000
0001
0000
0001
0000
0001
0000
0000
,  // measure 29
0000
2000
0000
3000
0000
0002
0000
0003
,  // measure 30
0000
1000
0000
1000
0000
0001
0000
0000
,  // measure 31
0000
0100
0000
0100
0000
0010
0000
0000
,  // measure 32
0000
0100
0000
0000
0000
0010
0000
0000
,  // measure 33
0000
1000
0000
0001
0000
1000
0000
0000
,  // measure 34
0010
0100
0010
1000
,  // measure 35
0001
0100
2002
3003
,  // measure 36
0100
0010
1000
0001
,  // measure 37
0010
0010
0100
0000
,  // measure 38
1000
0001
0100
0010
,  // measure 39
1000
0100
2002
3003
,  // measure 40
0001
0010
0100
1000
,  // measure 41
0100
0010
0001
1001
,  // measure 42
0000
0100
0000
0010
0000
0100
0000
0010
,  // measure 43
0000
1000
0000
0001
0000
1000
0000
0001
,  // measure 44
0000
1000
0000
0100
0000
1000
0000
0100
,  // measure 45
0000
0022
0000
0033
0000
2200
0000
3300
,  // measure 46
0000
0001
0000
0100
0000
0001
0000
0100
,  // measure 47
0000
0010
0000
1000
0000
0010
0000
1000
,  // measure 48
0000
0001
0000
0001
0000
0001
0000
0000
,  // measure 49
2002
3003
0220
0330
,  // measure 50
0001
0010
0001
0100
,  // measure 51
0010
1000
0220
0330
,  // measure 52
0001
1000
0100
0010
,  // measure 53
0100
1000
0010
0100
,  // measure 54
0001
0010
0100
0010
,  // measure 55
0001
0100
2002
3003
,  // measure 56
0100
0010
1000
0001
,  // measure 57
0010
0010
0100
1001
,  // measure 58
0000
1001
0000
1001
0000
1001
0000
1001
,  // measure 59
0000
0110
0000
0110
0000
0220
0000
0330
,  // measure 60
0000
0101
0000
0101
0000
0101
0000
0101
,  // measure 61
0000
2020
0000
3030
0000
2020
0000
3030
,  // measure 62
0000
0011
0000
0011
0000
0011
0000
0011
,  // measure 63
0000
1100
0000
1100
0000
2200
0000
3300
,  // measure 64
0000
0001
0000
1000
0000
0001
0000
0000
,  // measure 65
0220
0330
2002
3003
,  // measure 66
0110
1000
0001
0100
,  // measure 67
0010
1000
0001
0001
,  // measure 68
1000
0001
1000
0001
,  // measure 69
0010
0100
1000
0001
,  // measure 70
0100
0100
0010
0010
,  // measure 71
1000
0001
0020
0030
,  // measure 72
1000
0100
0010
0001
,  // measure 73
0010
0100
1000
0110
;

//---------------dance-single - ----------------
#NOTES:
     dance-single:
     :
     Medium:
     6:
     0.433870,0.499705,0.629738,0.294941,0.000000,381.000000,302.000000,79.000000,37.000000,0.000000,0.000000,0.433870,0.499705,0.629738,0.294941,0.000000,381.000000,302.000000,79.000000,37.000000,0.000000,0.000000:
0000
0000
0000
0000
,
0000
0000
0000
0000
,
0010
0100
0010
0001
,
0100
0000
0010
1000
0002
0000
0003
0000
,
1000
1100
0001
0101
,
1000
0000
0010
0000
0100
0000
0001
0100
,
0010
1000
0010
0100
,
0001
0000
1000
0100
0020
0000
0030
0000
,
0011
0101
1100
0101
,
0110
0000
1001
0000
0100
0010
0100
0000
,
0000
0010
0000
0010
0000
1010
0000
0110
,
0000
0001
0000
0001
0000
1100
0000
0110
,
0000
0010
0000
0010
0000
0011
0000
1001
,
0000
0100
0010
0100
0000
0010
0100
0010
,
0000
1000
0000
1000
0000
0101
0000
1100
,
0000
0001
0000
0001
0000
0011
0000
1000
,
0001
0100
0000
0010
1000
0001
0000
1000
,
0001
0200
0000
0000
0000
0000
0000
0000
,
0310
1000
0001
0100
,
0010
0000
1000
0100
0020
0000
0030
0000
,
0001
0010
0001
0100
,
1010
0000
0101
0000
1001
0000
0010
0100
,
1000
0001
0100
0010
,
0100
0000
0001
0010
0200
0000
0300
0000
,
0010
1100
0010
0101
,
1100
0000
0101
0000
1000
0001
1000
0000
,
0000
0100
0000
0100
0000
0110
0000
0110
,
0000
0001
0000
0001
0000
1001
0000
1001
,
0000
1000
0000
1000
0000
1010
0000
1010
,
0000
0220
0000
0330
0000
2002
0000
3003
,
0000
0001
0000
0001
0000
1100
0000
1100
,
0000
0010
0000
0010
0000
0101
0000
0101
,
0000
1000
0001
0000
1000
0001
1000
0000
,
0001
2002
0000
0000
0000
0000
0000
3003
,
1000
0001
0100
0010
,
0100
0000
0001
0010
0200
0000
1300
0000
,
0010
0100
0001
1000
,
0010
0000
0100
0000
0001
0000
1000
0100
,
0010
0100
1000
0001
,
0100
0000
0010
1000
0002
0000
0013
0000
,
1100
0110
0011
1001
,
0110
0000
1001
0000
0100
0010
0100
0010
,
0000
1000
0001
0100
0000
0001
0100
0020
,
0000
0000
1030
0001
0000
0100
0010
2000
,
0000
0000
3001
1000
0100
0010
0100
0010
,
0000
0022
0000
0033
0000
2200
0000
3300
,
0000
0001
0001
0001
0000
0001
0000
0002
,
0000
1003
1000
1000
0000
1000
0000
2000
,
0000
0010
0000
0010
0000
3010
0000
0000
,
2002
3003
0220
0330
,
2000
0010
0001
0001
,
0100
0010
0002
3003
,
0200
0010
0001
0001
,
1000
0000
0010
0000
1300
0000
0001
0100
,
0010
1000
0001
1000
,
0100
0000
0010
0001
0200
0000
0300
0000
,
1010
0101
1010
0101
,
0011
0000
1100
0000
0001
0100
1000
0000
,
0000
0110
0000
0110
0000
0101
0000
0101
,
0000
0110
0000
0110
0000
1000
0001
0000
,
0000
1100
0000
1100
0000
0110
0000
0110
,
0000
0010
0001
0010
0000
0100
1000
0100
,
0000
0011
0000
0011
0000
1001
0000
1001
,
0000
1010
0000
1010
0000
0202
0000
0303
,
0100
0001
0100
0000
0001
0100
0001
0000
,
0202
0303
2200
3300
,
1001
0010
0100
0010
,
0001
0000
0100
0010
2000
0000
3000
0000
,
0001
0100
0010
0100
,
0001
0000
0001
0000
1000
0000
0100
0010
,
0001
0010
0100
1000
,
0001
0000
0100
0010
0200
0000
0300
0000
,
1001
0110
1001
0110
,
1100
0000
0101
0000
1000
0001
0100
0000
;

//---------------dance-single - C. Picardy----------------
#NOTES:
     dance-single:
     :
     Hard:
     8:
     0.545469,0.529099,0.382626,0.151456,0.263055,479.000000,431.000000,48.000000,19.000000,0.000000,0.000000,0.545469,0.529099,0.382626,0.151456,0.263055,479.000000,431.000000,48.000000,19.000000,0.000000,0.000000:
0000
0000
0000
0000
,
0000
0000
0000
0000
,
0001
0000
0000
0001
0010
0000
0000
0000
0100
0000
0000
0100
0010
0000
0000
0000
,
0100
0000
0000
0100
1000
0000
1000
0000
0002
0000
0000
0000
0003
0000
0000
0000
,
0100
0000
0000
0100
0010
0000
0000
0000
1000
0000
0000
1000
0010
0000
0000
0000
,
0100
0000
0000
0100
0010
0000
0000
0010
0100
0000
0000
0100
0001
0000
1000
0000
,
0100
0000
0000
0100
0010
0000
0001
0000
1000
0000
0000
0001
1000
0000
0100
0000
,
0010
0000
0000
0001
0100
0000
0010
0000
0020
0000
0000
0000
0030
0000
0000
0000
,
1000
0000
0000
1000
0001
0000
0000
0001
1000
0000
0000
1000
0001
0000
0000
0001
,
1000
0100
0010
0001
1000
1001
1001
0000
,
1000
0100
0000
0110
0000
0001
0000
1100
,
0000
0010
0000
0101
0000
0010
0000
1100
,
0000
0001
0000
0101
0000
1000
0000
1010
,
0000
0001
0100
1000
0000
1000
0100
0001
,
0000
1100
0000
0011
0000
0110
0000
0110
,
0000
1001
0000
0101
0000
0110
0000
1000
,
0001
0100
0000
0010
1000
0001
0000
1000
,
0001
4004
0000
0000
0000
0000
0000
3003
,
1000
0000
0000
1000
0001
0000
0000
0001
0100
0000
0000
0100
0010
0000
0000
0010
,
0100
0000
0000
0100
0001
0000
1000
0000
0200
0000
0000
0000
0310
0000
0000
0000
,
0001
0000
0000
0001
0100
0000
0000
0100
0010
0000
0000
0010
1000
0000
0000
1000
,
0100
0000
0000
0100
0010
0000
0000
0010
0100
0000
0000
0100
0010
0000
0000
0010
,
0001
0000
1000
0000
0010
0000
0000
0010
0100
0000
0001
0000
0010
0000
0000
0100
,
1000
0001
0010
0100
2000
0000
3001
0000
,
0010
0000
0000
0010
1000
0000
0000
1000
0001
0000
0000
0001
0100
0000
0000
0100
,
0010
1000
0100
0010
0001
0100
0100
0010
,
0000
1010
0000
0100
0000
0011
0000
0100
,
0000
1010
0000
0001
0000
0011
0000
1000
,
0000
0110
0000
1000
0000
0110
0000
0001
,
0000
1000
0100
1100
0000
0001
0010
0011
,
0000
0100
0000
0011
0000
0100
0000
0110
,
0000
1000
0000
0110
0000
0001
0000
1000
,
0100
0040
0000
0000
0130
4000
0000
0000
,
3001
0404
0000
0000
0000
0000
0000
0303
,
0001
0100
0010
0100
0001
0100
0010
0100
,
0001
0100
1000
0100
0002
0000
1003
0000
,
1000
0100
0010
0100
1000
0100
0010
0100
,
1000
0100
1000
0100
0010
0001
0010
0001
,
1000
0010
0100
0010
1000
0010
0100
0010
,
1000
0001
0100
0010
2000
0000
3001
0000
,
1100
0101
1100
0101
,
1000
0001
0100
0010
1000
0001
1001
1001
,
0000
0001
0100
0010
0100
0001
1000
0200
,
0000
0010
0310
0100
1000
0001
0100
0020
,
0000
1000
1030
0001
0100
1000
0100
0001
,
0000
1010
1000
0100
0000
0011
0001
0100
,
0000
0010
0010
1000
1000
1000
0000
1001
,
0000
0100
0100
0001
0001
0001
0000
1001
,
0000
1000
0001
0100
0010
0100
0010
0000
,
2002
0000
0000
3003
0220
0000
0000
0330
,
1001
0000
0000
0100
0010
0000
0000
0000
0001
0000
0000
0010
0100
0000
0000
0000
,
1000
0000
0000
0100
0010
0000
0100
0000
2000
0000
0000
0000
3100
0000
0000
0000
,
0010
0000
0000
0100
1000
0000
0000
0000
0010
0000
0000
0100
0001
0000
0000
0000
,
1000
0000
0000
1000
0001
0000
0001
0000
0100
0000
0000
0100
0010
0000
0010
0000
,
1000
0000
0000
0001
1000
0000
0100
0000
1000
0000
0000
0001
0100
0000
0001
0000
,
1000
0000
0000
0100
0010
0000
0001
0000
0020
0000
0000
0000
0030
0000
0000
0000
,
1000
0000
0000
0100
1000
0000
0000
0100
1000
0000
0000
0001
0010
0000
0000
0001
,
0010
0000
0000
0001
0010
0000
0100
0000
1000
0000
0001
0000
0100
0000
0100
0000
,
0000
1020
0000
0100
0000
0001
0000
1000
,
0000
0100
0000
0001
0000
1000
1030
0000
,
0000
0201
0000
0010
0000
1000
0000
0301
,
0000
0000
0100
0000
0001
0000
0100
0001
0000
0000
1000
0000
0010
0000
1000
0010
,
0000
2100
0000
0001
0000
0100
0000
0010
,
0000
0100
0000
0100
0000
3001
0100
0000
,
0010
4000
0000
0000
3001
0400
0000
0300
,
0404
0000
0000
0300
4000
0000
0000
3003
,
1100
0000
0000
0100
1000
0000
0100
0000
0010
0000
0000
0100
1000
0000
0100
0000
,
0010
0000
0000
0100
1000
0000
0100
0000
0200
0000
0000
0000
0310
0000
0000
0000
,
0001
0000
0000
0010
0001
0000
0010
0000
0001
0000
0000
0100
0001
0000
0010
0000
,
0001
0000
0000
0001
0100
0000
0000
0100
0010
0000
0000
0010
1000
0000
0001
0000
,
0100
0000
0000
0100
0010
0000
1000
0000
0001
0000
0000
0010
0100
0000
1000
0000
,
0001
0000
0000
0100
0010
0000
1000
0000
0002
0000
0000
0000
0103
0000
0000
0000
,
0001
0000
0000
0001
1000
0000
0000
1000
0001
0000
0000
0001
0100
0000
0000
0100
,
0010
1000
0100
0010
0001
0101
0101
0000
;

//---------------dance-single - C. Picardy----------------
#NOTES:
     dance-single:
     :
     Challenge:
     11:
     0.829022,0.852438,0.550024,0.294941,0.581910,728.000000,659.000000,69.000000,37.000000,61.000000,11.000000,0.829022,0.852438,0.550024,0.294941,0.581910,728.000000,659.000000,69.000000,37.000000,61.000000,11.000000:
0000
0000
0000
0000
,
0000
0000
0000
0000
,
1000
0000
0100
1000
0100
0000
0010
0000
0001
0000
0010
0001
0010
0000
0001
0000
,
0100
0000
0001
0100
0001
0000
1000
0000
0010
0000
1000
0010
1000
0000
MMMM
0000
,
0001
0000
1000
0010
1000
0000
0001
0000
1000
0000
0001
0100
0001
0000
1000
0000
,
0001
0000
1000
0100
1000
0000
0001
0000
0010
0000
0100
1000
0100
0000
0010
0000
,
0001
0000
0100
1000
0100
0000
0001
0000
0010
0000
1000
0010
1000
0000
0001
0000
,
0100
0000
1000
0100
1000
0000
0010
0000
0001
0000
0010
1000
0010
0000
MMMM
0000
,
0001
0000
0001
1000
0100
0000
1000
0000
0010
0000
0010
0100
0001
0000
1000
0000
,
0100
0000
0100
0010
0001
0010
0100
0000
1000
0000
0001
0000
0001
0100
0001
0100
,
0000
0011
0100
0110
0000
1010
0000
0101
,
0000
1100
0100
0110
0000
1100
0000
0110
,
0000
0011
1000
1001
0000
0101
0000
0110
,
0000
0000
1001
0000
1000
0001
1000
0001
0000
0000
0110
0000
0100
0010
0100
0010
,
0000
11M0
1000
M1M1
0000
1M10
0000
M011
,
0000
01M1
1000
1M1M
0000
M011
0000
M1M1
,
1000
0001
1000
0001
1000
0100
0010
0100
,
0010
0100
0010
0100
0010
0100
0010
0100
0010
0100
0010
0100
0010
0100
0010
0100
,
0010
0000
0100
1000
0001
0000
0100
0000
0010
0000
1000
0001
0100
0000
0010
0000
,
1000
0000
0001
0010
0100
0000
1000
0000
0100
0000
0010
0100
1000
0000
0001
0000
,
0100
0000
0001
0010
0100
0000
0010
0000
0001
0000
1000
0010
0100
0000
0001
0000
,
1000
0000
0100
0010
0001
0000
1000
0000
0010
0000
0100
0001
1000
0000
0100
0000
,
0010
0000
0001
0010
0100
0000
1000
0000
0001
0000
1000
0100
0010
0000
0001
0000
,
1000
0000
0001
0100
0010
0000
1000
0000
0001
0000
0100
0010
1000
0000
MMMM
0000
,
0011
0000
0010
0001
0100
0000
0010
0000
1010
0000
0010
1000
0100
0000
0010
0000
,
0110
0000
0100
1000
0001
0010
0001
0000
1000
0000
0010
0000
0100
0001
0100
0010
,
0000
1M00
1000
10M0
1000
1M10
1000
10M1
,
1000
110M
1000
1M00
1000
11M0
0100
011M
,
0010
M011
0001
0M01
0001
M101
0001
1M01
,
0001
0000
MMM1
0000
0001
0010
0100
1000
0000
0000
1000
0000
1000
0100
0010
0001
,
0000
M100
0100
01M0
0100
M101
0100
011M
,
0100
1M10
0010
001M
0010
M110
0010
1M1M
,
1000
0000
0001
1000
0001
0000
1000
0000
1000
0000
0001
0000
0001
0000
1000
0000
,
0010
0100
0010
0100
0010
0100
0010
0100
0010
0100
0010
0100
0010
0100
0010
0100
,
0010
0000
1000
0001
0100
0000
0010
0000
1000
0000
0100
0010
0001
0000
1000
0000
,
0001
0000
0010
0100
1000
0000
0001
0000
1000
0000
0100
0010
0001
0000
1000
0000
,
0010
0000
0100
0010
1000
0000
0100
0000
0010
0000
0001
0100
0010
0000
1000
0000
,
0001
0000
0001
0100
1000
0000
1000
0100
0001
0000
0001
0100
0010
0000
1000
0000
,
1001
0000
0100
0010
1000
0000
0100
0000
0010
0000
0100
1000
0010
0000
0100
0000
,
0001
0000
1000
0100
0001
0000
0100
0000
1000
0000
0001
0100
0010
0000
MMMM
0000
,
0001
0000
0001
0010
0100
0000
0100
0010
1000
0000
1000
0010
0001
0000
0001
0100
,
1000
0000
1000
0100
0001
0100
1000
0000
0100
0000
0010
1000
0010
0100
0001
1000
,
0000
0000
0002
0000
0200
0003
0020
0300
0200
0030
0002
0300
0200
0003
2000
0300
,
0000
0000
3200
0000
0020
0300
2000
0030
0200
3000
0002
0300
0200
0003
0020
0300
,
0000
0000
0032
0000
0020
0003
0200
0030
0010
0301
0020
0000
0200
0030
2000
0300
,
0001
3000
0101
0000
0100
0001
0100
0001
0000
0M0M
1010
0000
1000
0010
1000
0010
,
0000
M0M0
0101
0000
0001
0000
0101
0000
0100
0000
0101
0000
0100
0000
0100
0000
,
0010
1000
0010
0000
1010
0000
1000
0000
1010
0000
0010
0000
1010
0000
1001
0000
,
0101
1000
0001
1000
0001
0010
0100
1000
,
2200
0000
0000
0000
0022
0000
0000
3333
,
1001
0000
0100
0010
1000
0000
0001
0000
0010
0000
0100
0010
0001
0000
1000
0000
,
0100
0000
0010
0100
1000
0000
0001
0000
0100
0000
0010
0100
0001
0000
1000
0000
,
0100
0000
0010
0100
1000
0000
0001
0000
0100
0000
0010
1000
0001
0000
0010
0000
,
0100
0000
0010
0001
0010
0000
0100
1000
0100
0000
0010
0001
0010
0000
0100
0000
,
1000
0000
0001
0100
0010
0100
0001
0000
1000
0000
0100
1000
0010
1000
0100
0000
,
0010
0000
0001
0010
0100
0010
0001
0000
1000
0000
1000
0100
0010
0100
1000
0000
,
0101
0000
0001
0100
0010
0000
1000
0000
1001
0000
1000
0001
0100
0000
0010
0000
,
0110
0000
1000
0001
1000
0001
1000
0000
0100
0000
0010
0000
0001
0010
0100
1000
,
0000
0202
0000
0010
0300
2000
0000
0010
,
0003
0200
0000
0001
0000
0010
0010
3300
,
0000
2002
0000
0010
0003
0002
0000
0010
,
3003
0000
1001
0000
1000
0001
0100
0010
0000
0000
1001
0000
0010
0100
1000
0001
,
0000
0202
0000
0010
0003
0002
0000
1000
,
0300
2000
0000
0010
0003
0001
0002
0000
,
3003
0000
1000
0100
1000
0000
0001
0000
0010
0000
0001
0000
0010
0000
0100
0000
,
1000
0100
1000
0100
1000
0100
1000
0100
0010
0001
0010
0001
0010
0001
0010
0001
,
1000
0000
0001
0100
0001
0000
0100
0000
0110
0000
1000
0010
1000
0000
0001
0000
,
0101
0000
0100
0001
0100
0000
0010
0000
1010
0000
1000
0001
1000
0000
0100
0000
,
1100
0000
0010
0100
1000
0000
0001
0000
0101
0000
0100
0010
1000
0000
0001
0000
,
1001
0000
1000
0001
0100
0000
0010
1000
0001
0000
0010
0100
1000
0000
0001
0000
,
0100
0000
0001
0010
0100
0000
1000
0000
0010
0000
0100
0010
1000
0000
0100
0000
,
0010
0000
0001
0010
0100
0000
0100
0000
2000
0000
0001
0MM0
3001
0000
MMMM
0000
,
0101
0000
0010
0100
1000
0000
0010
0100
0001
0000
0010
0100
1000
0000
0010
0100
,
0001
0000
1000
0100
0010
0100
1000
0000
0001
0000
1100
0000
0101
0000
0000
0000
;
