#TITLE:Kindred Dreams;
#SUBTITLE:;
#ARTIST:Anders Enger Jensen;
#TITLETRANSLIT:;
#SUBTITLETRANSLIT:;
#ARTISTTRANSLIT:;
#GENRE:;
#CREDIT:;
#BANNER:kindreddreamsbn.png;
#BACKGROUND:kindreddreamsbg.png;
#LYRICSPATH:;
#CDTITLE:;
#MUSIC:Kindred Dreams.ogg;
#OFFSET:-0.025000;
#SAMPLESTART:14.217998;
#SAMPLELENGTH:14.000003;
#SELECTABLE:YES;
#BPMS:0.000000=135.000000
;
#STOPS:
;
#BGCHANGES:16.000=spacenebulabackground.mp4=1.000=1=0=1=SongBgWithMovieViz==CrossFade==,
32.000=flash=1.600=0=0=1=====,
32.250=spacenebulabackground.mp4=1.000=0=0=1=====,
64.000=wormholemotion.mp4=1.000=0=1=1=StretchRewind==FadeUp==,
96.000=sunburstradiation.mp4=1.000=1=1=1=StretchRewind==CrossFade==,
128.000=motionbackgroundloop.mp4=1.000=0=1=1=StretchRewind==CrossFade_Faster==,
160.000=asbtractspacemotion.mp4=1.000=0=1=1=StretchRewind==CrossFade_Faster==,
188.000=kindreddreamsbg.png=1.000=0=0=1=====,
188.750=kindreddreamsbg.png=1.000=0=0=1====#FF0000=,
189.500=kindreddreamsbg.png=1.000=0=0=1====#00FF00=,
190.500=kindreddreamsbg.png=1.000=0=0=1====#FFFF00=,
191.000=kindreddreamsbg.png=1.000=0=0=1====#00FFFF=,
191.250=kindreddreamsbg.png=1.000=0=0=1====#FF00FF=,
191.500=kindreddreamsbg.png=1.000=0=0=1=====,
192.000=flash=1.600=0=0=1=====,
192.250=spacenebulabackground.mp4=1.000=0=1=1=StretchRewind====,
224.000=wormholemotion.mp4=1.000=0=1=1=StretchRewind==FadeUp==,
256.000=kindreddreamsbg.png=1.000=0=0=1===CrossFade_Faster==,
99999=-nosongbg-=1.000=0=0=0 // don't automatically add -songbackground-
;
#KEYSOUNDS:;
#ATTACKS:;

//---------------dance-single - C. Picardy----------------
#NOTES:
     dance-single:
     :
     Challenge:
     9:
     0.550237,0.643461,0.381696,0.442420,0.169161,444.000000,400.000000,44.000000,51.000000,50.000000,8.000000,0.550237,0.643461,0.381696,0.442420,0.169161,444.000000,400.000000,44.000000,51.000000,50.000000,8.000000:
0000
0000
0000
0000
,
0000
0000
0000
0000
,
0000
0000
0000
0000
,
0000
0000
0000
0000
,
0200
0000
0310
0M00
2000
0000
3100
M000
,
0020
0000
0130
00M0
0020
0000
0031
00M0
,
0200
0000
0301
0M00
2000
0000
3010
M000
,
0220
0000
0000
0000
0000
0000
0000
0000
0330
0000
1000
0000
1000
0100
0010
0000
,
1002
0000
2003
0200
0000
0001
0000
3300
,
2001
0000
3002
0200
0000
1000
0000
0303
,
1001
M00M
0100
0010
0000
2002
0000
3003
,
M01M
0000
0100
0000
0000
0000
0022
0000
0000
0000
0033
0000
0010
0000
0010
0100
,
2000
0000
0100
0200
0000
0010
0000
3300
,
2000
0000
0001
0002
0000
0010
0000
3003
,
0001
0010
0100
1000
MM00
0202
0000
0303
,
1000
0000
0100
0000
0010
0000
0001
0000
00MM
0100
0010
0000
0100
0000
0010
1000
,
0100
0010
0001
0010
0100
1000
1001
M00M
,
0001
0100
0010
0100
0001
0010
0110
0MM0
,
1000
0100
0010
0001
00MM
2200
0000
3300
,
M1M1
0000
0101
0000
0M0M
0000
2020
0000
0000
0000
3030
0000
0001
0000
0001
1000
,
0100
0010
0001
0100
0010
1000
1100
MM00
,
0001
0010
0100
1000
0001
0100
0101
0M0M
,
0100
0010
0100
0010
0MM0
2002
0000
3003
,
1000
0000
0001
0000
1000
0000
0001
0000
0000
1000
0001
0000
0100
0000
0001
0010
,
0001
0010
0011
0001
0010
0001
0011
0001
,
0100
0010
0110
0100
0010
0100
0110
0010
,
1000
0010
1010
1000
0010
1000
1010
1000
,
0100
0000
1000
0000
1100
0000
0100
0000
1000
0000
0100
0000
1100
0000
0100
0010
,
0001
1000
1001
0001
1000
0001
1001
0100
,
0001
0100
0101
0001
0100
0001
0101
0100
,
0010
0100
0010
0100
0010
1000
0010
1000
,
0001
0000
1000
0000
0001
0000
1000
0100
1000
0100
0000
1000
0001
0000
1000
0010
,
4000
0010
0001
0010
,
0001
0010
3004
0010
,
0403
0010
0001
0010
,
0310
0000
1000
0000
0010
0000
1000
0000
0001
0000
1000
0000
0001
0000
1000
0100
,
0040
0001
0100
0001
,
0100
0001
0430
1000
,
0340
0100
1000
0100
,
1030
0000
0100
0000
1000
0000
0100
0000
0010
0000
0001
0010
0001
0000
1000
0100
,
1000
0000
0100
0000
0010
0000
0100
0000
1000
0000
0100
0000
0010
0000
0001
0010
,
0001
0000
0100
0000
0010
0000
0100
0010
0100
0000
0010
0000
1000
0000
0010
1000
,
0010
0000
0100
0000
0001
0000
1000
0100
1000
0000
0100
0000
0010
0000
0001
0010
,
0001
0000
0100
0000
0010
0000
1000
0100
1000
0000
0001
0000
0100
0000
0010
1000
,
0010
0000
1000
0000
0001
0000
0010
0100
1000
0000
0100
0000
0010
0000
0001
0010
,
0100
0000
1000
0000
0010
0000
0100
0010
1000
0000
0100
0000
0010
0000
0001
0010
,
0100
0000
1000
0000
0001
0000
0100
0000
0010
0000
0100
0010
0100
0010
0100
0010
,
0100
0000
0000
0100
0000
0000
0010
0000
0000
0100
0010
0000
0010
1000
0001
0000
,
2001
0000
0100
0200
0000
0001
0000
3300
,
1002
0000
0100
0200
0000
1000
0000
0303
,
0110
0MM0
1010
1010
M0M0
0202
0000
0303
,
1100
0000
1100
0000
MM00
0000
0022
0000
0000
0000
0033
0000
1000
0000
0010
0100
,
0002
0000
1000
2000
0000
0010
0000
3003
,
0200
0000
0001
0002
0000
0010
0000
0303
,
0001
0100
0010
1000
M0M0
2200
0000
3300
,
0100
0000
0010
0000
0001
0000
0010
0000
00MM
0100
1000
0000
0010
0000
0010
0100
,
0001
0100
1000
0100
0001
0100
1000
0100
,
0001
0010
0100
0010
1000
0010
0100
0010
,
0001
0010
0100
1000
MM00
0202
0000
0303
,
1M1M
0000
1010
0000
M0M0
0000
0220
0000
0000
0000
0330
0000
0100
0000
0100
0001
,
1000
0100
0001
0100
1000
0100
0001
0100
,
1000
0000
0010
0000
0001
0000
0010
0000
1000
0000
0010
0000
0100
0000
0001
0100
,
0010
1000
0001
0001
M00M
2002
0000
3003
,
M10M
0000
0010
0000
0100
0000
0010
0000
0000
0001
1000
0000
1001
0000
0010
0100
,
2000
0100
3100
0000
;

//---------------dance-single - C. Picardy----------------
#NOTES:
     dance-single:
     :
     Beginner:
     1:
     0.080553,0.138799,0.052049,0.104099,0.000000,65.000000,59.000000,6.000000,12.000000,0.000000,0.000000,0.080553,0.138799,0.052049,0.104099,0.000000,65.000000,59.000000,6.000000,12.000000,0.000000,0.000000:
0000
0000
0000
0000
,
0000
0000
0000
0000
,
0000
0000
0000
0000
,
0000
0000
0000
0000
,
1000
0000
0000
0000
,
0000
0000
0000
0000
,
0001
0000
0000
0000
,
0000
0000
0000
0000
,
0010
0000
0000
0000
,
0010
0000
0000
0000
,
1000
0000
1000
0000
,
1000
0000
0000
0000
,
0001
0000
0000
0000
,
0001
0000
0000
0000
,
0001
0000
0001
0000
,
0001
0000
0000
0000
,
0100
0000
0000
0000
,
0010
0000
0000
0000
,
0100
0000
0100
0000
,
0100
0000
0000
0000
,
0010
0000
0000
0000
,
0100
0000
0000
0000
,
0010
0000
0010
0000
,
0010
0000
0000
0000
,
1001
0000
0000
0000
,
1000
0000
0000
0000
,
0001
0000
0000
0000
,
1000
0000
0000
0000
,
0001
0000
0000
0000
,
0100
0000
0000
0000
,
0010
0000
0000
0000
,
0100
0000
0000
0000
,
0020
0000
0000
0000
,
0000
0000
0030
0000
,
0200
0000
0000
0000
,
0300
0000
0000
0000
,
0002
0000
0000
0000
,
0000
0000
0003
0000
,
2000
0000
0000
0000
,
3000
0000
0000
0000
,
2002
0000
0000
0000
,
0000
0000
3003
0000
,
0220
0000
0000
0000
,
0330
0000
0000
0000
,
0220
0000
0000
0000
,
0000
0000
0330
0000
,
2002
0000
0000
0000
,
3003
0000
0000
0000
,
1000
0000
0000
0000
,
0001
0000
0000
0000
,
0100
0000
0100
0000
,
0100
0000
0000
0000
,
0010
0000
0000
0000
,
0100
0000
0000
0000
,
0010
0000
0010
0000
,
0010
0000
0000
0000
,
0001
0000
0000
0000
,
1000
0000
0000
0000
,
0001
0000
0001
0000
,
0001
0000
0000
0000
,
0100
0000
0000
0000
,
0010
0000
0000
0000
,
1000
0000
1000
0000
,
1000
0000
0000
0000
,
1001
0000
0000
0000
;

//---------------dance-single - C. Picardy----------------
#NOTES:
     dance-single:
     :
     Medium:
     5:
     0.397806,0.475602,0.546519,0.572544,0.004337,321.000000,258.000000,63.000000,66.000000,0.000000,0.000000,0.397806,0.475602,0.546519,0.572544,0.004337,321.000000,258.000000,63.000000,66.000000,0.000000,0.000000:
0000
0000
0000
0000
,
0000
0000
0000
0000
,
0000
0000
0000
0000
,
0000
0000
0000
0000
,
0100
0110
0010
0110
,
1000
1100
0001
0101
,
1000
1010
0001
0011
,
2200
0000
0000
3300
,
1001
0000
0100
0010
0000
2002
0000
3003
,
0110
0000
1000
0001
0000
0220
0000
0330
,
1000
0000
0001
1000
0000
2002
0000
3003
,
0100
0010
0000
0220
0000
0000
0330
0000
,
0110
0000
1000
0001
0000
0220
0000
0330
,
1001
0000
0010
0100
0000
2002
0000
3003
,
1000
0100
1000
0100
0000
0202
0000
0303
,
0001
0010
0001
0010
0000
2020
0000
3030
,
0110
0000
0100
0010
0000
0220
0000
0330
,
1001
0000
1000
0001
0000
2002
0000
3003
,
0010
0100
0010
0100
0000
2002
0000
3003
,
0100
0010
0000
2002
0000
0000
3003
0000
,
0101
0000
0100
0001
0000
0202
0000
0303
,
1100
0000
1000
0100
0000
2200
0000
3300
,
1000
0100
0010
0001
0000
2002
0000
3003
,
0001
0010
0100
1000
0000
0220
0000
0000
,
0330
0100
0000
0010
0000
0100
0000
0010
,
0000
1000
0000
0001
0000
1000
0000
1000
,
0000
0001
0000
0100
0000
0001
0000
0100
,
0000
0010
0000
1000
0000
0001
0000
0001
,
0000
1000
0000
1100
0000
0001
0000
0101
,
0000
0010
0000
1010
0000
1000
0000
1100
,
0000
0101
0000
0110
0000
1010
0000
1100
,
0000
0110
0000
2002
0000
0000
3003
1000
,
0200
0010
1000
1000
,
0010
1000
0320
0001
,
0230
0010
0001
0001
,
0310
0000
1000
0000
0001
0000
0010
0100
,
2000
0001
0100
0100
,
0001
0100
3002
0100
,
0023
0001
0100
0001
,
1030
0000
0010
0000
0100
0000
0001
0010
,
0200
0001
1000
1000
,
0001
0000
1000
0000
0320
0000
0130
0001
,
0020
1000
0001
1000
,
0031
0000
0010
0000
0100
0000
1000
0001
,
0002
0100
0010
0010
,
1000
0000
0010
0000
2003
0000
0000
3100
,
0020
0001
0100
0031
,
0100
0000
0000
0100
0000
0000
0100
0000
0000
0000
0010
0000
0100
0000
0000
0000
,
1010
0000
0001
0010
0000
0022
0000
0033
,
1100
0000
0001
0100
0000
0202
0000
0303
,
1001
0000
1000
0001
0000
0220
0000
0330
,
0100
0010
0000
2002
0000
0000
3003
0000
,
0101
0000
1000
0100
0000
2200
0000
3300
,
0011
0000
0100
0010
0000
2002
0000
3003
,
1000
0001
1000
0001
0000
0220
0000
0330
,
0001
1000
0001
1000
0000
0220
0000
0330
,
1000
0100
0010
0000
0011
0000
0101
0000
,
0010
1000
0100
0000
0110
0000
1100
0000
,
0001
0100
0100
0000
0010
1000
1000
0000
,
0100
0010
0010
0000
0010
0001
0001
0000
,
0100
0010
0100
0000
1010
0000
0110
0000
,
1000
0010
1000
0000
1100
0000
0110
0000
,
0001
0010
0010
0000
0100
1000
1000
0000
,
0010
0100
0100
0000
0001
1000
1000
0000
,
0202
0000
0303
0000
;

//---------------dance-single - C. Picardy----------------
#NOTES:
     dance-single:
     :
     Easy:
     3:
     0.267683,0.335719,0.260247,0.407721,0.000000,216.000000,186.000000,30.000000,47.000000,0.000000,0.000000,0.267683,0.335719,0.260247,0.407721,0.000000,216.000000,186.000000,30.000000,47.000000,0.000000,0.000000:
0000
0000
0000
0000
,
0000
0000
0000
0000
,
0000
0000
0000
0000
,
0000
0000
0000
0000
,
0010
0010
0100
0100
,
0001
0001
1000
1000
,
0001
1000
0001
1000
,
0220
0000
0000
0330
,
1000
0100
2200
3300
,
0001
0100
0202
0303
,
1000
1000
0001
0001
,
0100
0010
0020
0030
,
1000
0001
0022
0033
,
1000
0010
2020
3030
,
0100
0100
0010
0010
,
1000
0010
0200
0000
,
0301
1000
0100
0100
,
0010
0001
1000
1000
,
0001
0010
0001
1000
,
0100
0100
0020
0030
,
0001
0100
0010
0010
,
1000
0001
0100
0100
,
0010
1000
0100
0010
,
0001
1000
2000
0000
,
3000
1001
0000
0101
,
0000
0110
0000
1010
,
0000
1001
0000
1100
,
0000
0110
0000
0011
,
0001
0011
0000
1100
,
1000
1100
0000
0101
,
0001
0101
0000
0110
,
0100
0110
0000
1001
,
0200
0010
0000
0001
,
0000
0010
0302
0000
,
2003
0010
0000
0100
,
3001
0001
0000
1000
,
0020
1000
0000
0100
,
0000
1000
2030
0000
,
3002
1000
0000
0100
,
0013
0010
0000
0110
,
2000
0000
3200
0000
,
0320
0000
0032
0000
,
0023
0000
0230
0000
,
1300
0001
0000
0101
,
0200
0000
0320
0000
,
2030
0000
3002
0000
,
0023
0000
0230
0300
,
2002
0000
0000
3003
,
0100
0010
2002
3003
,
0010
0100
2002
3003
,
1000
0001
0100
0010
,
1000
0100
0020
0030
,
0001
0100
2020
3030
,
1000
0100
0022
0033
,
0100
0100
0010
1000
,
0001
0001
0010
0100
,
1000
0001
1000
0001
,
0100
0010
0100
0010
,
1000
1000
0100
0010
,
0001
0100
0220
0330
,
1000
0010
1000
0001
,
0010
0100
0010
0001
,
0100
0100
0010
1000
,
0001
0001
0010
0100
,
0220
0000
0330
0000
;

//---------------dance-single - C. Picardy----------------
#NOTES:
     dance-single:
     :
     Hard:
     7:
     0.489513,0.531555,0.242897,0.373021,0.095424,395.000000,367.000000,28.000000,43.000000,4.000000,0.000000,0.489513,0.531555,0.242897,0.373021,0.095424,395.000000,367.000000,28.000000,43.000000,4.000000,0.000000:
// measure 0
0000
0000
0000
0000
,  // measure 1
0000
0000
0000
0000
,  // measure 2
0000
0000
0000
0000
,  // measure 3
0000
0000
0000
0000
,  // measure 4
2000
0010
3002
0010
,  // measure 5
2003
0100
3002
0100
,  // measure 6
0013
1000
0100
0010
,  // measure 7
2002
0000
0000
0000
0000
0000
0000
0000
3003
0000
1000
0000
0001
1000
0001
0000
,  // measure 8
1001
0000
0100
0010
0000
0010
0100
0000
,  // measure 9
0011
0000
0001
0010
0000
0010
0001
0000
,  // measure 10
1100
0000
0100
0110
0000
0022
0000
0033
,  // measure 11
1000
0000
1100
0000
0000
0000
0202
0000
0000
0000
0303
0000
0100
0000
0010
0100
,  // measure 12
0010
0000
1000
0010
0000
0010
1000
0000
,  // measure 13
1100
0000
0100
0010
0000
0010
0001
0000
,  // measure 14
1000
0100
0010
0001
0000
2002
0000
3003
,  // measure 15
0001
0000
0100
0000
0010
0000
1000
0000
0000
0010
1000
0000
0010
0000
1000
0100
,  // measure 16
0010
0100
1000
0100
0010
0100
1000
0010
,  // measure 17
0100
0001
0010
0001
0100
0001
0010
0001
,  // measure 18
1000
1000
0010
0100
0000
0220
0000
0330
,  // measure 19
0001
0000
1001
0000
0000
0000
2200
0000
0000
0000
3300
0000
1000
0000
0001
0100
,  // measure 20
0010
0100
0001
0100
0010
0100
0001
0010
,  // measure 21
0100
0010
0001
0010
0100
0010
0001
0010
,  // measure 22
0100
0100
0010
0001
0000
2200
0000
3300
,  // measure 23
1000
0000
1000
0000
0001
0000
0100
0000
0000
0001
0100
0000
0001
0000
1000
0100
,  // measure 24
1000
0100
0001
0000
0001
0100
1000
0000
,  // measure 25
1000
0010
0001
0000
0001
0010
1000
0000
,  // measure 26
0001
0100
1000
0000
1000
0100
0001
0000
,  // measure 27
0001
0010
1000
0000
1000
0010
0001
0000
,  // measure 28
0001
0010
0001
0010
0100
0010
0100
0010
,  // measure 29
0100
1000
0100
1000
0010
1000
0010
1000
,  // measure 30
0010
0100
0010
0100
1000
0100
1000
0100
,  // measure 31
0001
0000
0100
0000
0001
0000
0100
0000
0001
0100
0000
0100
0001
0000
0100
0010
,  // measure 32
0200
0010
0001
0001
,  // measure 33
1000
0000
0010
0000
0302
0000
0013
0100
,  // measure 34
2000
0010
0001
0001
,  // measure 35
3100
0000
0010
0000
0100
0000
0010
0000
0001
0000
0010
0000
0001
0000
0010
0001
,  // measure 36
0020
0100
0001
0001
,  // measure 37
1000
0000
0001
0000
0230
0000
1300
0010
,  // measure 38
0200
0010
0001
0010
,  // measure 39
0310
0000
1000
0000
0010
0000
1000
0000
0100
0000
1000
0010
1000
0000
0001
0010
,  // measure 40
0002
0100
0010
0010
,  // measure 41
1000
0000
0010
0000
2003
0000
3010
0100
,  // measure 42
0020
1000
0100
1000
,  // measure 43
0031
0000
0010
0000
0001
0000
0010
0000
0100
0000
0010
0000
0100
0000
0010
0100
,  // measure 44
2000
0010
0001
0001
,  // measure 45
0100
0000
0001
0000
3200
0000
0310
0001
,  // measure 46
0020
0000
0100
0000
0031
0000
0100
0010
,  // measure 47
0100
0000
0000
0100
0000
0000
0010
0000
0000
0001
1000
0000
1001
0000
MMMM
0000
,  // measure 48
0110
0000
1000
0010
0000
0010
1000
0000
,  // measure 49
0101
0000
0100
0010
0000
0010
0100
0000
,  // measure 50
1001
0000
1000
1100
0000
0202
0000
0303
,  // measure 51
1000
0000
1010
0000
0000
0000
0022
0000
0000
0000
0033
0000
1000
0000
0100
0010
,  // measure 52
0001
0000
0001
0100
0000
0100
0010
0000
,  // measure 53
1001
0000
0010
0100
0000
0100
0010
0000
,  // measure 54
0001
0010
0100
1000
0000
2002
0000
3003
,  // measure 55
1000
0000
0010
0000
0100
0000
0001
0000
0000
1000
0001
0000
0100
0000
0001
0100
,  // measure 56
0010
0100
0001
0100
0010
0100
0001
0100
,  // measure 57
0010
1000
0100
1000
0010
1000
0100
0010
,  // measure 58
0001
0001
1000
0100
0000
0022
0000
0033
,  // measure 59
0100
0000
0110
0000
0000
0000
2002
0000
0000
0000
3003
0000
0001
0000
1000
0100
,  // measure 60
0010
0100
1000
0100
0010
0100
1000
0100
,  // measure 61
0010
0001
0010
0100
0010
0001
0010
0100
,  // measure 62
1000
1000
0100
0010
0000
2002
0000
3003
,  // measure 63
0001
0000
0001
0000
0100
0000
0010
0000
0000
0010
0100
0000
0001
0000
0001
0010
,  // measure 64
0200
0010
0310
0000
;
