#TITLE:Keep the Groovin';
#SUBTITLE:;
#ARTIST:Yuzo Koshiro feat. BGM1401;
#TITLETRANSLIT:;
#SUBTITLETRANSLIT:;
#ARTISTTRANSLIT:;
#GENRE:;
#CREDIT:;
#BANNER:keepthegroovinbn.png;
#BACKGROUND:keepthegroovinbg.png;
#LYRICSPATH:;
#CDTITLE:;
#MUSIC:keepthegroovin.ogg;
#OFFSET:-0.047646;
#SAMPLESTART:61.989983;
#SAMPLELENGTH:13.999999;
#SELECTABLE:YES;
#BPMS:0.000000=108.510002
;
#STOPS:
;
#BGCHANGES:16.000=flash=1.600=0=0=1=====,
16.250=bridgenighttime.mp4=1.000=0=0=0=StretchNoLoop====,
32.000=flash=1.600=0=0=1=====,
32.250=bridgenighttime.mp4=1.000=0=0=1=====,
48.000=brooklynbridge.mp4=1.000=1=0=0=StretchNoLoop==CrossFade==,
64.000=brooklynbridge3.mp4=1.000=1=0=0=StretchNoLoop==CrossFade==,
96.000=bridgenighttime.mp4=1.000=1=0=0=StretchNoLoop==CrossFade==,
112.000=brooklynbridge.mp4=1.000=1=0=0=StretchNoLoop==CrossFade==,
128.000=brooklynbridge3.mp4=1.000=1=0=0=StretchNoLoop==CrossFade==,
144.000=flash=1.600=0=0=1=====,
144.250=bridgenighttime.mp4=1.000=0=0=0=StretchNoLoop====,
159.750=brooklynbridge.mp4=1.000=1=0=0=StretchNoLoop==CrossFade==,
176.000=bridgenighttime.mp4=1.000=1=0=0=StretchNoLoop==CrossFade==,
192.000=brooklynbridge3.mp4=1.000=1=0=0=StretchNoLoop==CrossFade==,
208.000=flash=1.000=0=0=1=====,
208.250=keepthegroovinbg.png=1.000=0=0=1=====,
99999=-nosongbg-=1.000=0=0=0 // don't automatically add -songbackground-
;
#KEYSOUNDS:;
#ATTACKS:;

//---------------dance-single - C. Picardy----------------
#NOTES:
     dance-single:
     :
     Beginner:
     1:
     0.071539,0.110340,0.059414,0.000000,0.000000,59.000000,52.000000,7.000000,0.000000,0.000000,0.000000,0.071539,0.110340,0.059414,0.000000,0.000000,59.000000,52.000000,7.000000,0.000000,0.000000,0.000000:
0000
0000
0000
0000
,
0000
0000
0000
0000
,
0000
0000
0000
0000
,
0000
0000
0000
0000
,
0010
0000
0000
0000
,
0000
0000
0000
0000
,
0100
0000
0000
0000
,
0100
0000
0000
0000
,
0001
0000
0000
0000
,
0000
0000
0000
0000
,
1000
0000
0000
0000
,
0100
0000
0000
0000
,
1001
0000
0000
0000
,
1000
0000
0000
0000
,
1000
0000
0000
0000
,
0001
0000
0000
0000
,
0001
0000
0000
0000
,
0100
0000
0000
0000
,
0100
0000
0000
0000
,
0010
0000
0000
0000
,
0010
0000
0000
0000
,
1000
0000
0000
0000
,
0001
0000
0000
0000
,
0100
0000
0000
0000
,
0110
0000
0000
0000
,
0110
0000
0000
0000
,
0100
0000
0000
0000
,
0010
0000
0000
0000
,
1001
0000
0000
0000
,
1001
0000
0000
0000
,
0001
0000
0000
0000
,
1000
0000
0000
0000
,
0100
0000
0100
0000
,
0010
0000
0010
0000
,
0100
0000
0100
0000
,
0010
0000
0000
0000
,
0001
0000
0000
0000
,
1000
0000
0000
0000
,
0001
0000
0000
0000
,
1000
0000
0000
0000
,
0100
0000
0000
0000
,
0010
0000
0000
0000
,
0100
0000
0000
0000
,
0010
0000
0000
0000
,
1001
0000
0000
0000
,
0100
0000
0100
0000
,
0100
0000
0000
0000
,
0010
0000
0000
0000
,
1000
0000
0000
0000
,
1000
0000
0000
0000
,
0010
0000
0010
0000
,
0010
0000
0000
0000
,
1001
0000
0000
0000
;

//---------------dance-single - C. Picardy----------------
#NOTES:
     dance-single:
     :
     Challenge:
     9:
     0.534723,0.582042,0.101852,0.381945,0.746915,441.000000,429.000000,12.000000,45.000000,0.000000,3.000000,0.534723,0.582042,0.101852,0.381945,0.746915,441.000000,429.000000,12.000000,45.000000,0.000000,3.000000:
// measure 0
0000
0000
0000
0000
,  // measure 1
0000
0000
0000
0000
,  // measure 2
1000
0000
0100
1000
0100
1000
0000
0000
0001
0000
0100
0001
0100
0001
0000
0000
,  // measure 3
1000
0000
0010
1000
0010
1000
0000
0000
0200
0010
0000
0000
0310
0000
0000
0000
,  // measure 4
0001
0000
0010
0000
0100
0000
1000
0000
0000
0100
0000
0100
0010
0000
0001
0000
,  // measure 5
1000
0000
0010
0100
0001
0000
1000
0000
1000
0000
0010
0100
0001
0000
0001
0000
,  // measure 6
1000
0000
0100
0000
0010
0000
0001
0000
0000
0010
0000
0010
0100
0000
1000
0000
,  // measure 7
0001
0000
0001
0000
0200
0000
0000
0010
0000
0010
0000
0310
0000
0000
0000
0000
,  // measure 8
0110
0000
0100
0000
0001
0000
0010
0000
0000
0100
0000
0100
1000
0000
0010
0000
,  // measure 9
0100
0001
0000
0000
0101
0000
0000
0000
1000
0100
0000
0000
1100
0000
0000
0000
,  // measure 10
0010
0000
0010
0000
0001
0000
0100
0000
0000
0010
0000
0010
1000
0000
0001
0000
,  // measure 11
0100
0000
0100
0000
0020
0000
0000
1030
0001
0100
0001
1000
0100
1000
0001
0100
,  // measure 12
0001
2000
0000
0000
0000
0000
0001
3001
,  // measure 13
0100
0000
0001
0100
0001
0000
0100
0010
0000
0010
0000
1000
0001
0000
1000
0000
,  // measure 14
0100
0000
1000
0001
0100
0000
0001
0100
0000
0001
0000
0100
0010
0000
1000
0000
,  // measure 15
0100
0000
0010
0001
0010
0000
0100
1000
0000
0100
0010
0100
0010
0100
0010
0100
,  // measure 16
0010
0000
0010
0000
0001
2000
0000
0200
0000
0000
0000
0000
0010
0000
3300
0000
,  // measure 17
1000
0000
0001
0200
0000
0002
0000
0010
0000
0000
0000
0000
0303
0000
0001
0000
,  // measure 18
0100
0000
0100
0010
0000
1000
0000
0002
0000
0000
0000
0000
1003
0000
0200
0020
,  // measure 19
0000
0000
0000
0000
0001
0000
0000
0000
0330
0100
1000
0100
1000
0100
1000
0100
,  // measure 20
1000
0000
0010
0000
1000
0001
0000
1000
0000
0100
0000
0010
0200
0000
0000
0000
,  // measure 21
0310
0000
0001
0100
0000
0010
0000
0200
0000
0010
0300
1000
0100
0000
0100
0000
,  // measure 22
0001
0000
0100
0010
0000
1000
0000
0020
0000
0000
0000
0000
0130
0000
0100
0020
,  // measure 23
0000
0000
0000
0000
1000
0000
0000
0000
0100
0000
0001
0000
0031
0000
1000
0001
,  // measure 24
0100
0000
0010
0000
1000
0100
0000
0020
0000
0000
0000
0000
0000
0130
1000
0100
,  // measure 25
1000
0000
0100
0010
0000
0010
0000
0002
0000
0000
0000
0000
1000
0000
0013
0000
,  // measure 26
0100
0000
1000
0010
0000
0100
0000
0002
0000
0000
0000
0000
0103
0000
0010
2000
,  // measure 27
0000
0000
0000
0000
0010
0000
0000
0000
3100
0000
1000
0001
0100
0000
0001
0000
,  // measure 28
0101
0000
1000
0000
0001
1000
0000
0020
0000
0000
0000
0000
1000
0000
0000
0130
,  // measure 29
0001
0100
0001
1000
0000
0100
0000
0020
0000
0000
0000
0000
0001
0000
0130
0010
,  // measure 30
0001
0000
0100
0010
0000
1000
0000
0200
0000
0000
0000
0000
0310
0000
0010
0200
,  // measure 31
0000
0000
1000
0000
0010
0001
0320
0000
,  // measure 32
0031
0000
0001
0000
0100
1000
0000
0200
0000
0000
0000
0000
0000
0310
0100
0001
,  // measure 33
0100
0000
0010
0100
0000
0001
0000
0020
0000
0000
0000
0000
0130
0000
1000
0100
,  // measure 34
0010
0000
0001
0010
0000
0100
0000
2000
0000
0000
0000
0000
0010
0000
0010
0000
,  // measure 35
3002
0000
0000
0000
0100
0000
0000
0000
1003
0100
1000
0001
0010
0100
1000
0001
,  // measure 36
2000
0000
0010
0000
0010
0000
0000
0001
0000
0001
0000
3100
1000
0000
0100
0000
,  // measure 37
0210
0000
0000
0300
0021
0000
0000
0030
0102
0000
0000
0000
0203
0000
0000
0320
,  // measure 38
0000
0000
1000
0000
1000
0000
0000
0100
0000
0100
0000
1030
0001
0000
0010
0000
,  // measure 39
0100
0000
0010
0001
0010
0000
0100
0010
0000
0000
0100
0010
0001
0100
0010
1000
,  // measure 40
0200
0000
0010
0000
0010
0000
0000
1000
0000
1000
0000
0310
0100
0000
0001
0000
,  // measure 41
2001
0000
0000
3000
2100
0000
0000
3000
0102
0000
0000
0003
2001
0000
0000
0000
,  // measure 42
3100
0000
0100
0010
0100
0000
1000
0001
0000
0100
0000
0010
1000
0000
0100
0000
,  // measure 43
0010
0000
0001
0010
0001
0000
1000
0001
0010
0001
1000
0001
0010
0001
0010
0100
,  // measure 44
1000
0001
0100
0002
0000
0000
0000
1000
0000
1003
0000
0010
0100
0000
0001
0000
,  // measure 45
1000
0000
0010
1000
0000
0001
1000
0100
0010
0001
0010
0100
1000
0100
1000
0100
,  // measure 46
0010
0001
0010
0002
0000
0000
0000
0103
0000
0100
0000
0010
0100
0000
0001
0000
,  // measure 47
1000
0000
0100
0010
0100
0000
1000
0001
0000
0000
0100
0010
0100
0000
0001
0100
,  // measure 48
0001
0100
0010
2000
0000
0000
0000
0100
0000
3100
0000
0001
0010
0000
0100
0000
,  // measure 49
0010
0000
0001
0010
0000
0100
1000
0100
0010
0001
0010
0100
1000
0100
0010
0001
,  // measure 50
0010
0100
1000
0020
0000
0000
1000
1000
0000
0100
0000
0100
0130
0000
0001
0000
,  // measure 51
1000
0000
0001
0000
1000
0100
1000
0100
0010
0001
0010
0001
0100
0010
1000
0001
,  // measure 52
2002
0000
0000
3003
;

//---------------dance-single - C. Picardy----------------
#NOTES:
     dance-single:
     :
     Easy:
     2:
     0.160053,0.198611,0.050926,0.144290,0.000000,132.000000,126.000000,6.000000,17.000000,0.000000,0.000000,0.160053,0.198611,0.050926,0.144290,0.000000,132.000000,126.000000,6.000000,17.000000,0.000000,0.000000:
0000
0000
0000
0000
,
0000
0000
0000
0000
,
1000
0000
1000
0000
,
0001
0000
0001
0000
,
0100
0000
0000
0000
,
0010
0000
0010
0000
,
1000
0000
0000
0000
,
0001
0001
0001
0000
,
1000
0000
0100
0000
,
0010
0000
0000
0000
,
0100
0000
0010
0000
,
1000
1000
1000
0000
,
1001
0000
0100
0000
,
0010
0000
0100
0000
,
0001
0000
1000
0000
,
0001
0000
0100
0000
,
0010
0010
0010
0000
,
0100
0100
0100
0000
,
0001
0001
0001
0000
,
2000
0000
0000
3000
,
0100
0100
0010
0000
,
0001
0001
1000
0000
,
0010
0010
1000
0000
,
0220
0000
0000
0330
,
1000
0001
1000
0000
,
0001
1000
0001
0000
,
0010
0100
0010
0000
,
2002
0000
0000
3003
,
1000
0100
0010
0001
,
0010
0100
1000
0100
,
0010
0001
0010
0100
,
2000
0000
0000
3000
,
0001
0100
0001
0100
,
0010
1000
0010
1000
,
0010
0100
0010
0100
,
0002
0000
0003
1000
,
0200
0000
0000
0300
,
0010
0001
1000
0010
,
0220
0000
0000
0330
,
0000
0000
0001
0100
,
0020
0000
0000
0030
,
1000
0100
0010
0001
,
2002
0000
0000
3003
,
0100
0000
0100
0100
,
0010
0002
0000
1000
,
1003
0000
0100
1000
,
0010
2000
0000
0010
,
3010
0000
0100
0000
,
0001
0200
0000
0001
,
0301
0000
1000
0010
,
0100
0002
0000
0100
,
0103
0010
1000
0001
,
0110
0000
0000
0000
;

//---------------dance-single - C. Picardy----------------
#NOTES:
     dance-single:
     :
     Medium:
     4:
     0.259480,0.308951,0.050926,0.186729,0.000000,214.000000,208.000000,6.000000,22.000000,0.000000,0.000000,0.259480,0.308951,0.050926,0.186729,0.000000,214.000000,208.000000,6.000000,22.000000,0.000000,0.000000:
0000
0000
0000
0000
,
0000
0000
0000
0000
,
1000
1000
0001
0001
,
0100
0100
0010
0010
,
0100
0100
0100
0200
0000
0000
0310
0000
,
1000
0001
1000
0000
,
0100
0100
0100
0200
0000
0000
0310
0000
,
0001
0001
0002
0000
,
1003
0001
1000
0002
0000
0000
1003
0000
,
0100
0100
0010
0000
,
0100
0010
0100
0020
0000
0000
0031
0000
,
0100
0020
2000
3030
,
0001
1000
0100
0010
,
0001
0000
1000
0000
0010
0000
0100
0001
,
0100
0010
1000
0100
,
0010
0000
0001
0000
1000
0000
0100
0010
,
0100
1000
0001
0000
0100
0000
0020
0000
,
1030
0001
0100
0000
0002
0000
0000
1003
,
1000
0100
0010
0001
,
0002
0000
0003
1000
,
0100
0010
0100
0010
,
0001
0100
0001
0100
,
0010
1000
0001
0000
0010
0000
0100
0000
,
0200
0000
0000
0300
,
0010
0000
0100
0000
0001
0000
1000
0001
,
0100
0000
0010
0000
1000
0000
0100
0010
,
0001
0010
0100
1000
,
0002
0000
1000
1003
,
0100
0100
0010
0000
0001
0000
0100
0000
,
0010
0010
1000
0000
0100
0000
0010
0010
,
0001
0000
0100
0000
0010
0000
1000
1000
,
0020
0000
1000
1030
,
0100
0010
0100
0000
0001
0000
1000
0000
,
0010
0100
0010
0000
1000
0000
0100
0010
,
0001
0000
0010
0000
0100
0000
1000
1000
,
2000
0000
3000
0001
,
0200
0001
0010
0301
,
0100
1010
0100
0011
,
0200
0010
1000
1300
,
0001
0000
0100
0000
0010
0000
1000
0001
,
0200
0010
1000
0310
,
1001
0110
1001
0110
,
2000
0001
0001
3001
,
0100
0000
0010
0000
0100
0000
0010
0100
,
0010
2000
0000
0010
,
3010
0000
0001
0000
0100
0000
0001
0010
,
0001
0020
0000
0001
,
0130
1000
0100
1000
,
0010
0100
0002
0000
0000
0000
1000
0000
,
1003
0000
0100
0010
,
0001
1000
2000
0000
0000
0000
0010
0000
,
3001
0000
1000
0000
0100
0000
1000
0001
,
0010
0000
0000
0000
;

//---------------dance-single - C. Picardy----------------
#NOTES:
     dance-single:
     :
     Hard:
     7:
     0.392858,0.425338,0.101852,0.186729,0.318288,324.000000,312.000000,12.000000,22.000000,0.000000,0.000000,0.392858,0.425338,0.101852,0.186729,0.318288,324.000000,312.000000,12.000000,22.000000,0.000000,0.000000:
0000
0000
0000
0000
,
0000
0000
0000
0000
,
1000
0000
0000
0001
1000
0000
0000
0000
1000
0000
0000
0001
1000
0000
0000
0000
,
0100
0000
0000
0010
0100
0000
0000
0000
0100
0010
0000
0000
0010
0000
0000
0000
,
0001
0000
0001
0000
1000
0000
1000
0000
0000
0001
0000
1000
0100
0000
0010
0000
,
0000
0001
1000
0010
,
0100
0000
0100
0000
0010
0000
0010
0000
0000
0100
0000
0010
0100
0000
0001
0000
,
1000
0000
0100
0000
0020
0000
0000
0031
0000
0000
0000
0000
0000
0000
0000
0000
,
1000
0000
1000
0000
0100
0000
0010
0000
0000
0001
0000
0001
0010
0000
0010
0000
,
0100
1000
0000
1000
,
0001
0000
0001
0000
0100
0000
0100
0000
0000
0010
0000
0100
0010
0000
1000
0000
,
0001
0000
0001
0000
0200
0000
0000
0010
0000
0310
0000
1000
0001
1000
0001
0000
,
1000
0100
1000
0100
0010
0100
1000
1000
,
0010
0100
0010
0100
0001
0100
0010
0010
,
1000
0001
0100
0001
1000
0001
0010
0010
,
0100
0000
0010
0000
0001
0000
0010
0000
0100
0000
1000
0000
0100
1000
0100
1000
,
0100
0000
1000
0000
0001
0100
0000
0001
0000
0000
0000
0000
1000
0000
0000
0000
,
0100
0000
1000
0100
0000
0010
0000
0010
0000
0000
0000
0000
0000
0000
0001
0000
,
0100
0000
0010
0100
0000
0001
0000
0001
0000
0000
0000
0000
1000
0000
0100
0020
,
0000
0000
0000
0000
0000
0000
0000
0000
0031
0000
0000
0000
0001
0010
0001
0010
,
0001
0010
0100
0010
0001
0010
0100
0100
,
1000
0100
0010
0100
1000
0100
0010
0010
,
0001
0000
0100
0000
0010
0000
0100
0000
0001
0000
0100
0000
0010
0000
1000
0002
,
0000
1000
0100
1003
,
1000
0000
0001
0000
0100
0000
0001
0000
1000
0000
0001
0000
0100
0000
0010
0100
,
0010
0100
0001
0100
0010
1000
0100
0010
,
0001
0000
1000
0001
0000
1000
0000
1000
0000
0000
0000
0000
0100
0000
1000
0020
,
0000
1000
0100
1030
,
0001
0000
0100
0000
0010
0100
0000
0001
0000
0000
0000
0000
1000
0000
0000
0100
,
1000
0000
0100
0010
0000
0001
0000
1000
0000
0000
0000
0000
0001
0000
0100
0001
,
0100
0000
0010
0100
0000
0001
0000
1000
0000
0000
0000
0000
0010
0000
0100
0002
,
0000
0000
0100
0013
,
0100
0000
0100
0000
0010
0001
0000
0002
0000
0000
0000
0000
0003
1000
0100
1000
,
0100
0000
0010
0100
0000
1000
0000
2000
0000
0000
0000
0000
3000
0000
0001
0100
,
0010
0000
1000
0001
0000
1000
0000
0100
0000
0000
0000
0000
0010
0000
0001
0000
,
0202
0000
0000
0000
0000
0000
0000
0000
0303
0000
0001
1000
0001
1000
0001
1000
,
0200
0010
0001
1300
,
0101
0000
0000
0000
1100
0000
0000
0000
0110
0000
0000
0000
0011
0000
0000
2002
,
0000
0000
0000
3003
,
0100
0000
0000
0000
0001
0000
0000
0000
1000
0000
0010
0100
0010
0100
0010
0100
,
0020
1000
0001
0130
,
1010
0000
0000
0000
0011
0000
0000
0000
1100
0000
0000
0000
0101
0000
0000
0220
,
0000
0000
0000
0330
,
0001
0000
0100
0000
0010
0000
0100
0001
,
0001
0000
0100
0002
0000
0000
0000
0000
1000
0000
0000
0000
0010
0000
0000
0000
,
0103
0000
0000
0000
0000
0100
0010
0000
1000
0000
0100
0000
0010
0000
0001
0000
,
1000
0000
0100
0020
0000
0000
0000
0000
0000
0000
0000
0000
0001
0000
0000
0000
,
0130
0000
0000
0000
1000
0000
0000
0000
0001
0000
0000
0000
0000
0000
1000
0100
,
1000
0000
0001
2000
0000
0000
0000
0000
0000
0000
0000
0000
0010
0000
0000
0000
,
3100
0000
0000
0000
0000
0001
0100
0000
1000
0000
0100
0000
0001
0000
0100
0000
,
0010
0000
1000
0200
0000
0000
0000
0000
0010
0000
0000
0000
0001
0000
0000
0000
,
1300
0000
1000
0000
0001
0000
0001
0000
0100
0001
0100
0001
1000
0000
0001
0000
,
0202
0000
0000
0303
;
