#TITLE:Jazz Boss Tune 2;
#SUBTITLE:(Jazz Jackrabbit 2);
#ARTIST:Allan Zax;
#TITLETRANSLIT:;
#SUBTITLETRANSLIT:;
#ARTISTTRANSLIT:;
#GENRE:;
#CREDIT:;
#BANNER:jazzbosstune2bn.png;
#BACKGROUND:jazzbosstune2bg.png;
#LYRICSPATH:;
#CDTITLE:;
#MUSIC:jazzbosstune2.ogg;
#OFFSET:-0.004395;
#SAMPLESTART:72.097794;
#SAMPLELENGTH:14.399998;
#SELECTABLE:YES;
#BPMS:0.000000=133.000000
;
#STOPS:
;
#BGCHANGES:16.000=spiralbluepurplesparks.mp4=1.000=1=0=1=SongBgWithMovieViz==CrossFade==,
32.000=spiralbluepurplesparks.mp4=1.000=1=0=1===CrossFade==,
64.000=technocity.mp4=1.000=1=0=1===CrossFade==,
96.000=classicflower.mp4=1.000=1=0=1===CrossFade==,
128.000=flash=2.000=0=0=1====#00FF00=,
128.250=technocity.mp4=1.000=0=0=1=====,
156.000=jazzbosstune2bg.png=1.000=0=0=1===CrossFade_Fastest==,
158.000=jazzbosstune2bg.png=1.000=0=0=1====#FF0000=,
158.250=jazzbosstune2bg.png=1.000=0=0=1====#00FF00=,
158.500=jazzbosstune2bg.png=1.000=0=0=1====#0000FF=,
158.750=jazzbosstune2bg.png=1.000=0=0=1====#FF0000=,
159.000=jazzbosstune2bg.png=1.000=0=0=1====#00FF00=,
159.250=jazzbosstune2bg.png=1.000=0=0=1====#0000FF=,
159.500=jazzbosstune2bg.png=1.000=0=0=1====#FF0000=,
159.750=jazzbosstune2bg.png=1.000=0=0=1====#00FF00=,
160.000=flash=2.000=0=0=1====#0000FF=,
160.250=classicflower.mp4=1.000=0=1=1=StretchRewind====,
192.000=technocity.mp4=1.000=0=1=1=StretchRewind==CrossFade_Fastest==,
224.000=spiralbluepurplesparks.mp4=1.000=0=0=1===CrossFade_Fastest==,
240.000=classicflower.mp4=1.000=0=0=1===SlideLeft==,
244.000=technocity.mp4=1.000=0=0=1===SlideRight==,
248.000=spiralbluepurplesparks.mp4=1.000=0=0=1===SlideDown==,
252.000=jazzbosstune2bg.png=1.000=0=0=1===SlideUp==,
99999=-nosongbg-=1.000=0=0=0 // don't automatically add -songbackground-
;
#KEYSOUNDS:;
#ATTACKS:;

//---------------dance-single - C. Picardy----------------
#NOTES:
     dance-single:
     :
     Beginner:
     1:
     0.102738,0.136468,0.043323,0.000000,0.000000,83.000000,78.000000,5.000000,0.000000,0.000000,0.000000,0.102738,0.136468,0.043323,0.000000,0.000000,83.000000,78.000000,5.000000,0.000000,0.000000,0.000000:
0000
0000
0000
0000
,
0000
0000
0000
0000
,
0000
0000
0000
0000
,
0000
0000
0000
0000
,
0001
0000
0000
0000
,
1000
0000
0000
0000
,
0001
0000
0000
0000
,
1000
0000
0000
0000
,
0010
0000
0000
0000
,
0010
0000
0000
0000
,
0100
0000
0000
0000
,
0100
0000
0000
0000
,
1000
0000
0000
0000
,
1000
0000
0000
0000
,
0001
0000
0000
0000
,
0001
0000
0000
0000
,
0100
0000
0100
0000
,
0100
0000
0000
0000
,
0010
0000
0010
0000
,
0010
0000
0000
0000
,
1000
0000
1000
0000
,
1000
0000
0000
0000
,
0001
0000
0001
0000
,
0001
0000
0000
0000
,
1001
0000
0000
0000
,
0010
0000
0000
0000
,
0100
0000
0000
0000
,
0001
0000
0000
0000
,
1000
0000
0000
0000
,
0100
0000
0000
0000
,
0010
0000
0000
0000
,
0001
0000
0000
0000
,
1001
0000
1000
0000
,
1000
0000
0000
0000
,
0001
0000
0001
0000
,
0001
0000
0000
0000
,
0100
0000
0100
0000
,
0100
0000
0000
0000
,
0010
0000
0010
0000
,
0010
0000
0000
0000
,
1001
0000
0100
0000
,
0100
0000
0000
0000
,
0010
0000
0100
0000
,
0010
0000
0000
0000
,
1000
0000
0001
0000
,
1000
0000
0000
0000
,
0001
0000
1000
0000
,
0001
0000
0000
0000
,
1001
0000
0010
0000
,
0100
0000
0000
0000
,
1000
0000
0100
0000
,
1000
0000
0000
0000
,
0001
0000
0100
0000
,
0001
0000
0000
0000
,
1000
0000
0010
0000
,
1000
0000
0000
0000
,
1001
0000
0000
0000
,
0100
0000
0000
0000
,
0010
0000
0000
0000
,
1000
0000
0000
0000
,
0001
0000
0001
0000
,
0001
0000
0000
0000
,
1000
0000
1000
0000
,
1000
0000
0000
0000
;

//---------------dance-single - C. Picardy----------------
#NOTES:
     dance-single:
     :
     Easy:
     4:
     0.231469,0.331421,0.121305,0.155963,0.000000,187.000000,173.000000,14.000000,18.000000,0.000000,0.000000,0.231469,0.331421,0.121305,0.155963,0.000000,187.000000,173.000000,14.000000,18.000000,0.000000,0.000000:
0000
0000
0000
0000
,
0000
0000
0000
0000
,
0000
0000
0000
0000
,
0000
0000
0000
0000
,
1000
0000
1000
0000
,
0001
0000
0001
0000
,
1000
0000
1000
0000
,
0001
0000
0001
0000
,
0100
0000
0010
0000
,
0100
0000
0010
0000
,
1000
0000
0001
0000
,
1000
0000
0001
0000
,
1000
0000
0100
0000
,
1000
0000
0001
0000
,
0100
0000
0001
0000
,
2002
0000
0000
3003
,
1001
0000
0100
0000
,
0010
0000
1000
1000
,
0001
0000
0010
0000
,
0100
0000
0010
0010
,
0001
0000
0100
0000
,
0010
0000
1000
1000
,
0100
0000
0010
0000
,
0001
0000
0100
0010
,
0110
0000
1000
0001
,
1000
0000
0010
0100
,
0010
0000
1000
0100
,
0010
0000
0001
0100
,
0010
0000
1000
0010
,
0100
0000
0001
0010
,
0100
0000
1000
0001
,
0100
0000
0010
1000
,
1001
1000
1000
1000
,
0001
0001
0001
0001
,
0100
0100
0100
0100
,
0010
0010
0010
0010
,
1000
0001
1000
0001
,
0100
0010
0100
0010
,
1000
0100
0010
0001
,
0220
0000
0000
0330
,
0110
0100
0010
0100
,
1000
0001
0200
0000
,
0310
1000
0001
0001
,
0010
0100
2000
0000
,
3010
0100
0010
0100
,
0001
1000
0100
0010
,
0022
0000
0033
1000
,
2200
0000
0000
3300
,
0001
1000
0001
1000
,
0010
0100
0001
0001
,
0100
0010
2000
0000
,
0000
3000
0001
0010
,
0200
0000
1300
0001
,
0200
0000
0310
1000
,
0002
0000
1003
0200
,
0020
0000
0000
0330
,
1001
1000
0100
0010
,
0001
0100
0010
1000
,
0110
0001
0100
0010
,
1000
0100
0010
0001
,
0101
0010
1000
0100
,
0011
0010
0100
1000
,
1100
0001
0100
0010
,
2020
0000
0000
3030
;

//---------------dance-single - C. Picardy----------------
#NOTES:
     dance-single:
     :
     Medium:
     6:
     0.431993,0.441895,0.493883,0.199286,0.056320,349.000000,292.000000,57.000000,23.000000,0.000000,0.000000,0.431993,0.441895,0.493883,0.199286,0.056320,349.000000,292.000000,57.000000,23.000000,0.000000,0.000000:
0000
0000
0000
0000
,
0000
0000
0000
0000
,
0000
0000
0000
0000
,
0000
0000
0000
0000
,
1000
0000
0000
1000
0000
0000
1000
0000
1000
0000
0000
0000
0100
0000
0000
0000
,
0010
0010
0100
1000
,
0001
0000
0000
0001
0000
0000
0001
0000
0001
0000
0000
0000
0100
0000
0000
0000
,
0010
1000
0100
0100
,
0010
0000
0000
0010
0000
0000
0100
0000
0010
0000
0000
0000
0011
0000
0000
0000
,
0100
0010
0100
1001
,
1000
0000
0000
0001
0000
0000
1000
0000
0001
0000
0000
0000
1001
0000
0000
0000
,
0010
0100
1000
1100
,
0001
0000
0000
0100
0000
0000
0001
0000
0100
0000
0000
0000
0101
0000
0000
0000
,
0010
1000
0100
0110
,
0100
0000
0000
1000
0000
0000
0100
0000
1000
0000
0000
0000
1100
0000
0000
0000
,
0010
0001
0100
0110
,
0001
0100
1000
0000
1000
0100
0001
0000
,
0001
0100
1000
0000
0110
0000
1001
0000
,
1000
0100
0001
0000
0001
0100
1000
0000
,
1000
0100
0001
0000
0110
0000
0011
0000
,
0001
0010
1000
0000
1000
0010
0001
0000
,
0001
0010
1000
0000
0110
0000
1100
0000
,
1000
0010
0001
0000
0001
0010
1000
0000
,
1000
0010
0001
0000
0110
0000
1001
0000
,
0001
0100
0010
0000
0101
0000
1100
0000
,
0010
1000
0100
0000
0011
0000
1100
0000
,
0010
1000
0001
0000
0110
0000
1001
0000
,
0010
1000
0001
0000
1100
0000
0101
0000
,
0010
0100
0001
0000
1010
0000
0101
0000
,
0010
0100
1000
0000
0011
0000
1100
0000
,
0001
0100
0010
0000
1001
0000
0110
0000
,
1000
0100
0010
0000
0110
0000
1001
0000
,
0001
0100
0010
0100
0001
0000
0110
0000
,
1000
0100
0010
0100
1000
0000
0110
0000
,
0001
0010
0100
0010
0001
0000
1100
0000
,
1000
0100
0010
0100
1000
0000
0101
0000
,
0001
0100
0010
1000
0100
0000
1001
0000
,
1000
0100
0010
0001
0100
0000
0110
0000
,
0010
1000
0100
0010
0001
0000
1001
0000
,
0220
0000
0000
0330
,
0001
0100
0010
1000
0100
0000
1001
0000
,
0100
0000
0000
0100
0000
0000
0100
0000
0020
0000
0000
0000
0130
0000
0000
0000
,
0001
0000
0000
1000
0000
0000
0001
0000
1000
0000
0000
0100
0000
0000
0010
0000
,
0100
0000
0000
0100
0000
0000
2000
0000
0000
0000
0000
0000
3100
0000
0010
0000
,
0002
0000
0200
0003
2000
0300
0002
3000
,
0020
0003
2000
0030
0200
3000
0020
0300
,
0002
0030
0010
0000
1000
0000
0103
0000
,
2000
0010
0001
3100
,
0001
0000
0000
0001
0000
0000
0001
0000
1000
0000
0000
1000
0000
0000
1000
0000
,
0020
0000
0130
0000
0001
0100
0010
0000
,
1000
0000
0000
0100
0000
0000
0100
0000
0020
0000
0000
0000
0001
0000
0000
0000
,
0100
0000
0031
0000
0010
0100
1000
0000
,
0201
0010
0001
0310
,
1020
0100
1000
0130
,
2001
0010
0100
3010
,
0220
0000
0000
0330
,
1000
0100
0010
0000
0011
0000
0101
0000
,
0010
1000
0100
0000
1010
0000
0110
0000
,
1000
0001
0100
0000
0110
0000
0101
0000
,
1000
0100
0010
0000
0101
0000
1100
0000
,
0010
1000
0100
0010
0001
0000
1100
0000
,
0001
0010
0100
1000
0010
0000
0101
0000
,
1000
0100
0010
0001
0100
0000
0110
0000
,
2002
0000
0000
3003
;

//---------------dance-single - C. Picardy----------------
#NOTES:
     dance-single:
     :
     Hard:
     8:
     0.511212,0.497132,0.147298,0.190621,0.385575,413.000000,396.000000,17.000000,22.000000,8.000000,0.000000,0.511212,0.497132,0.147298,0.190621,0.385575,413.000000,396.000000,17.000000,22.000000,8.000000,0.000000:
// measure 0
0000
0000
0000
0000
,  // measure 1
0000
0000
0000
0000
,  // measure 2
0000
0000
0000
0000
,  // measure 3
0000
0000
0000
0000
,  // measure 4
0100
0000
0000
0100
0010
0000
0000
0000
0001
0000
0000
0001
1000
0000
0000
0000
,  // measure 5
0010
0000
0000
0010
0100
0000
0000
0000
0010
0000
0000
0000
1001
0000
0000
0000
,  // measure 6
0010
0000
0000
0010
1000
0000
0000
0000
0100
0000
0000
0100
1000
0000
0000
0000
,  // measure 7
0001
0000
0000
0001
0100
0000
0000
0000
0010
0000
0000
0000
0110
0000
0000
0000
,  // measure 8
1000
0000
0000
1000
0001
0000
0100
0000
0010
0000
0000
0000
1001
0000
0000
0000
,  // measure 9
0010
0000
0000
0010
0100
0000
1000
0000
0001
0000
0000
0000
0110
0000
0000
0000
,  // measure 10
1000
0000
0000
1000
0100
0000
0010
0000
0001
0000
0000
0000
0011
0000
0000
0000
,  // measure 11
0100
0000
0000
0100
0010
0000
1000
0000
0001
0000
0000
0000
1100
0000
0000
0000
,  // measure 12
0010
0000
0000
0010
0100
0000
1000
0000
0010
0000
0000
0000
0101
0000
0000
0000
,  // measure 13
0010
0000
0000
0010
1000
0000
0100
0000
0010
0000
0000
0000
1001
0000
0000
0000
,  // measure 14
0001
0000
0000
0001
0010
0000
0100
0000
1000
0000
0000
0000
1010
0000
0000
0000
,  // measure 15
0100
0010
0000
0100
0010
0000
0100
0010
0100
0000
0000
0000
0110
0000
0000
0000
,  // measure 16
0001
0000
0000
0001
0100
0000
0010
0000
1000
0000
0000
1000
0100
0000
0010
0000
,  // measure 17
0001
0000
0000
0001
0010
0000
0100
0000
1000
0000
0000
0000
0101
0000
0000
0000
,  // measure 18
0100
0000
0000
0100
0010
0000
1000
0000
0001
0000
0000
1000
0100
0000
0010
0000
,  // measure 19
0001
0000
0000
0010
0100
0000
1000
0000
0010
0000
0000
0000
0110
0000
0000
0000
,  // measure 20
1000
0000
0000
0010
0100
0000
0001
0000
1000
0000
0000
0100
0010
0000
0001
0000
,  // measure 21
1000
0000
0000
0010
0100
0000
0001
0000
0010
0000
0000
0000
1100
0000
0000
0000
,  // measure 22
0010
0000
0000
0010
0100
0000
0001
0000
1000
0000
0000
0100
0010
0000
0001
0000
,  // measure 23
1000
0000
0000
0010
0100
0000
0010
0000
0100
0000
0000
0000
1001
0000
0000
0000
,  // measure 24
1000
0000
0000
1000
0100
0000
0000
0100
1000
0000
0000
1000
0001
0000
0000
0001
,  // measure 25
0100
0000
0000
0100
0001
0000
0000
0001
0100
0000
0000
0100
0010
0000
0000
0010
,  // measure 26
1000
0000
0000
1000
0001
0000
0000
0001
1000
0000
0000
1000
0100
0000
0000
0100
,  // measure 27
0010
0000
0000
0010
0001
0000
0000
0001
0100
0000
0000
0100
0001
0000
0000
0001
,  // measure 28
1000
0000
0000
1000
0100
0000
0000
0100
0001
0000
0000
0001
0100
0000
0000
0100
,  // measure 29
1000
0000
0000
1000
0010
0000
0000
0010
0001
0000
0000
0001
0010
0000
0000
0010
,  // measure 30
1000
0000
0000
1000
0001
0000
0000
0001
0100
0000
0000
0100
1000
0000
0000
1000
,  // measure 31
0100
0000
0000
0100
0001
0000
0000
0001
0010
0000
0000
0010
1000
0000
0000
1000
,  // measure 32
0010
0000
0000
0010
0100
0000
0010
0000
0100
0000
0100
0000
1000
0000
1000
0000
,  // measure 33
0010
0000
0000
0010
0100
0000
0010
0000
1000
0000
1000
0000
0001
0000
0001
0000
,  // measure 34
0010
0000
0000
0010
0100
0000
0010
0000
0001
0000
0001
0000
0100
0000
0100
0000
,  // measure 35
0010
0000
0000
0010
1000
0000
0100
0000
1000
0000
1000
0000
0100
0000
0100
0000
,  // measure 36
0010
0000
0000
0010
0100
0000
1000
0000
0001
0000
0100
0000
0001
0000
1000
0000
,  // measure 37
0100
0000
0000
0100
0010
0000
0001
0000
1000
0000
0001
0000
1000
0000
0100
0000
,  // measure 38
1000
0000
0000
1000
0001
0000
0100
0000
0010
0000
1000
0000
0100
0000
0010
0000
,  // measure 39
M022
0M00
M000
0M33
,  // measure 40
0001
0010
0001
0010
0100
1000
0100
1000
,  // measure 41
0001
0000
0000
0100
0000
0000
0100
0020
0000
0000
0000
0000
1030
0000
0001
0100
,  // measure 42
0010
0000
0000
1000
0000
0000
0100
0000
0010
0000
0000
0001
0000
0000
1000
0000
,  // measure 43
0001
0000
0000
0001
0000
0000
0200
0000
0000
0000
0000
0000
0301
0000
0100
0001
,  // measure 44
0200
0000
0010
0320
0000
1000
2030
0000
,  // measure 45
0200
3000
0010
0320
0000
0001
0032
0000
,  // measure 46
0203
0010
0001
0310
,  // measure 47
2001
0010
0100
3010
,  // measure 48
1000
0000
0000
0010
0000
0000
1000
0000
0100
0000
0000
0010
0000
0000
0001
0000
,  // measure 49
2000
0000
0000
0000
3010
0000
1000
0000
0100
0000
0010
0000
0001
0000
0010
0001
,  // measure 50
0010
0000
0000
0100
0000
0000
1000
0000
0020
0000
0000
0000
0100
0000
0000
0000
,  // measure 51
0001
0000
0000
0000
1030
0000
0000
0001
0100
0000
0001
0000
0100
0000
0010
0000
,  // measure 52
2000
0000
0000
0000
0000
0000
0200
0000
0000
0000
0000
0000
3300
0000
0100
0010
,  // measure 53
0002
0000
0000
0000
0000
0000
0200
0000
0000
0000
0000
0303
0001
0100
0001
0100
,  // measure 54
0020
0000
1000
0000
0130
0010
1000
0100
,  // measure 55
0020
0001
0100
0031
,  // measure 56
0100
0000
0000
0100
0010
0000
1000
0000
0100
0000
0010
0000
0001
0000
0100
0000
,  // measure 57
0010
0000
0000
0010
1000
0000
0100
0000
0010
0000
0100
0000
1000
0000
0100
0000
,  // measure 58
0010
0000
0000
0010
0001
0000
0100
0000
0010
0000
0100
0000
0001
0000
0010
0000
,  // measure 59
0100
0000
0000
0100
1000
0000
0100
0000
1000
0000
0010
0000
0100
0000
0001
0000
,  // measure 60
1000
0000
0000
1000
0001
0000
0100
0000
0010
0000
1000
0000
0100
0000
0010
0000
,  // measure 61
0001
0000
0000
0001
0100
0000
0010
0000
1000
0000
0100
0000
0010
0000
0001
0000
,  // measure 62
1000
0000
0000
1000
0010
0000
0100
0000
0001
0000
1000
0000
0100
0000
0000
0000
,  // measure 63
0M22
M000
0M00
M033
;

//---------------dance-single - C. Picardy----------------
#NOTES:
     dance-single:
     :
     Challenge:
     10:
     0.721638,0.800935,0.303261,0.207951,0.706166,583.000000,548.000000,35.000000,24.000000,42.000000,8.000000,0.721638,0.800935,0.303261,0.207951,0.706166,583.000000,548.000000,35.000000,24.000000,42.000000,8.000000:
0000
0000
0000
0000
,
0000
0000
0000
0000
,
0000
0000
0000
0000
,
0000
0000
0000
0000
,
1000
0000
0000
1000
0100
0000
0010
0000
0001
0000
0000
0001
0100
0000
0010
0000
,
1000
0000
0000
1000
0010
0000
0100
0000
0001
0000
0000
0100
0010
0000
0100
0010
,
0100
0000
0000
0010
1000
0000
0100
0000
0010
0000
0000
0010
0001
0000
0100
0000
,
0010
0000
0000
0010
1000
0000
0100
0000
0010
0000
0000
0000
1MM1
0000
0000
0000
,
0100
0000
0000
0001
0100
0000
0001
0100
0001
0000
0000
1000
0100
0000
1000
0100
,
1000
0000
0000
0010
0100
0000
0010
0100
0010
0000
0000
1000
0001
0000
1000
0001
,
1000
0000
0000
0100
0010
0000
0001
0010
0001
0000
0000
0100
0001
0000
0100
0001
,
0100
0000
0000
0010
1000
0000
0010
1000
0010
0000
0000
1000
0100
0000
0010
0100
,
1000
0000
0000
0001
0100
0000
0010
0100
0001
0000
0000
1000
0100
0000
0010
0001
,
0100
0000
0000
0010
0100
0000
0010
1000
0100
0000
0000
0010
0001
0000
1000
0100
,
0010
0000
0000
0001
1000
0000
0010
0100
0001
0000
0000
1000
0010
0000
0100
0010
,
1000
0001
0000
1000
0001
0000
1000
0001
0100
0010
0100
0000
1MM1
0000
0000
0000
,
1000
0100
0010
0100
1000
0000
0001
0100
0010
0100
0001
0100
0010
0000
1000
0010
,
0100
0010
1000
0010
0100
0000
0001
0010
0100
0010
0001
0000
1000
0100
0010
0000
,
0001
0100
0010
0100
0001
0000
1000
0100
0010
0100
1000
0100
0010
0000
0001
0010
,
0100
0010
0001
0010
0100
0000
1000
0100
0010
0001
0100
0000
0010
1000
0100
0000
,
0010
0100
1000
0100
0010
0000
0001
0010
0100
1000
0100
0010
0001
0000
1000
0100
,
0010
0001
0010
0100
1000
0000
0001
0100
0010
1000
0100
0000
0010
0001
0100
0000
,
0001
0100
0010
0100
0001
0000
1000
0010
0100
0001
0100
0010
1000
0000
0001
0100
,
0010
1000
0010
0100
0001
0000
0001
0100
0010
1000
0100
0000
1MM1
0000
0000
0000
,
1000
0000
0001
0100
0001
0000
1000
0000
0100
0000
0110
0000
0M10
0000
0011
0000
,
10M0
0000
0100
0010
0001
0000
0100
0000
0010
0000
1010
0000
M010
0000
0110
0000
,
01M0
0000
0001
0100
0010
0000
1000
0000
0100
0000
1100
0000
M100
0000
0110
0000
,
0M01
0000
0010
0100
1000
0000
0001
0000
0100
0000
0101
0000
010M
0000
0110
0000
,
1M00
0000
0001
0100
0010
0000
1000
0000
0100
0000
1100
0000
0M01
0000
0101
0000
,
1M00
0000
0010
1000
0100
0000
0010
0000
0001
0000
0011
0000
10M0
0000
1010
0000
,
01M0
0000
0010
0100
1000
0000
0001
0000
1000
0000
1001
0000
M100
0000
0110
0000
,
10M0
0000
0001
0100
0010
0000
1000
0000
0100
0000
0110
0000
0M01
0000
1001
0000
,
010M
0000
0010
0100
1000
0000
0001
0100
0010
0000
1000
0100
0010
0000
0001
0010
,
0100
0000
0010
0100
1000
0000
0010
0100
0001
0000
1000
0010
0100
0000
0001
0100
,
0010
0000
1000
0100
0010
0000
0001
0010
0100
0000
1000
0010
0100
0000
0001
0100
,
0010
0000
1000
0001
0100
0000
0010
1000
0100
0000
0010
0001
1000
0000
0010
0100
,
0001
0000
1000
0100
0010
0000
0001
0000
0100
0000
0101
0000
0M01
0000
0101
0000
,
0100
0000
0010
1000
0100
0000
0010
0000
0100
0000
0110
0000
0M10
0000
0110
0000
,
0001
0000
0001
0100
0010
0000
1000
0000
0100
0000
1001
0000
M001
0000
1001
0000
,
2000
0000
0000
0000
0200
0000
0000
0000
0020
0000
0000
0000
0002
0000
3333
0001
,
1000
0100
0010
0001
1000
0100
0010
0001
1000
0010
0100
0001
1000
0010
0100
0001
,
1000
0000
0000
1000
0000
0000
0100
0020
0000
0000
0001
0000
0031
0000
1000
0100
,
0002
0000
0000
2000
0000
0003
0010
3000
0002
0000
0000
0200
0000
0003
1000
0300
,
0001
0000
0000
0010
0000
0000
0000
0000
0000
2000
0000
0000
0000
0000
0000
0000
0000
0000
0002
0000
0000
0000
0000
0000
0000
0000
0000
0000
0000
0000
0000
0000
0000
0000
3003
0000
0001
0000
0000
0010
0000
0000
0100
0000
0000
1000
0000
0000
,
0002
0000
0000
0200
0000
0003
200M
0300
,
0M02
0000
3000
M020
0003
000M
2030
00M0
,
0200
0010
0001
3310
,
0202
0000
0010
0000
1000
0000
0010
0303
,
1MM1
0000
0000
1010
0000
0000
0101
0000
11MM
0000
0000
0110
0000
0000
0011
0000
,
2MM2
0000
0000
0000
0000
0000
0000
0000
0000
0000
0000
3003
1000
0000
0000
0000
0100
0000
0000
0000
0010
0000
0000
0000
0001
0000
0000
0000
0010
0000
0100
0000
,
1000
0000
0000
1000
0000
0000
0001
0000
0400
0000
0000
0000
0010
0000
0000
0000
,
0001
0000
0000
0000
0310
0000
0000
1000
0100
0000
0010
0000
0001
0000
0100
0000
,
0040
0000
0000
0000
0000
0000
4000
0000
0000
0000
3030
0000
1000
0100
0010
0001
,
0400
0000
0000
0000
0000
0000
0004
0000
0000
0000
0303
0000
0001
0100
0010
1000
,
0400
0000
0040
0000
0330
0001
0010
0100
,
4000
0004
0000
3003
,
1MM1
0000
1000
0001
0100
0000
0010
1000
0001
0000
0010
0100
1000
0000
0010
0100
,
0001
0000
1000
0001
0100
0000
0010
1000
0001
0000
0010
0100
1000
0000
0010
0100
,
0001
0000
1000
0010
0100
0000
0001
0100
0010
0000
1000
0100
0010
0000
0001
0010
,
0100
0000
1000
0001
0100
0000
0010
1000
0100
0000
0010
0001
1000
0000
0100
0000
,
1MM1
0000
0010
0100
1000
0000
0001
0100
0010
0000
1000
0100
0010
0000
0001
1000
,
0100
0000
0010
0100
1000
0000
0010
0100
0001
0000
1000
0100
0010
0000
0001
0100
,
0010
0000
1000
0010
0100
0000
0001
0010
0100
0000
0010
0100
1000
0000
0002
0000
,
0200
0000
0000
0000
0000
0303
0M0M
0000
;
