#TITLE:In The Eyes of a Tiger;
#SUBTITLE:;
#ARTIST:Dejo & Bratt;
#TITLETRANSLIT:;
#SUBTITLETRANSLIT:;
#ARTISTTRANSLIT:;
#GENRE:;
#CREDIT:;
#BANNER:intheeyesofatigerbn.png;
#BACKGROUND:intheeyesofatigerbg.png;
#LYRICSPATH:;
#CDTITLE:;
#MUSIC:intheeyesofatiger.ogg;
#OFFSET:-0.100919;
#SAMPLESTART:69.719925;
#SAMPLELENGTH:12.000000;
#SELECTABLE:YES;
#BPMS:0.000000=154.994995
;
#STOPS:
;
#BGCHANGES:16.000=digitalfiresparks.mp4=1.000=1=0=1=SongBgWithMovieViz==CrossFade==,
32.000=digitalfiresparks.mp4=1.000=0=0=1===CrossFade_Fastest==,
48.000=redplasmafog.mp4=1.000=0=1=1=StretchRewind==CrossFade_Fastest==,
80.000=flash=1.600=0=0=1=====,
80.250=digitallivefire.mp4=1.000=0=1=1=StretchRewind====,
112.000=digitalfiresparks.mp4=1.000=0=0=1===CrossFade_Fastest==,
144.000=redplasmafog.mp4=1.000=0=0=1===CrossFade_Fastest==,
176.000=intheeyesofatigerbg.png=1.000=1=0=1===CrossFade==,
180.000=flash=1.600=0=0=1=====,
180.250=spinningflares.mp4=1.000=0=1=1=StretchRewind====,
212.000=flash=1.600=0=0=1=====,
212.250=spinningflares.mp4=1.000=0=0=1=====,
224.000=spinningflares.mp4=1.000=1=0=1=SongBgWithMovieViz==CrossFade==,
228.000=flash=1.600=0=0=1=====,
228.250=spinningflares.mp4=1.000=0=0=1=====,
244.000=flash=1.600=0=0=1=====,
244.250=digitallivefire.mp4=1.000=0=0=1=====,
274.000=intheeyesofatigerbg.png=1.000=1=0=1===CrossFade==,
99999=-nosongbg-=1.000=0=0=0 // don't automatically add -songbackground-
;
#KEYSOUNDS:;
#ATTACKS:;

//---------------dance-single - C. Picardy----------------
#NOTES:
     dance-single:
     :
     Beginner:
     1:
     0.104943,0.158079,0.065091,0.000000,0.000000,79.000000,72.000000,7.000000,0.000000,0.000000,0.000000,0.104943,0.158079,0.065091,0.000000,0.000000,79.000000,72.000000,7.000000,0.000000,0.000000,0.000000:
0000
0000
0000
0000
,
0000
0000
0000
0000
,
0000
0000
0000
0000
,
0000
0000
0000
0000
,
1000
0000
0000
0000
,
0000
0000
0000
0000
,
0001
0000
0000
0000
,
0000
0000
0000
0000
,
1000
0000
0000
0000
,
0100
0000
0000
0000
,
0010
0000
0000
0000
,
0001
0000
0000
0000
,
0100
0100
0000
0000
,
0010
0010
0000
0000
,
0000
0000
0000
0000
,
1001
0000
0000
0000
,
1000
1000
0000
0000
,
0001
0001
0000
0000
,
0000
0000
0000
0000
,
0110
0000
0000
0000
,
1000
0000
0000
0000
,
0001
0000
0000
0000
,
1000
0000
0000
0000
,
0001
0000
0000
0000
,
0100
0000
0000
0000
,
0010
0000
0000
0000
,
0100
0000
0000
0000
,
0010
0000
0000
0000
,
1001
0000
0000
0000
,
0100
0000
0000
0000
,
0010
0000
0000
0000
,
1000
0000
0000
0000
,
0001
0000
0000
0000
,
0010
0000
0000
0000
,
0100
0000
0000
0000
,
1000
0000
0000
0000
,
1001
0000
0000
0000
,
0010
0000
0000
0000
,
0100
0000
0000
0000
,
0001
0000
0000
0000
,
1000
0000
0000
0000
,
0100
0000
0000
0000
,
0010
0000
0000
0000
,
0001
0000
0000
0000
,
0000
0000
0000
0000
,
0001
0001
0000
0000
,
1000
1000
0000
0000
,
0010
0000
0000
0000
,
0100
0000
0000
0000
,
0010
0010
0000
0000
,
0100
0100
0000
0000
,
0001
0000
0000
0000
,
0110
0000
0000
0000
,
1000
0000
0000
0000
,
0001
0000
0000
0000
,
0100
0000
0000
0000
,
0010
0000
0000
0000
,
1000
0000
0000
0000
,
0001
0000
0000
0000
,
0010
0000
0000
0000
,
0100
0000
0000
0000
,
1000
0000
1000
0000
,
1000
0000
0001
0000
,
0001
0000
0000
0000
,
0110
0000
0000
0000
,
0100
0000
0100
0000
,
0100
0000
0010
0000
,
0010
0000
0000
0000
,
1001
0000
0000
0000
;

//---------------dance-single - C. Picardy----------------
#NOTES:
     dance-single:
     :
     Challenge:
     11:
     0.897996,1.056748,0.548628,0.325457,0.911280,676.000000,617.000000,59.000000,35.000000,106.000000,0.000000,0.897996,1.056748,0.548628,0.325457,0.911280,676.000000,617.000000,59.000000,35.000000,106.000000,0.000000:
0000
0000
0000
0000
,
0000
0000
0000
0000
,
0000
0000
0000
0000
,
0000
0000
0000
0000
,
0001
0000
0101
0000
0000
1M00
0000
0000
0200
0000
0000
1300
0010
0000
1000
0100
,
0010
0000
0011
0000
0000
01M0
0000
0000
0020
0000
0000
1030
0001
0000
0010
0100
,
1000
0000
1100
0000
0000
0M10
0000
0000
0200
0000
0000
0301
0010
0000
0010
0001
,
0100
0000
0110
0000
0000
1M00
0000
0000
0002
0000
0000
1003
0100
0000
1000
0001
,
0100
0000
0010
0000
1000
0000
0001
0000
1000
0100
1000
0000
0001
0100
0001
0100
,
0001
0000
1000
0010
1000
0000
0001
0000
0100
0010
0100
0000
0001
0010
0001
0010
,
0001
0100
0001
0100
0001
0100
0001
0100
0010
1000
0010
1000
0010
1000
0010
1000
,
0100
1000
0100
1000
0100
1000
0100
1000
0001
0010
0001
0010
0001
0010
0001
0010
,
0100
0000
11MM
0000
0001
M1M0
0001
0000
,
1M1M
0000
M1M1
0000
0010
0100
1000
0000
,
MMM1
0000
1100
0001
M1M1
0000
1MM1
0100
,
0101
21MM
0000
0MMM
00M0
00M0
00M0
30M0
,
0011
0000
M1M1
0000
0001
0100
1000
0000
,
M11M
0000
1M1M
0000
0001
0010
0200
0000
,
13MM
0000
MM11
0100
1MM1
0000
11MM
11MM
,
0202
0000
0000
0000
0000
0000
0000
0303
,
0001
0010
0100
0010
0002
0000
0000
0000
1003
0100
1000
0100
0010
0001
0010
0001
,
1000
0010
0100
0010
2000
0000
0000
0000
3001
0100
0001
0100
0010
1000
0010
1000
,
0002
0000
0000
0000
1003
0100
1000
0100
2000
0000
0000
0000
3010
0100
0010
0100
,
0010
0000
1000
0000
0001
0000
1000
0000
0100
0000
0010
0100
0010
0100
0010
0100
,
0010
0100
1000
0100
0020
0000
0000
0000
0031
0010
0100
1000
0100
0010
0001
0100
,
0010
1000
0100
1000
0020
0000
0000
0000
0130
0001
0010
0100
1000
0010
0100
0010
,
2000
0000
0000
0000
3001
0010
0001
0010
0002
0000
0000
0000
1003
0100
1000
0100
,
2000
0000
0010
0000
0010
0000
3010
0000
0100
0010
1000
0001
0010
0100
0010
0001
,
1000
0000
0010
0100
0001
0000
1000
0000
0100
1000
0100
1000
0100
0000
0010
0000
,
0001
0000
0010
0100
1000
0000
0010
0000
0100
0001
0100
0001
0100
0000
0010
0000
,
1000
0000
0100
0000
0010
0000
0100
0010
0100
0000
1000
0000
0010
0000
0100
0001
,
0100
0000
0010
1000
0010
0000
1000
0000
1000
0100
0010
0001
1000
0010
0100
0001
,
0010
0000
0100
0010
0001
0000
1000
0000
0001
0100
0010
0100
0001
0000
1000
0000
,
0100
0000
0010
0100
1000
0000
0001
0000
0100
0010
1000
0010
0100
0000
0001
0000
,
1000
0000
0010
0100
0001
0000
1000
0000
0010
0000
1000
0100
0010
0000
0001
0100
,
0010
0000
0010
0000
0100
0010
1000
0001
0010
0100
1000
0001
0100
0001
0010
0100
,
1000
0000
0010
0000
0100
0000
0010
1000
0010
0000
0100
0000
0001
0000
0010
0001
,
0010
0000
0100
0000
1000
0000
0001
0100
0001
0000
1000
0000
0100
0000
0001
0100
,
0001
0000
0100
0000
1000
0000
0010
1000
0010
0000
0001
0000
0010
0000
1000
0010
,
1000
0000
0001
0000
0100
0000
1000
0100
1000
0000
0100
0000
0001
0000
0101
0000
,
1100
0000
0001
0000
0010
0000
0100
1000
0010
0000
0100
0000
1000
0000
0100
0001
,
0010
0000
0100
0000
1000
0000
0001
0100
1000
0000
0100
0000
0001
0000
1000
0010
,
0100
0000
0010
0000
0001
0000
0010
1000
0100
0000
0010
0000
0001
0000
M1M1
0000
,
0000
1M1M
0000
11MM
0000
2MM2
0000
0003
,
0040
0000
0000
0000
0000
0000
0000
3030
,
M1M1
0000
0000
0000
11MM
0000
0000
0000
0001
0010
0100
1000
0100
0010
0001
0000
,
MM11
0000
0000
0000
1M1M
0000
0000
0000
0001
0100
0001
0100
0010
1000
0010
1000
,
0200
0000
0000
0000
0310
0100
0010
0100
0020
0000
0000
0000
0001
0000
0031
0000
,
1000
0010
0100
0000
0001
1000
0100
0010
0001
0010
0001
0010
0100
1000
0001
0000
,
1MM1
0000
M1M1
0000
11MM
0100
11MM
0000
,
M1M1
0000
0000
0000
MM11
0000
0000
0000
0101
0000
0100
0000
0010
1000
0010
1000
,
0020
0000
0000
0000
1030
0100
0010
0100
2000
0000
0000
0000
0010
0000
3010
0000
,
0100
0010
0100
0001
1000
0100
0010
0100
1000
0001
0100
0010
0100
0001
1000
0100
,
11MM
0000
0001
0000
MM11
0000
0000
0000
0001
0100
0010
1000
0010
0100
0001
0000
,
M11M
0000
1000
0000
1MM1
0000
0000
0000
1000
0001
0100
0010
1000
0100
0010
0100
,
2000
0000
3001
M1M1
M1M1
0000
1MM1
11MM
,
1000
0100
1000
0100
0010
0001
0010
0001
1000
0010
1000
0010
0100
0001
0100
0001
,
1MM1
1000
11MM
0000
M1M1
0100
M1M1
0000
,
1M1M
1000
11MM
0000
MM11
0100
M11M
1000
,
1MM1
0000
1100
0100
0011
0000
0101
0010
,
4004
0000
0000
0000
0000
0000
0000
3003
0100
0010
0100
0010
0100
0000
1000
0000
,
0001
0100
0010
0100
0002
0000
0000
0000
1003
0100
1000
0100
0010
0001
0010
0001
,
0100
0010
0100
0001
0200
0000
0000
0000
0301
0010
0001
0010
0100
1000
0100
1000
,
0020
0000
0000
0000
0130
0001
0010
0100
2000
0000
0000
0000
3010
0100
0001
0100
,
0020
0000
4000
0000
0000
0000
0000
0000
3030
0000
0100
0010
0100
1000
0001
0100
,
0010
1000
0100
0010
0002
0000
0000
0000
1003
0001
0100
0010
1000
0100
0010
0100
,
1000
0001
0100
0010
0200
0000
0000
0000
0301
0010
0100
1000
0010
0100
0010
1000
,
0200
0000
0000
0000
0310
0001
0010
0001
0020
0000
0000
0000
0130
1000
0100
1000
,
0002
0000
0000
0000
0203
0000
0000
0000
0310
1000
0001
0100
0010
1000
0001
0000
;

//---------------dance-single - C. Picardy----------------
#NOTES:
     dance-single:
     :
     Easy:
     4:
     0.293576,0.414028,0.269665,0.241768,0.000000,221.000000,192.000000,29.000000,26.000000,0.000000,0.000000,0.293576,0.414028,0.269665,0.241768,0.000000,221.000000,192.000000,29.000000,26.000000,0.000000,0.000000:
0000
0000
0000
0000
,
0000
0000
0000
0000
,
0000
0000
0000
0000
,
0000
0000
0000
0000
,
1001
0000
0000
0000
,
1001
0000
0000
0000
,
0110
0000
0000
0000
,
0110
0000
0000
0000
,
0001
1000
0001
1000
,
0010
0100
0010
0100
,
0001
0010
0100
1000
,
0010
0100
0001
1000
,
0101
0101
0000
0000
,
1100
1100
0000
0000
,
0000
0010
0100
0001
,
2002
0000
3003
0000
,
1010
1010
0000
0000
,
0011
0011
0000
0000
,
0000
1000
0100
0010
,
0220
0000
0000
0330
,
0002
0000
1003
0100
,
0020
0000
0031
1000
,
0010
0100
0001
1000
,
0200
0000
1000
1300
,
0020
0000
0130
0001
,
2000
0000
3100
0010
,
0001
0010
0100
1000
,
2002
0000
0000
3003
,
0001
1000
0100
0100
,
0010
0001
1000
1000
,
0000
0001
0100
0001
,
2000
0000
0010
3010
,
0100
0001
0010
0010
,
0100
1000
0001
0001
,
0000
0010
1000
0100
,
0020
0000
0001
0031
,
1000
0000
0010
0100
,
0001
0000
1000
0100
,
0010
0000
0100
1000
,
0010
0100
0010
1000
,
1001
0000
0100
0100
,
0010
0000
1000
1000
,
0001
0000
1000
0010
,
2002
0000
0000
0000
0000
3003
0000
0000
,
0200
0000
0000
0000
0000
0300
0000
0000
,
0010
0100
0001
0001
,
1000
0100
0010
0010
,
0001
0010
0100
1000
,
2002
0000
3003
0000
,
0100
0100
0010
0010
,
1000
0001
0100
0100
,
0010
1000
0100
0010
,
0220
0000
0000
0330
,
1001
1001
0100
0010
,
1001
1001
0010
0100
,
1000
0001
0001
0100
,
0220
0000
0330
0000
,
1100
1100
0001
0100
,
0011
0011
1000
0010
,
0100
0001
1000
0100
,
2002
0000
0000
3003
,
0100
0100
0010
1000
,
0001
0001
1000
0100
,
0010
0100
1000
0010
,
0200
0000
0001
0301
,
1000
1000
0001
0100
,
0010
0010
1000
0100
,
0010
0001
0100
0010
,
2000
0000
3000
0000
;

//---------------dance-single - C. Picardy----------------
#NOTES:
     dance-single:
     :
     Medium:
     6:
     0.405161,0.477725,0.251067,0.353354,0.000000,305.000000,278.000000,27.000000,38.000000,0.000000,0.000000,0.405161,0.477725,0.251067,0.353354,0.000000,305.000000,278.000000,27.000000,38.000000,0.000000,0.000000:
0000
0000
0000
0000
,
0000
0000
0000
0000
,
0000
0000
0000
0000
,
0000
0000
0000
0000
,
1000
1000
0000
0000
0001
0000
0002
0000
,
0103
0100
0000
0000
0010
0000
0020
0000
,
1030
1000
0000
0000
0100
0000
0200
0000
,
0310
0010
0000
0000
0001
0000
0002
0000
,
0103
0000
0010
0000
0100
0000
0001
0010
,
0001
0000
1000
0000
0100
0000
1000
0010
,
1000
0000
0001
0000
0100
0000
0010
0100
,
0010
1000
0100
0010
,
2002
0000
3003
0000
0100
0100
0100
0000
,
2002
0000
3003
0000
0010
0010
0010
0000
,
0000
0000
1000
1000
1000
0000
0001
0001
,
0002
0000
0003
0000
,
2200
0000
3300
0000
0001
0001
0001
0000
,
0202
0000
0303
0000
1000
1000
1000
0000
,
0000
0000
0010
0010
0010
0000
0100
0100
,
0200
0000
0000
0300
,
0101
0000
0010
0000
1000
0100
0010
0000
,
1100
0000
0001
0000
1000
0010
0100
0000
,
1001
0000
0001
1000
0100
0000
0010
0100
,
2000
0010
0001
3001
,
0110
0000
1000
0000
0001
0010
0100
0000
,
0110
0000
0001
0000
1000
0100
0010
0000
,
0110
0000
0001
0100
0010
0000
1000
0100
,
0020
0000
0100
0031
,
1000
0000
0100
0000
0010
0100
1000
0000
,
0001
0000
0100
0000
0010
0100
0001
0000
,
0000
0000
1000
0000
0100
1000
0001
0000
,
0200
0010
0001
0310
,
1000
0000
0100
0000
1000
0100
1000
0000
,
0100
0000
0010
0000
0001
0010
0001
0000
,
0000
0000
1000
0000
0001
0100
0010
0000
,
2000
0010
0001
3100
,
0020
1000
0100
1030
,
0002
0010
1000
0103
,
2000
0010
0001
3100
,
0200
0010
0001
1300
,
0020
0000
0100
0000
1030
0000
0001
0100
,
0002
0000
1000
0000
0103
0000
1000
0100
,
0020
0000
0100
0000
0031
0000
1000
0001
,
0000
0100
0000
0010
0000
0100
0000
0000
,
0020
0000
0000
0030
,
0100
0101
1000
1100
,
0001
0000
0100
0000
0010
1000
0200
0000
,
0300
0000
0010
0010
0010
0000
0001
0001
,
0002
0000
1000
0103
,
1000
1010
0001
0011
,
1000
0000
0100
0000
0010
0001
0200
0000
,
0300
0000
0010
0010
0010
0000
0100
0100
,
0200
0000
0010
0301
,
1100
0000
1100
0000
0100
0010
0001
0000
,
0101
0000
0101
0000
0010
0100
2000
0000
,
3001
0000
0100
0010
0100
0000
0010
0100
,
0020
0000
1000
0130
,
1010
0000
1010
0000
0100
0001
0010
0000
,
0011
0000
0011
0000
0001
0100
0020
0000
,
0030
0000
1000
0001
1000
0000
0001
2000
,
0002
0000
0000
3003
,
0100
0000
0110
0000
0001
0100
0010
0000
,
1000
0000
1100
0000
0010
0001
0100
0000
,
0010
0000
1000
0001
0100
0000
0001
1000
,
0020
0000
0100
1030
,
0001
0000
0101
0000
1000
0100
0010
0000
,
0100
0000
1010
0000
0001
0100
0010
0000
,
1001
0000
0100
0010
1000
0000
0100
0020
,
0002
0000
0033
0000
;

//---------------dance-single - C. Picardy----------------
#NOTES:
     dance-single:
     :
     Hard:
     8:
     0.577853,0.639291,0.585823,0.297561,0.195274,435.000000,372.000000,63.000000,32.000000,8.000000,0.000000,0.577853,0.639291,0.585823,0.297561,0.195274,435.000000,372.000000,63.000000,32.000000,8.000000,0.000000:
// measure 0
0000
0000
0000
0000
,  // measure 1
0000
0000
0000
0000
,  // measure 2
0000
0000
0000
0000
,  // measure 3
0000
0000
0000
0000
,  // measure 4
0001
0000
0100
0000
0000
0010
0000
0000
0100
0000
0000
0010
1000
0000
0000
0000
,  // measure 5
0100
0000
1000
0000
0000
0100
0000
0000
0010
0000
0000
0100
1000
0000
0000
0000
,  // measure 6
0001
0000
0010
0000
0000
0100
0000
0000
0010
0000
0000
0001
0100
0000
0000
0000
,  // measure 7
0001
0000
1000
0000
0000
0100
0000
0000
0010
0000
0000
0001
1000
0000
0000
0000
,  // measure 8
0001
0100
0010
0100
0001
0000
1010
0000
,  // measure 9
1000
0100
0010
0100
1000
0000
0011
0000
,  // measure 10
1000
0100
1000
0100
0010
0001
0010
0001
,  // measure 11
0100
0010
1000
0001
0010
0100
1000
0010
,  // measure 12
1010
0000
0101
0000
0001
0100
1000
0000
,  // measure 13
0101
0000
1100
0000
1000
0100
0002
0000
,  // measure 14
0003
0000
1000
1000
1100
0000
0001
0001
,  // measure 15
0201
0000
0000
0300
,  // measure 16
0011
0000
1010
0000
0001
0010
1000
0000
,  // measure 17
0011
0000
1100
0000
1000
0010
0002
0000
,  // measure 18
0003
0000
0110
0110
0110
0000
1001
1001
,  // measure 19
2MM2
0000
0MM0
3003
,  // measure 20
1000
0000
0000
0000
1010
0000
0000
0000
0001
0100
0001
0100
0001
0000
0000
0000
,  // measure 21
1000
0000
0000
0000
1100
0000
0000
0000
0010
0100
0010
0100
0010
0000
0000
0000
,  // measure 22
1001
0000
0000
0000
0010
0001
0010
0001
0010
0000
0000
0000
0100
1000
0100
1000
,  // measure 23
0200
0010
1000
1300
,  // measure 24
0001
0000
0000
0000
0110
0000
0000
0000
1000
0010
1000
0010
1000
0000
0000
0000
,  // measure 25
0001
0000
0000
0000
1100
0000
0000
0000
0001
0010
0001
0010
0001
0000
0000
0000
,  // measure 26
0101
0000
0000
0000
0010
0100
0010
0100
0010
0000
0000
0000
1000
0001
1000
0001
,  // measure 27
2000
0000
0010
0000
3100
0010
0100
0010
,  // measure 28
0002
0000
0103
0000
0010
1000
0100
0000
,  // measure 29
2000
0000
3010
0000
0100
0010
0200
0000
,  // measure 30
0301
0000
1000
0000
0001
0100
0010
0000
,  // measure 31
1000
0100
1000
0100
0010
0001
0010
0001
,  // measure 32
0100
0000
0110
0000
1000
0100
0020
0000
,  // measure 33
0130
0000
0011
0000
0001
0100
0020
0000
,  // measure 34
1030
0000
0001
0010
0100
0100
0000
1000
,  // measure 35
0001
0100
0001
0100
0010
1000
0010
1000
,  // measure 36
0100
0000
0002
0000
0103
1000
0010
0000
,  // measure 37
0002
0000
0023
0000
1030
0100
0001
0000
,  // measure 38
2000
0000
3020
0000
0031
0100
1000
0000
,  // measure 39
0200
0000
0320
0000
1030
0001
0100
0001
,  // measure 40
0011
0000
1000
0100
0010
0001
0010
0100
,  // measure 41
0000
0000
1000
0001
0100
0010
1000
0010
,  // measure 42
0000
0000
0100
0010
1000
0100
0010
0110
,  // measure 43
0000
0011
0000
0101
0000
1001
0000
0000
,  // measure 44
M20M
0000
M02M
0330
,  // measure 45
1010
0000
0101
0000
1000
0100
0001
0000
,  // measure 46
1100
0000
0101
0000
0001
0100
2000
0000
,  // measure 47
3100
0000
0010
0010
1010
0000
0001
0001
,  // measure 48
0201
0010
1000
0301
,  // measure 49
1010
0000
0011
0000
1000
1000
1100
0000
,  // measure 50
0101
0000
0110
0000
1000
1000
2002
0000
,  // measure 51
3003
0000
1000
0100
1100
0000
0001
0100
,  // measure 52
0102
0000
0000
0000
0010
0000
0000
0000
1003
0000
0000
0000
0100
0010
0100
0010
,  // measure 53
0100
0000
1001
0000
1000
0100
0010
0000
,  // measure 54
0101
0000
1100
0000
0010
0100
2000
0000
,  // measure 55
3010
0000
0001
0001
0101
0000
1000
1000
,  // measure 56
1020
0001
1000
0130
,  // measure 57
1001
0000
0110
0000
1000
0001
0100
0000
,  // measure 58
0110
0000
1001
0000
0001
0010
0200
0000
,  // measure 59
1300
0000
0001
0010
0011
0000
1000
0010
,  // measure 60
2010
0001
0100
3010
,  // measure 61
0100
0000
0000
0000
1001
0000
0000
0000
0010
1000
0010
1000
0010
0000
0000
0000
,  // measure 62
0100
0000
0000
0000
0011
0000
0000
0000
1000
0100
1000
0100
1000
0000
0000
0000
,  // measure 63
0101
0000
0000
0000
0001
0100
0001
0100
0001
0000
0000
0000
1000
0100
1000
0100
,  // measure 64
2000
0010
0001
3100
,  // measure 65
0010
0000
0000
0000
0101
0000
0000
0000
1000
0010
1000
0010
1000
0000
0000
0000
,  // measure 66
0001
0000
0000
0000
0110
0000
0000
0000
0001
0010
0001
0010
0001
0000
0000
0000
,  // measure 67
1100
0000
0000
0000
0001
0100
0001
0100
0010
0000
0000
0000
1000
0100
1000
0100
,  // measure 68
0020
0001
0130
0011
;
