#VERSION:0.83;
#TITLE:If You Really Want Me;
#SUBTITLE:;
#ARTIST:Hit'n'Hide;
#TITLETRANSLIT:;
#SUBTITLETRANSLIT:;
#ARTISTTRANSLIT:;
#GENRE:;
#ORIGIN:;
#CREDIT:;
#BANNER:ifyoureallywantmebn.jpg;
#BACKGROUND:ifyoureallywantmebg.jpg;
#PREVIEWVID:;
#JACKET:;
#CDIMAGE:;
#DISCIMAGE:;
#LYRICSPATH:;
#CDTITLE:;
#MUSIC:ifyoureallywantme.ogg;
#OFFSET:-1.769870;
#SAMPLESTART:53.439991;
#SAMPLELENGTH:12.000000;
#SELECTABLE:YES;
#BPMS:0.000=130.020;
#STOPS:;
#DELAYS:;
#WARPS:;
#TIMESIGNATURES:0.000=4=4;
#TICKCOUNTS:0.000=4;
#COMBOS:0.000=1;
#SPEEDS:0.000=1.000=0.000=0;
#SCROLLS:0.000=1.000;
#FAKES:;
#LABELS:0.000=Song Start;
#BGCHANGES:;
#KEYSOUNDS:;
#ATTACKS:
;

//---------------dance-single - C. Picardy----------------
#NOTEDATA:;
#CHARTNAME:;
#STEPSTYPE:dance-single;
#DESCRIPTION:C. Picardy;
#CHARTSTYLE:;
#DIFFICULTY:Beginner;
#METER:1;
#RADARVALUES:0.076273,0.154242,0.059324,0.000000,0.000000,54.000000,48.000000,6.000000,0.000000,0.000000,0.000000,0.000000,0.000000,0.000000,0.076273,0.154242,0.059324,0.000000,0.000000,54.000000,48.000000,6.000000,0.000000,0.000000,0.000000,0.000000,0.000000,0.000000;
#CREDIT:C. Picardy;
#NOTES:
0000
0000
0000
0000
,
0000
0000
0000
0000
,
0000
0000
0000
0000
,
0000
0000
0000
0000
,
1000
0000
0000
0000
,
0000
0000
0000
0000
,
0001
0000
0000
0000
,
0000
0000
0000
0000
,
0100
0000
0000
0000
,
0100
0000
0000
0000
,
0010
0000
0000
0000
,
0010
0000
0000
0000
,
1000
0000
0000
0000
,
1000
0000
0000
0000
,
0001
0000
0000
0000
,
0001
0000
0001
0000
,
0001
0000
0000
0000
,
0100
0000
0000
0000
,
0010
0000
0000
0000
,
1000
0000
0000
0000
,
0001
0000
0000
0000
,
0010
0000
0000
0000
,
0100
0000
0000
0000
,
1000
0000
0000
0000
,
1001
0000
0000
0000
,
0100
0000
0000
0000
,
0010
0000
0000
0000
,
1000
0000
0000
0000
,
0100
0000
0100
0000
,
0000
0000
0000
0000
,
0010
0000
0010
0000
,
0000
0000
0000
0000
,
1000
0000
1000
0000
,
0000
0000
0000
0000
,
0001
0000
0001
0000
,
0000
0000
0000
0000
,
0100
0000
0000
0000
,
0010
0000
0000
0000
,
1000
0000
0000
0000
,
0001
0000
0000
0000
,
1001
0000
0000
0000
,
1001
0000
0000
0000
,
0110
0000
0000
0000
,
0110
0000
0000
0000
,
0010
0000
0000
0000
,
0100
0000
0000
0000
,
0010
0000
0000
0000
,
0100
0000
0000
0000
,
0001
0000
0000
0000
,
1000
0000
0000
0000
,
0001
0000
0000
0000
,
1000
0000
0000
0000
,
1001
0000
0000
0000
;

//---------------dance-single - C. Picardy----------------
#NOTEDATA:;
#CHARTNAME:;
#STEPSTYPE:dance-single;
#DESCRIPTION:C. Picardy;
#CHARTSTYLE:;
#DIFFICULTY:Easy;
#METER:2;
#RADARVALUES:0.161022,0.205656,0.039549,0.000000,0.000000,114.000000,110.000000,4.000000,0.000000,0.000000,0.000000,0.000000,0.000000,0.000000,0.161022,0.205656,0.039549,0.000000,0.000000,114.000000,110.000000,4.000000,0.000000,0.000000,0.000000,0.000000,0.000000,0.000000;
#CREDIT:C. Picardy;
#NOTES:
0000
0000
0000
0000
,
0000
0000
0000
0000
,
0000
0000
0000
0000
,
0000
0000
0000
0000
,
0010
0000
0000
0000
,
0001
0000
0000
0000
,
1000
0000
0000
0000
,
0100
0000
0100
0000
,
0010
0010
0010
0000
,
0001
0001
0001
0000
,
1000
1000
1000
0000
,
0100
0100
0100
0000
,
0010
0000
0100
0000
,
0010
0000
0100
0000
,
0001
0000
1000
0000
,
0001
0000
1000
0000
,
0000
0100
0100
0000
,
0000
0001
0001
0000
,
0000
1000
1000
0000
,
0010
0000
0100
0000
,
0001
0000
1000
0000
,
0100
0000
0010
0000
,
0100
0000
1000
0000
,
0001
0000
0100
0000
,
1001
0000
0010
0000
,
1000
0000
0001
0001
,
0000
0000
0100
0000
,
0010
0010
0010
0010
,
1000
1000
1000
0000
,
0001
0000
0100
0000
,
0010
0010
0010
0000
,
1000
0000
0100
0000
,
0010
0001
0010
0000
,
0100
0000
1000
0000
,
0010
0100
0010
0000
,
1000
0000
0001
0000
,
1000
1000
1000
0000
,
0001
0001
0001
0000
,
0100
0100
0100
0000
,
0010
0010
0010
0000
,
1000
0000
0001
0000
,
0100
0000
0001
0000
,
1000
0000
0100
0000
,
1000
0000
0010
0000
,
0110
0000
0010
0000
,
1000
0000
0100
0000
,
1001
0000
0010
0000
,
0001
0000
0100
0000
,
0010
0010
0010
0000
,
1000
0000
0100
0000
,
0010
0000
0001
0000
,
0100
0000
0010
0010
,
0110
0000
0000
0000
;

//---------------dance-single - C. Picardy----------------
#NOTEDATA:;
#CHARTNAME:;
#STEPSTYPE:dance-single;
#DESCRIPTION:C. Picardy;
#CHARTSTYLE:;
#DIFFICULTY:Medium;
#METER:4;
#RADARVALUES:0.289556,0.363358,0.197746,0.108760,0.000000,205.000000,185.000000,20.000000,11.000000,0.000000,0.000000,0.000000,0.000000,0.000000,0.289556,0.363358,0.197746,0.108760,0.000000,205.000000,185.000000,20.000000,11.000000,0.000000,0.000000,0.000000,0.000000,0.000000;
#CREDIT:C. Picardy;
#NOTES:
0000
0000
0000
0000
,
0000
0000
0000
0000
,
0000
0000
0000
0000
,
0000
0000
0000
0000
,
1000
1000
1000
0000
,
0001
0001
0001
0000
,
0100
0100
0100
0000
,
0010
0100
0010
0100
,
0001
1000
0002
0003
,
1000
0100
2000
3000
,
0010
0100
0020
0030
,
1000
0001
0100
0100
,
0010
2000
0100
3100
,
0010
0002
0100
0103
,
0010
2000
0001
3001
,
0100
0010
0100
0010
,
1000
0001
0101
0000
,
0010
1000
1100
0000
,
0010
0001
1000
0100
,
0010
0010
0001
0001
,
0100
0000
0010
1000
,
0000
0001
0100
0000
,
0010
1000
0100
0010
,
0001
1000
0001
1000
,
0110
0100
0100
0100
,
0000
0001
1000
1000
,
0100
0010
0100
1000
,
1001
1001
0110
0110
,
1000
0001
1000
0001
,
0100
0000
0010
0100
0010
0000
0000
0000
,
0001
1000
0001
1000
,
0100
0010
0100
0010
,
0001
0010
0001
0010
,
0100
0000
1000
0100
1000
0000
0000
0000
,
0100
0010
0001
1000
,
1010
1010
0101
0101
,
2000
0010
0001
3001
,
0200
0010
0001
0301
,
0020
1000
0100
0130
,
0001
0000
1000
0000
0001
1000
0001
0000
,
1000
0100
1100
1100
,
0010
0001
0011
0011
,
0100
0010
0110
0110
,
1000
0001
1001
1001
,
1000
0100
0001
0100
,
1000
0010
0001
0010
,
1000
0100
0001
0100
,
0010
0001
0100
0010
,
1000
0001
1000
0000
0100
0000
0010
0000
,
0001
0100
0010
1000
,
0100
0010
0100
0000
0010
0000
0001
0000
,
0100
0000
0010
0000
1000
0001
1000
0000
,
2002
0000
3003
0000
;

//---------------dance-single - C. Picardy----------------
#NOTEDATA:;
#CHARTNAME:;
#STEPSTYPE:dance-single;
#DESCRIPTION:C. Picardy;
#CHARTSTYLE:;
#DIFFICULTY:Challenge;
#METER:9;
#RADARVALUES:0.512726,0.599787,0.464702,0.484477,0.232351,363.000000,316.000000,47.000000,49.000000,0.000000,17.000000,0.000000,0.000000,0.000000,0.512726,0.599787,0.464702,0.484477,0.232351,363.000000,316.000000,47.000000,49.000000,0.000000,17.000000,0.000000,0.000000,0.000000;
#CREDIT:C. Picardy;
#NOTES:
0000
0000
0000
0000
,
0000
0000
0000
0000
,
0000
0000
0000
0000
,
0000
0000
0000
0000
,
0001
0000
0010
0000
0100
0000
1000
0000
0010
0000
0000
0010
0000
0000
0020
0000
,
0000
1030
0100
0010
0001
0000
0000
0000
,
0010
0000
1000
0000
0100
0000
0010
0000
0001
0000
0000
0001
0000
0000
1000
0000
,
0100
0000
0000
1000
0000
0000
0010
0000
0100
0010
0100
0010
0100
0010
0100
0000
,
0001
0000
0100
0000
0010
0000
1000
0000
0100
0000
0000
0100
0000
0000
0020
0000
,
0000
0000
0031
0000
1000
0000
1000
0000
0100
0000
0000
1000
0000
0000
1000
0001
,
0100
0000
0010
0000
1000
0000
0001
0000
0100
0000
0000
0010
0000
0000
2000
0000
,
0000
3001
0100
0010
1000
1010
0001
0101
,
1000
0000
0001
0000
0100
0000
0010
0000
1000
0000
0000
1010
0000
0000
0220
0000
,
0000
0330
0001
0000
1000
0000
0100
0000
0110
0000
0000
0011
0000
0000
1000
0100
,
0010
0000
0001
0000
1000
0000
0001
0000
0101
0000
0000
0110
0000
0000
2002
0000
,
0000
3003
0100
0000
0010
0000
1000
0000
1100
0000
1001
0000
0101
0000
1001
0000
,
0000
0000
0100
0010
0000
0010
1000
0000
0001
0000
1000
0000
0000
0000
0100
0000
,
0000
0100
0100
0010
0011
0000
0100
0000
,
0000
0100
0010
0001
0010
1000
0100
1000
,
0002
0000
0200
0000
0010
0010
0000
1000
,
0303
0000
0000
0000
0001
0000
0001
0100
0000
0000
0010
0000
0000
0000
0000
0000
,
0000
1000
0100
1000
1001
0000
0100
0000
,
0000
0001
0100
1000
0100
0001
0010
0200
,
0000
2300
0200
0000
0010
0010
0000
0001
,
3300
0000
0000
0000
0100
0000
0100
0010
0000
0001
0000
1000
0000
0000
0000
0000
,
0010
0010
0000
0100
0001
0010
0100
0010
,
0000
0000
0000
0000
0100
0000
0100
1000
0000
1000
0000
0000
0100
0000
0010
0000
,
0022
0000
0000
0033
2002
0000
0000
3003
0202
0000
0000
0303
0220
0000
0000
0330
,
0100
0000
0001
0000
0010
0000
0100
0000
1000
0000
0000
1000
0000
0000
2000
0000
,
0000
3100
0010
0002
0200
0000
0313
0000
,
0001
0000
0100
0000
0010
0000
1000
0000
0100
0000
0000
0010
0000
0000
0100
0000
,
1000
0000
0000
0001
0000
0000
2000
0000
0002
0000
0000
0000
0010
0000
3003
0000
,
1000
0000
0100
0000
0001
0000
0100
0000
1000
0000
0000
0110
0000
0000
2200
0000
,
0000
3300
0100
0000
1000
0000
0100
0000
0220
0000
0000
0000
0331
0000
0000
0000
,
0010
0000
0100
0000
0010
0000
0001
0000
0100
0000
0000
1010
0000
0000
0100
0000
,
0202
0000
0010
0000
1000
0000
1010
0303
,
0100
0000
0010
0000
1000
0000
0100
0000
0010
0000
0000
0001
0000
0000
2000
0000
,
0000
0000
3010
0000
0100
0000
0001
0000
1000
0000
0000
1000
0000
0000
0001
0100
,
0010
0000
1000
0000
0100
0000
0010
0000
0001
0000
0000
1000
0000
0000
0020
0000
,
0000
0130
0001
0010
0100
0110
1000
1001
,
0100
0000
0010
0000
0001
0000
0010
0000
0100
0000
0000
1100
0000
0000
0202
0000
,
0000
0303
0010
0000
1000
0000
0100
0000
0110
0000
0000
0011
0000
0000
1000
0100
,
0010
0000
0001
0000
1000
0000
0001
0000
0101
0000
0000
1100
0000
0000
0220
0000
,
0000
0330
0001
0000
0010
0000
0100
0000
0011
0000
0110
0000
1100
0000
1001
0000
,
1000
0000
0100
0000
0001
0000
0100
0000
2000
0000
0000
0200
0000
0000
0010
0000
,
3300
0000
0100
0000
0010
0000
0002
0000
0200
0000
0000
1000
0303
0000
0001
0100
,
1000
0000
0100
0000
0010
0000
1000
0000
0200
0000
0000
0020
0000
0000
0001
0000
,
0330
1000
0100
0010
0001
0010
0100
1000
,
0100
0000
0010
0000
0001
0000
1000
0000
1010
0000
0000
0110
0000
0000
2002
0000
,
0000
3003
0100
0000
0010
0000
0001
0000
0101
0000
0000
0110
0000
0000
1000
0001
,
1000
0000
0100
0000
0010
0000
0001
0000
1001
0000
0000
1100
0000
0000
0220
0000
,
0000
0330
0001
0000
1000
0000
0001
0000
0100
0010
0100
0010
0100
0010
0100
0000
,
2002
0000
0000
0000
0000
0000
0000
0000
0010
0000
0000
0010
3003
0000
0000
0000
;

//---------------dance-single - C. Picardy----------------
#NOTEDATA:;
#CHARTNAME:;
#STEPSTYPE:dance-single;
#DESCRIPTION:C. Picardy;
#CHARTSTYLE:;
#DIFFICULTY:Hard;
#METER:6;
#RADARVALUES:0.367242,0.390239,0.197746,0.019775,0.064267,260.000000,240.000000,20.000000,2.000000,0.000000,0.000000,0.000000,0.000000,0.000000,0.367242,0.390239,0.197746,0.019775,0.064267,260.000000,240.000000,20.000000,2.000000,0.000000,0.000000,0.000000,0.000000,0.000000;
#CREDIT:C. Picardy;
#NOTES:
0000
0000
0000
0000
,
0000
0000
0000
0000
,
0000
0000
0000
0000
,
0000
0000
0000
0000
,
0010
1000
0100
0000
,
0010
0001
1000
0000
,
0010
0010
0100
0000
,
0001
0100
1001
0110
,
1000
0000
0001
0000
1000
0000
0000
0000
0100
0000
0000
0100
0000
0000
0000
0000
,
0010
0000
0000
0000
0100
0000
0010
0000
0100
0000
0000
0100
0000
0000
0000
0000
,
0010
0000
0001
0000
0010
0000
0000
0000
0001
0000
0000
0001
0000
0000
0001
0000
,
0000
1000
0100
0010
0001
0000
0110
0000
,
0010
1000
0010
0100
0001
0000
1000
0000
,
0010
0000
1000
0000
1000
0000
0000
0000
0100
0000
0000
0100
0000
0000
0010
0000
,
0001
0000
0100
0000
0010
0000
0000
0000
0010
0000
0000
1000
0000
0000
1000
0000
,
0000
0100
0010
0000
0011
0000
0101
0000
,
0000
0010
1000
0001
0100
0000
0010
0000
,
0000
1000
0100
0010
0001
0000
1000
0000
,
0000
0010
0100
0001
0100
0010
1000
0100
,
0010
0000
0001
0000
0100
0100
0000
0100
,
0000
0000
0000
0000
0010
0000
0000
0010
0000
0000
0010
0000
0000
0000
0000
0000
,
0000
1000
1000
0000
0001
0000
0010
0000
,
0000
0100
0010
0001
0010
0100
1000
1000
,
0000
0001
0001
0000
0100
0100
0000
1001
,
0000
0000
0000
0100
0000
0010
0000
0100
,
0000
0001
0000
1000
0000
0100
0000
0010
,
0000
0001
0000
1000
0000
0010
0000
0100
,
0010
0010
0110
1001
,
0100
0010
0100
0000
0001
0000
0001
0000
,
1000
0000
0100
0010
0100
0000
0000
0000
,
0010
0001
0010
0100
1000
0000
1000
0000
,
0100
0010
0011
1001
,
0100
0010
0100
0000
0001
0000
1000
0000
,
0100
0000
0010
0100
0010
0000
0000
0000
,
0001
0100
0010
0000
1000
0000
0100
0000
,
0011
1001
0110
1001
,
1000
0100
0010
0000
0100
0000
0110
0000
,
0001
0100
0010
0000
1000
0000
1001
0000
,
0010
0100
0010
0000
1000
0000
1010
0000
,
0001
0000
1000
0000
0100
0100
0010
0010
,
0001
0000
0100
0000
0010
0000
0000
0000
1000
0000
0000
1000
0000
0000
0000
0000
,
0010
0000
0100
0000
0010
0000
0000
0000
1000
0000
0000
1000
0000
0000
0000
0000
,
0100
0000
0010
0000
0100
0000
0000
0000
0001
0000
0000
0001
0000
0000
0001
0000
,
0000
1000
0100
0010
0001
0010
0100
1000
,
0100
0000
0010
0000
0001
0000
0000
0000
0100
0000
0000
0100
0000
0000
0100
0000
,
0000
0000
0001
0000
0010
0000
0100
0000
1000
0000
0000
1000
0000
0000
0100
0000
,
0010
0000
0001
0000
0010
0000
0000
0000
0100
0000
0000
0100
0000
0000
0100
0000
,
0000
1000
0100
0000
0110
0000
0011
0000
,
1000
0100
0001
0100
1000
0000
1000
0000
,
0001
0000
0001
0010
0100
0000
0010
0000
,
0001
0000
0100
0000
1000
0000
0100
0000
0001
0000
0000
0001
0000
0000
1000
0000
,
0100
0000
0010
0000
0001
1000
0001
1000
,
0220
0000
0000
0000
0000
0330
0000
0000
;
