#VERSION:0.83;
#TITLE:Ich Bin Wieder Hier;
#SUBTITLE:;
#ARTIST:Blümchen;
#TITLETRANSLIT:;
#SUBTITLETRANSLIT:;
#ARTISTTRANSLIT:;
#GENRE:;
#ORIGIN:;
#CREDIT:;
#BANNER:ichbinwiederhierbn.png;
#BACKGROUND:ichbinwiederhierbg.png;
#PREVIEWVID:;
#JACKET:;
#CDIMAGE:;
#DISCIMAGE:;
#LYRICSPATH:;
#CDTITLE:;
#MUSIC:ichbinwiederhier.ogg;
#OFFSET:-2.045521;
#SAMPLESTART:58.059971;
#SAMPLELENGTH:12.000000;
#SELECTABLE:YES;
#BPMS:0.000=139.000;
#STOPS:194.000=0.432;
#DELAYS:;
#WARPS:;
#TIMESIGNATURES:0.000=4=4;
#TICKCOUNTS:0.000=4;
#COMBOS:0.000=1;
#SPEEDS:0.000=1.000=0.000=0;
#SCROLLS:0.000=1.000;
#FAKES:;
#LABELS:0.000=Song Start;
#BGCHANGES:;
#KEYSOUNDS:;
#ATTACKS:
;

//---------------dance-single - C. Picardy----------------
#NOTEDATA:;
#CHARTNAME:;
#STEPSTYPE:dance-single;
#DESCRIPTION:C. Picardy;
#CHARTSTYLE:;
#DIFFICULTY:Beginner;
#METER:1;
#RADARVALUES:0.100606,0.164242,0.057883,0.000000,0.000000,73.000000,67.000000,6.000000,0.000000,0.000000,0.000000,0.000000,0.000000,0.000000,0.100606,0.164242,0.057883,0.000000,0.000000,73.000000,67.000000,6.000000,0.000000,0.000000,0.000000,0.000000,0.000000,0.000000;
#CREDIT:C. Picardy;
#NOTES:
0000
0000
0000
0000
,
0000
0000
0000
0000
,
0000
0000
0000
0000
,
0000
0000
0000
0000
,
0010
0000
0000
0000
,
0000
0000
0000
0000
,
0100
0000
0000
0000
,
0000
0000
0010
0000
,
1001
0000
0000
0000
,
0100
0000
0000
0000
,
0001
0000
0000
0000
,
1000
0000
0000
0000
,
0010
0000
0000
0000
,
0100
0000
0100
0000
,
0010
0000
0010
0000
,
1000
0000
1000
0000
,
0001
0000
0001
0000
,
1000
0000
0000
0000
,
0001
0000
0000
0000
,
0100
0000
0000
0000
,
0010
0000
0000
0000
,
1000
0000
0000
0000
,
0001
0000
0000
0000
,
0010
0000
0000
0000
,
0100
0000
0000
0000
,
1000
0000
1000
0000
,
1000
0000
0000
0000
,
0001
0000
0001
0000
,
0000
0000
0000
0000
,
0100
0000
0100
0000
,
0100
0000
0000
0000
,
0010
0000
0000
0000
,
0100
0000
0000
0000
,
1001
0000
0000
0000
,
0010
0000
0000
0000
,
0100
0000
0000
0000
,
0010
0000
0000
0000
,
1000
0000
0000
0000
,
0001
0000
0000
0000
,
1000
0000
0000
0000
,
0001
0000
0000
0000
,
0100
0000
0100
0000
,
0010
0000
0010
0000
,
1000
0000
1000
0000
,
0001
0000
0001
0000
,
1001
0000
0000
0000
,
1001
0000
0000
0000
,
1001
0000
0000
0000
,
1001
0000
0000
0100
,
0000
0000
0000
0010
,
0000
0000
0000
1000
,
0000
0000
0000
0001
,
0000
0000
0000
0100
,
0000
0100
0000
0010
,
0000
0010
0000
1000
,
0000
1000
0000
0001
,
0000
0001
0000
0010
;

//---------------dance-single - ----------------
#NOTEDATA:;
#CHARTNAME:;
#STEPSTYPE:dance-single;
#DESCRIPTION:;
#CHARTSTYLE:;
#DIFFICULTY:Easy;
#METER:3;
#RADARVALUES:0.241178,0.274943,0.057883,0.096471,0.000000,175.000000,169.000000,6.000000,10.000000,0.000000,0.000000,0.000000,0.000000,0.000000,0.241178,0.274943,0.057883,0.096471,0.000000,175.000000,169.000000,6.000000,10.000000,0.000000,0.000000,0.000000,0.000000,0.000000;
#CREDIT:C. Picardy;
#NOTES:
0000
0000
0000
0000
,
0000
0000
0000
0000
,
0000
0000
0000
0000
,
0000
0000
0000
0000
,
0001
0000
1000
0000
,
0100
0000
0010
0000
,
0001
0000
1000
0000
,
0010
0000
0100
0000
,
2002
3003
0000
0000
,
0010
0100
0010
0000
,
1000
0010
1000
0000
,
0001
0010
0100
0000
,
1000
0100
0010
0000
,
0001
1000
0001
1000
,
0010
0100
0010
0100
,
0001
0010
0001
0010
,
0100
1000
0100
1000
,
1001
0000
0100
0000
,
0010
0000
1000
0000
,
0001
1000
0100
0100
,
0010
0001
1000
1000
,
0010
0000
0100
0000
,
0001
0000
1000
0000
,
0100
0010
0001
0001
,
1000
0100
0010
0010
,
0200
0000
2300
0000
,
3200
0000
0320
0000
,
0032
0000
2003
0000
,
3100
0010
0100
0100
,
1001
0000
1100
0000
,
0101
0000
1000
0001
,
1000
0100
0000
0010
,
0001
0000
1000
0000
,
0010
0010
0100
0100
,
0001
0001
1000
1000
,
0100
0000
0010
0000
,
0001
0000
0100
0000
,
0010
0010
1000
1000
,
0001
0001
0100
0100
,
0010
0000
1000
0000
,
0001
0000
0100
1000
,
0001
1000
0001
1000
,
0010
0100
0010
0100
,
0001
0010
0001
0010
,
0100
1000
0100
1000
,
0001
0010
0100
1000
,
0001
0010
0100
1000
,
1000
0100
0010
0001
,
1000
0100
0000
0010
,
0100
0010
0100
1000
,
0100
1000
0100
0010
,
0100
0010
0100
0010
,
0001
0010
0001
1000
,
0001
0100
0001
1000
,
0010
1000
0001
0010
,
0001
1000
0001
0010
,
0100
1000
0001
2002
,
3003
0000
0000
0000
;

//---------------dance-single - C. Picardy----------------
#NOTEDATA:;
#CHARTNAME:;
#STEPSTYPE:dance-single;
#DESCRIPTION:C. Picardy;
#CHARTSTYLE:;
#DIFFICULTY:Medium;
#METER:5;
#RADARVALUES:0.363834,0.443767,0.260472,0.144707,0.000000,264.000000,237.000000,27.000000,15.000000,0.000000,0.000000,0.000000,0.000000,0.000000,0.363834,0.443767,0.260472,0.144707,0.000000,264.000000,237.000000,27.000000,15.000000,0.000000,0.000000,0.000000,0.000000,0.000000;
#CREDIT:C. Picardy;
#NOTES:
0000
0000
0000
0000
,
0001
0000
0010
0000
,
0100
0000
1000
0000
,
0001
0000
0100
0100
,
0110
0000
0001
0000
,
1000
0000
0100
0010
,
0010
0000
0001
0000
,
0200
0000
0300
0000
0010
0100
0010
0000
,
2000
0002
0000
3003
,
0100
0000
0010
0000
0100
0000
0010
0100
,
0010
0000
1000
0000
0010
0000
1000
0010
,
1000
0000
0100
0000
0010
0000
0001
0010
,
0001
0000
0100
0000
0001
0000
1000
0010
,
0100
0000
0001
0000
1000
0000
0100
0010
,
0001
0000
0010
0000
0100
0000
1000
0001
,
0100
0000
0010
0000
1000
0000
0001
0010
,
0100
1100
0101
1100
,
0001
0000
0000
0100
0100
0000
0000
0010
,
0010
0000
0000
1000
1000
0000
0000
0000
,
0001
1000
0100
0010
,
0100
1000
0001
0100
,
0010
0000
0000
1000
1000
0000
0000
0100
,
0100
0000
0000
0010
0010
0000
0001
0000
,
1000
0100
0001
0100
,
1000
0000
0001
0000
0010
0000
0100
1000
,
2000
0000
0000
3100
0200
0000
0000
0310
,
0020
0000
0000
0031
0002
0000
0000
0103
,
0200
0000
0000
0010
0310
0000
1000
0000
,
0001
0000
0010
0000
0100
0000
1000
0001
,
0200
0000
0000
0301
0002
0000
0000
1003
,
2000
0000
0000
3010
0010
0000
0100
0000
,
0001
0000
1000
0000
0100
0000
0010
0001
,
1000
0000
0000
0000
0001
0010
0100
0000
,
2000
0010
0100
0100
,
0001
0100
0010
0010
,
3001
0100
0101
1000
,
1001
0000
0000
0000
1000
0100
0010
0000
,
0002
0010
1000
1000
,
0010
1000
0100
0100
,
1003
0100
1100
0001
,
0101
0000
0000
0000
0001
0100
0010
0000
,
1000
0000
0010
0000
1010
0000
0100
0010
,
1000
0000
0100
0000
1100
0000
0010
0001
,
0100
0000
0010
0000
0110
0000
1000
0001
,
0100
0000
0001
0000
0101
0000
1000
0100
,
0010
0000
0001
0000
1100
0000
0001
0100
,
1000
0000
0100
0000
1010
0000
0001
1000
,
0100
0000
0010
0000
1001
0000
1000
0001
,
0100
0010
0000
0010
,
1001
0000
1001
0000
0010
0100
1000
0000
,
0110
0000
0110
0000
0001
0010
0100
0000
,
0011
0000
0011
0000
0010
0100
1000
0000
,
0001
0000
1000
0100
0010
0001
1000
0000
,
0101
0000
0110
0000
1000
0100
0010
0000
,
0011
0000
0101
0000
1000
0010
0100
0000
,
1010
0000
1100
0000
0010
0100
1000
0000
,
0001
0000
0001
1000
0100
0000
0020
0000
,
0002
0000
0033
0000
;

//---------------dance-single - C. Picardy----------------
#NOTEDATA:;
#CHARTNAME:;
#STEPSTYPE:dance-single;
#DESCRIPTION:C. Picardy;
#CHARTSTYLE:;
#DIFFICULTY:Challenge;
#METER:10;
#RADARVALUES:0.705617,0.859799,0.164001,0.376237,0.781416,512.000000,495.000000,17.000000,39.000000,4.000000,4.000000,2.000000,0.000000,0.000000,0.705617,0.859799,0.164001,0.376237,0.781416,512.000000,495.000000,17.000000,39.000000,4.000000,4.000000,2.000000,0.000000,0.000000;
#CREDIT:C. Picardy;
#NOTES:
0000
0000
0000
0000
,
2000
0000
0200
3000
,
0002
0300
2000
0003
,
0020
0000
3000
0000
0031
0001
0100
1000
,
0100
0000
0100
0000
0010
0000
0000
1000
0000
1000
0000
0001
1000
0000
0000
0000
,
0100
0000
0000
0000
0000
0000
0100
0000
0000
0000
0000
0000
1000
0000
0000
0000
0000
0000
0000
0000
0000
0001
0000
0000
0000
0000
0000
0001
0000
0000
0000
0000
0000
0010
0000
0000
0001
0000
0000
0000
1000
0000
0000
0000
0100
0000
0000
0000
,
1000
0000
0000
0001
0010
0001
0010
0000
0000
1000
0100
0010
,
0001
0000
0010
0000
0100
0000
1000
0000
0000
0000
0000
0000
0001
0000
0000
0100
0000
0000
0010
0000
0000
1000
0000
0000
,
2002
0010
0000
3003
,
1000
0000
0100
0000
1000
0010
0000
0100
0000
0100
0000
0001
0100
0000
0010
1000
,
0010
0000
0100
0000
0001
0010
0000
0100
0000
0100
0000
1000
0100
0000
0010
0001
,
0010
0000
0100
0000
1000
0001
0000
0100
0000
0100
0000
0010
1000
0000
0001
0100
,
0001
0000
1000
0000
0100
0010
0000
0001
0000
0001
0000
1000
0100
0000
0010
0100
,
0010
0000
0001
0000
0100
0010
0000
1000
0000
0001
0000
1000
0100
0000
0010
0100
,
1000
0000
0001
0000
0100
0010
0000
0100
0000
0001
0000
0010
0100
0000
1000
0100
,
0010
0001
0010
0001
0010
0001
0010
0001
1000
0001
1000
0001
1000
0001
1000
0001
,
0100
0001
0100
0001
0100
0001
0100
0001
4000
0040
0000
0000
0000
0000
3030
0000
,
0100
0000
0000
0101
0000
0000
1000
0000
0010
0000
0000
0110
0000
0000
0001
0000
,
1000
0000
0000
1100
0000
0000
0001
0000
0010
0000
0000
0110
0000
0000
1000
0000
,
0002
0000
0000
0000
1003
0000
0000
0010
0100
0000
0001
0100
0001
0000
1000
0001
,
1000
0000
0001
1000
0001
0000
1000
0100
1000
0000
0100
1000
0100
0000
1000
0000
,
0001
0000
0000
1010
0000
0000
0001
0000
1000
0000
0000
0110
0000
0000
0001
0000
,
0010
0000
0000
0110
0000
0000
1000
0000
0002
0000
0000
0000
0000
0000
0200
0000
,
0000
0000
0000
0000
1000
0303
0000
0001
0100
0000
0001
0100
0001
0000
1000
0100
,
1000
0000
0100
1000
0100
0000
1000
0001
1000
0000
0001
1000
0001
0000
1000
0000
,
1100
0000
0000
2000
0000
0000
0002
3000
0200
0000
0003
2000
0300
0000
0002
3000
,
0020
0000
0003
2000
0030
0000
0200
3000
0002
0000
0300
2000
0003
0000
0020
3000
,
0002
0000
0030
0200
0003
0000
0020
0300
2000
0000
0000
0000
3030
0000
0001
0100
,
0001
0000
1000
0000
0010
1000
0000
0001
0000
0001
0000
1000
0100
0000
0010
0000
,
0200
0000
0000
2000
0300
0000
0002
3000
0200
0000
0003
0020
0300
0000
2000
0030
,
0002
0000
0000
0000
3003
0000
0200
0000
0020
0000
0300
2000
0030
0000
0200
0000
,
0000
0000
0000
0001
0000
0000
3300
0000
0000
1000
0100
0010
,
0001
0000
0000
0001
0010
0100
1000
0000
0000
0000
0000
0000
,
0001
0100
1000
0100
0001
0100
1000
0100
,
0001
0100
0001
0000
1000
0000
0100
0000
0010
0001
0010
0000
0100
0000
1000
0000
,
0001
1000
0001
0000
0100
0000
0010
0000
1000
0001
1000
0000
0100
0000
1000
0000
,
0001
0010
0001
0000
0010
0001
0010
0000
0001
0000
0100
0000
0001
0000
1000
0000
,
1000
0100
0001
0100
1000
0100
0001
0100
,
1000
0100
1000
0000
0001
0000
0100
0000
0001
0100
0001
0000
1000
0000
0010
0000
,
1000
0001
1000
0000
0100
0000
1000
0000
0001
1000
0001
0000
0100
0000
0010
0000
,
1000
0010
1000
0000
0010
1000
0010
0000
1000
0000
0001
0000
0100
0000
0010
0000
,
1000
0000
0001
0100
0001
0000
1000
0001
1000
0000
0001
1000
0001
0000
1000
0000
,
0100
0000
1000
0100
1000
0000
0100
1000
0100
0000
1000
0001
1000
0000
0001
0000
,
0010
0000
0001
0010
0001
0000
0100
0001
0100
0000
0010
1000
0010
0000
1000
0000
,
0001
0000
1000
0010
1000
0000
0001
0010
0001
0010
0100
1000
0100
1000
0001
0010
,
0100
0000
1000
0100
0010
0000
0001
0100
0010
0000
1000
0001
0100
0000
0010
0000
,
1000
0000
0100
0010
0001
0000
0010
0100
1000
0000
0001
0100
0010
0000
1000
0000
,
0001
0100
0001
0100
0001
0100
0001
0100
0010
1000
0010
1000
0010
1000
0010
1000
,
0100
1000
0100
1000
0001
1000
0001
1000
0000
0000
MMMM
0000
0110
0000
1000
0001
,
1000
0000
0001
0100
0001
0000
1000
0100
1000
0000
0001
0000
0101
0000
1000
0010
,
1000
0000
0001
0010
0001
0000
0100
0010
0100
0000
0010
0000
1010
0000
0001
1000
,
0001
0000
1000
0010
1000
0000
0001
0010
0001
0000
1000
0000
0011
0000
1000
0100
,
1000
0000
0001
0100
0001
0100
0010
1000
0010
1000
0001
0100
0010
0000
1000
0100
,
0010
0000
0001
0100
0010
0000
0100
0010
1000
0000
0001
0000
0110
0000
1000
0001
,
0100
0000
0010
1000
0001
0000
0010
0100
1000
0000
0001
0000
0101
0000
1000
0100
,
0010
0000
0001
0010
0100
0000
1000
0010
0100
0000
0001
0000
2100
0000
0000
0000
,
3010
0000
0001
0100
0010
1000
2002
0000
,
0010
0000
3003
0000
;

//---------------dance-single - C. Picardy----------------
#NOTEDATA:;
#CHARTNAME:;
#STEPSTYPE:dance-single;
#DESCRIPTION:C. Picardy;
#CHARTSTYLE:;
#DIFFICULTY:Hard;
#METER:8;
#RADARVALUES:0.497515,0.499238,0.144707,0.115765,0.429296,361.000000,346.000000,15.000000,12.000000,0.000000,0.000000,0.000000,0.000000,0.000000,0.497515,0.499238,0.144707,0.115765,0.429296,361.000000,346.000000,15.000000,12.000000,0.000000,0.000000,0.000000,0.000000,0.000000;
#CREDIT:C. Picardy;
#NOTES:
0000
0000
0000
0000
,
1000
0000
0001
0000
,
0100
0000
0010
0010
,
0020
0000
1030
0000
,
0001
0000
0000
0000
0001
0000
0000
1000
0000
0000
0000
1000
0000
0000
0000
0000
,
0100
0000
0000
0000
0100
0000
0000
0010
0000
0000
0000
0010
0000
0000
0000
0000
,
0001
2000
3100
0002
,
0103
0000
0000
0000
0001
0100
0010
1000
,
1002
0020
0033
0000
,
0100
0000
0010
0000
0001
0000
0000
0100
0000
0100
0000
0001
0010
0000
0000
0000
,
0001
0000
0010
0000
0100
0000
0000
0010
0000
0010
0000
0100
1000
0000
0000
0000
,
0001
0000
0100
0000
1000
0000
0000
0100
0000
0100
0000
0001
1000
0000
0000
0000
,
1000
0000
0100
0000
0001
0000
0000
0010
0000
0010
0000
0100
0010
0000
0000
0000
,
0001
0000
0010
0000
0100
0000
0000
0010
0000
0001
0000
0100
0010
0000
1000
0000
,
0100
0000
1000
0000
0010
0000
0000
0100
0000
0010
0000
1000
0010
0000
1000
0000
,
0100
0000
0100
0000
0010
0000
0000
0001
0000
0010
0000
0001
0100
0000
0010
0000
,
0110
1010
1100
1001
,
1000
0000
0000
0001
0000
0000
1000
0000
0001
0000
0000
1000
0000
0000
0100
0000
,
0010
0000
0000
0100
0000
0000
1000
0000
0100
0000
0000
0010
0000
0000
0002
0000
,
0000
0000
0000
0000
0103
0000
0000
0100
0010
0000
0000
0010
1000
0000
0000
0000
,
0001
0000
0000
0001
0010
0000
0000
0010
0100
0000
0000
0000
0011
0000
0000
0000
,
0100
0000
0000
0010
0000
0000
0100
0000
0001
0000
0000
1000
0000
0000
0010
0000
,
1000
0000
0000
0001
0000
0000
0010
0000
0200
0000
0000
0000
1000
0000
0000
0000
,
0010
0000
0000
0000
1300
0000
0000
1000
0001
0000
0000
0001
0100
0000
0000
0000
,
0010
0000
0000
0010
1000
0000
0000
1000
0001
0000
0000
0000
1000
0000
0100
0000
,
0010
0000
0000
0010
0000
0000
0001
0000
1000
0000
0000
1000
0000
0000
0010
0000
,
0100
0000
0000
0100
0000
0000
0001
0000
0010
0000
0000
0010
0000
0000
0001
0000
,
1000
0000
0000
1000
0000
0000
0100
0000
0020
0000
0000
0000
0031
0000
0000
0000
,
1000
0000
1000
0000
0100
0000
0000
0010
0000
0010
0000
0001
0010
0000
0001
0000
,
0001
0000
0000
0100
0000
0000
0010
0000
0010
0000
0000
1000
0000
0000
1000
0000
,
1000
0000
0000
0000
0000
0000
0001
0000
1000
0000
0000
0100
0000
0000
0200
0000
,
0000
0000
0310
0000
0001
0000
0010
0100
,
1000
0000
0000
0000
0001
0100
0010
1000
,
0001
0100
0010
0100
0001
0100
0010
0100
,
0001
0010
0100
0010
0001
0010
0100
0000
,
0011
1000
1100
0010
,
0110
0000
0000
0000
1000
0001
0100
0010
,
1000
0100
0010
0100
1000
0100
0010
0100
,
1000
0010
0100
0010
1000
0010
0100
0000
,
0101
1000
1010
0001
,
0011
0000
0000
0000
1000
0100
0010
0001
,
1000
0000
0000
1000
0001
0000
0000
0001
1000
0000
0000
1000
0100
0000
0010
0000
,
0001
0000
0000
0001
0100
0000
0000
0100
0001
0000
0000
0001
0100
0000
0010
0000
,
1000
0000
0000
1000
0100
0000
0000
0100
1000
0000
0000
1000
0100
0000
1000
0000
,
0010
0000
0000
0010
0100
0000
0000
0100
0010
0000
1000
0000
0001
0000
0010
0000
,
0100
0000
0000
0100
0010
0000
0000
0010
0001
0000
0000
0001
0010
0000
0100
0000
,
0010
0000
0000
0010
0001
0000
0000
0001
0100
0000
0000
0100
0010
0000
1000
0000
,
0001
0000
0000
0001
1000
0000
0000
1000
0100
0000
0000
0100
0010
0000
0001
0000
,
0011
0000
0000
0000
0102
0000
0000
0000
1003
0000
0000
0000
0010
0000
0000
0010
,
0100
0000
0000
0010
0100
0000
0000
0010
1000
0000
0100
0000
0010
0000
0000
0001
,
0010
0000
0000
0001
0010
0000
0000
0001
1000
0000
0100
0000
0010
0000
0000
0100
,
1000
0000
0000
0100
1000
0000
0000
0001
0100
0000
0010
0000
1000
0000
0100
0000
,
0001
0000
0000
0000
0001
0000
0100
0000
1000
0000
0001
0000
0010
0000
0000
0100
,
1000
0000
0000
0100
0010
0000
0000
0001
1000
0000
0010
0000
0100
0000
0000
0001
,
1000
0000
0000
0010
0100
0000
0000
0010
1000
0000
0001
0000
0100
0000
0000
0001
,
0010
0000
0000
0100
1000
0000
0000
0001
0100
0000
0010
0000
1000
0000
0100
0000
,
0010
0001
0010
0100
0010
0001
2001
0000
,
0200
0000
3300
0000
;
