#TITLE:I Need your Love;
#SUBTITLE:;
#ARTIST:Dr. Leo;
#TITLETRANSLIT:;
#SUBTITLETRANSLIT:;
#ARTISTTRANSLIT:;
#GENRE:;
#CREDIT:;
#BANNER:ineedyourlovebn.png;
#BACKGROUND:ineedyourlovebg.png;
#LYRICSPATH:;
#CDTITLE:;
#MUSIC:ineedyourlove.ogg;
#OFFSET:-1.544750;
#SAMPLESTART:64.180000;
#SAMPLELENGTH:12.000000;
#SELECTABLE:YES;
#BPMS:0.000000=158.000000
;
#STOPS:
;
#BGCHANGES:16.000=hellfire.mp4=1.000=1=0=1=SongBgWithMovieViz==CrossFade==,
40.000=flash=1.600=0=0=1=====,
40.250=hellfire.mp4=1.000=0=1=1=StretchRewind====,
72.000=flash=1.600=0=0=1=====,
72.250=Snakeparticles.mp4=1.000=0=1=1=StretchRewind====,
104.000=goldensphere.mp4=1.000=0=1=1=StretchRewind==SlideLeft=#FF0000=,
133.000=ineedyourlovebg.png=1.000=0=0=1===CrossFade_Fastest==,
136.000=hellfire.mp4=1.000=0=0=1===SlideLeft==,
141.000=hellfire.mp4=1.000=0=0=1=SongBgWithMovieViz====,
144.000=hellfire.mp4=1.000=0=0=1===SlideRight==,
149.000=hellfire.mp4=1.000=0=0=1=SongBgWithMovieViz====,
152.000=hellfire.mp4=1.000=0=0=1===SlideUp==,
164.000=goldensphere.mp4=1.000=0=0=1===CrossFade_Fastest==,
165.000=goldensphere.mp4=1.000=0=0=1=SongBgWithMovieViz==CrossFade_Fastest==,
168.000=goldensphere.mp4=1.000=0=0=1===SlideLeft==,
173.000=goldensphere.mp4=1.000=0=0=1=SongBgWithMovieViz====,
176.000=goldensphere.mp4=1.000=0=0=1===SlideRight==,
181.000=goldensphere.mp4=1.000=0=0=1=SongBgWithMovieViz====,
184.000=goldensphere.mp4=1.000=0=0=1===SlideUp==,
200.000=flash=1.600=0=0=1=====,
200.250=Snakeparticles.mp4=1.000=0=0=1=====,
216.000=flash=1.600=0=0=1=====,
216.250=hellfire.mp4=1.000=0=0=1=====,
231.000=flash=1.600=0=0=1=====,
231.250=ineedyourlovebg.png=1.000=0=0=1=====,
99999=-nosongbg-=1.000=0=0=0 // don't automatically add -songbackground-
;
#KEYSOUNDS:;
#ATTACKS:;

//---------------dance-single - C. Picardy----------------
#NOTES:
     dance-single:
     :
     Beginner:
     1:
     0.093766,0.158529,0.055624,0.000000,0.000000,59.000000,54.000000,5.000000,0.000000,0.000000,0.000000,0.093766,0.158529,0.055624,0.000000,0.000000,59.000000,54.000000,5.000000,0.000000,0.000000,0.000000:
0000
0000
0000
0000
,
0000
0000
0000
0000
,
0000
0000
0000
0000
,
0000
0000
0000
0000
,
0010
0000
0000
0000
,
0100
0000
0000
0000
,
0001
0000
0000
0000
,
1000
0000
0000
0000
,
1001
0000
0000
0000
,
0000
0000
0000
0000
,
0100
0000
0000
0000
,
0010
0000
0000
0000
,
0001
0000
0000
0000
,
1000
0000
1000
0000
,
1000
0000
0000
0000
,
0100
0000
0000
0000
,
0010
0000
0000
0000
,
0001
0000
0001
0000
,
0001
0000
0000
0000
,
0100
0000
0000
0000
,
0010
0000
0000
0000
,
0000
0000
0000
0000
,
0100
0000
0000
0000
,
0010
0000
0000
0000
,
1000
0000
0000
0000
,
0000
0000
0000
0000
,
1001
0000
0000
0000
,
0100
0000
0000
0000
,
0010
0000
0000
0000
,
1000
0000
0000
0000
,
0001
0000
0000
0000
,
0100
0000
0000
0000
,
0010
0000
0000
0000
,
0000
0000
0000
0000
,
1001
0000
0000
0000
,
0100
0000
0000
0000
,
0010
0000
0000
0000
,
1000
0000
0000
0000
,
0001
0000
0000
0000
,
0100
0000
0000
0000
,
0010
0000
0000
0000
,
0100
0000
0000
0000
,
1001
0000
0000
0000
,
0001
0000
0001
0000
,
0001
0000
0000
0000
,
1000
0000
1000
0000
,
1000
0000
0000
0000
,
0100
0000
0000
0000
,
0010
0000
0000
0000
,
0100
0000
0000
0000
,
1001
0000
0000
0000
,
0010
0000
0000
0000
,
0100
0000
0000
0000
,
0001
0000
0000
0000
,
1000
0000
0000
0000
,
0010
0000
0000
0000
,
0100
0000
0000
0000
,
0010
0000
0000
0000
;

//---------------dance-single - C. Picardy----------------
#NOTES:
     dance-single:
     :
     Challenge:
     10:
     0.917004,1.032384,0.567366,0.211372,0.889987,577.000000,526.000000,51.000000,19.000000,46.000000,4.000000,0.917004,1.032384,0.567366,0.211372,0.889987,577.000000,526.000000,51.000000,19.000000,46.000000,4.000000:
0000
0000
0000
0000
,
0000
0000
0000
0000
,
0000
0000
0000
0000
,
0000
0100
0010
0100
,
1020
1000
1000
1030
,
0201
0000
0001
0000
0001
0001
0301
0000
,
0000
1000
0001
0100
0000
0010
0000
1001
,
0000
0100
0010
0000
M1M1
0000
1M0M
0000
,
11MM
0000
0000
0001
0010
M10M
0000
M01M
,
0000
0000
M11M
0000
0000
0100
0010
0000
0001
0100
0000
0000
0010
1000
0010
1000
,
0001
0010
0001
0010
0100
1000
0000
0001
0000
1000
0001
0100
0010
1000
0100
0010
,
0001
0010
0001
0100
0010
1000
0000
0001
0000
0100
0010
1000
0001
0010
0100
1000
,
0001
0100
0001
0100
0010
1000
0000
0100
0000
1000
0100
1000
0010
0100
0010
1000
,
0001
0010
0100
0010
0001
0100
0010
1000
0000
0100
0010
0001
0010
0100
0000
0000
,
1000
0100
0010
0100
1000
0001
0000
0101
0000
0010
0100
1000
0001
0100
0010
1000
,
0100
0010
0100
1000
0001
0100
0000
1010
0000
0100
0010
1000
0100
0010
0001
0010
,
0100
1000
0001
0100
0010
0100
0000
1001
0000
0100
0010
1000
0001
0010
0100
0010
,
0001
0000
M0M1
0100
0000
0100
M01M
0000
0M1M
1000
0000
1000
00M1
0100
0000
0000
,
1010
0100
0001
0100
0010
0100
1000
0100
,
0101
0001
1000
0100
0001
0100
1000
0010
,
0110
0100
0001
0100
1000
0100
0010
1M1M
,
0000
0000
MM11
0000
0000
0000
11MM
0000
0000
0000
0001
0010
0100
1000
0100
0010
,
0001
1000
0100
0001
0100
0010
0100
1100
,
1001
0100
1000
0100
0001
0010
0100
0110
,
1100
1000
0010
0001
0010
1000
0100
MM11
,
0000
0000
11MM
0000
0000
0000
M1M1
0000
0000
0000
0001
0100
0010
1000
0010
0100
,
0002
0100
0103
2000
0100
0100
0100
3100
,
0020
1000
1030
0200
0001
0001
0001
0301
,
0200
1000
1300
0020
0001
0031
2000
0100
,
3100
0020
1000
1030
0002
0010
0013
0100
,
2100
0100
0100
3210
0010
0010
0010
0310
,
0012
0010
0013
0201
0001
0001
0001
0301
,
2010
0000
0100
0200
0000
0010
0000
0001
,
3300
M10M
1MM1
M01M
,
0110
0000
0010
0000
1000
0000
0001
0100
0010
0000
1000
0000
0001
0000
0010
0100
,
1000
0001
0101
0100
0110
0010
1010
1000
,
1001
0000
0001
0000
0100
0000
0010
1000
0001
0000
0010
0000
0100
0000
1000
0100
,
0010
0001
0101
1000
1100
0001
0011
1000
,
1001
0000
0100
0000
0010
0000
0001
0010
0100
0000
1000
0000
0001
0000
0100
0010
,
1000
0000
0001
0000
0010
0000
0100
1000
0001
0000
1000
0010
1000
0010
1000
0000
,
0001
0100
0010
1000
0100
0010
0001
1000
,
0010
0100
0010
0000
1000
0001
1000
0000
0100
0010
0100
0010
0001
1000
0001
0000
,
1001
0000
0010
0100
1000
0000
0001
0100
0010
0000
1000
0001
0100
0000
0010
1000
,
0001
1000
1100
0010
0110
0001
0011
0001
,
0101
0000
1000
0001
0100
0000
0010
1000
0001
0000
0010
0100
1000
0000
0010
0100
,
0001
1000
1010
0100
0110
0010
1010
1000
,
1001
0000
0100
0010
1000
0000
0001
0100
0010
0000
1000
0010
0100
0000
0001
0010
,
0100
0000
0010
0001
0100
0000
0010
1000
0100
0000
0010
0001
0010
0001
0010
0000
,
0100
1000
0100
0001
0100
0010
0001
0100
,
0010
1000
0100
0010
2002
0000
0010
3003
,
0001
0100
1000
0100
0010
1000
0000
0100
0000
1000
0100
0001
0100
0010
0100
1000
,
0010
0100
0001
0010
0100
0010
0000
0001
0000
0100
1000
0100
0001
0100
0010
1000
,
0100
0010
0100
1000
0010
0001
0000
0010
0000
1000
0001
0100
0010
1000
0100
0010
,
0001
0100
0001
0100
1000
0100
1000
0100
0000
0001
0010
0100
0010
0001
0000
0000
,
1000
0100
0010
0001
0100
0010
0000
1001
0000
1000
0001
0100
0010
1000
0100
0010
,
0100
1000
0001
0100
0010
0100
0000
1001
0000
0010
0100
1000
0001
0100
0010
1000
,
0100
0010
0001
0100
0010
1000
0000
0110
0000
0001
0100
0010
1000
0100
0010
0001
,
0100
0000
M10M
0010
0000
0010
1M0M
0000
1000
01MM
0000
0001
0100
1000
00M0
0000
,
M1M1
0000
0000
0000
;

//---------------dance-single - C. Picardy----------------
#NOTES:
     dance-single:
     :
     Hard:
     8:
     0.551474,0.548454,0.289246,0.289246,0.189122,347.000000,321.000000,26.000000,26.000000,14.000000,0.000000,0.551474,0.548454,0.289246,0.289246,0.189122,347.000000,321.000000,26.000000,26.000000,14.000000,0.000000:
0000
0000
0000
0000
,
0000
0000
0000
0000
,
0000
0000
0000
0000
,
0000
0000
0000
0000
,
1001
1000
0001
1000
,
0100
0010
0100
1000
,
0001
0100
0010
1000
0000
1000
0000
0002
,
0000
1003
1100
0001
,
0202
0000
0303
0001
0100
0010
0000
2000
,
0000
0002
0MM0
0000
0MM0
0000
3MM3
0000
,
0001
0000
0100
0000
0010
0100
0000
0010
0000
0000
1000
0000
0100
0000
0010
0000
,
0100
0000
1000
0000
0100
0010
0000
0100
0000
0000
0010
0000
0001
0000
0010
0000
,
0100
0000
0010
0000
0001
0010
0000
0001
0000
0000
0100
0000
0010
0000
1000
0000
,
0001
0000
0100
0000
0010
0000
1000
0100
0000
0000
0010
0000
0100
1000
0000
0000
,
0001
0000
0100
0000
0010
0100
0000
0001
0000
0000
0010
0000
0100
0000
0010
0000
,
0001
0000
0100
0000
0010
1000
0000
0010
0000
0000
1000
0000
0100
0000
0010
0000
,
0100
0000
1000
0000
0001
0100
0000
0010
0000
0000
1000
0000
0001
0000
0100
0000
,
0010
0000
0000
1000
0000
0000
0001
0000
0000
0100
0000
0000
0010
1000
0000
0000
,
0001
0100
0010
0100
0001
0100
0010
0000
,
1000
0100
0010
0100
1000
0100
0010
0002
,
0000
2003
0000
3002
0000
1003
0100
1100
,
0000
0101
0000
2200
0000
0000
3300
0000
,
1001
0000
1000
0010
0100
0010
1000
0010
,
0100
0000
0001
0010
0100
0010
0001
0010
,
0100
1000
0000
1001
0000
0100
0010
0110
,
0000
1001
0000
0110
0000
1000
0001
0100
,
0020
1000
0230
0001
,
0320
0001
2030
0100
,
3002
0010
0100
0023
,
0100
0000
0001
0000
0130
0000
1000
0010
,
0200
0001
1000
0310
,
2000
0100
3002
0100
,
0013
0000
0100
0010
0000
0011
0000
1100
,
0000
0001
1000
0010
,
1001
0000
1000
0100
0001
0100
1000
0100
,
0010
0001
0101
1000
,
1100
0000
0001
0100
1000
0100
0001
0100
,
0010
1000
1010
0001
,
0011
0000
0100
0000
0001
0100
0010
2000
,
0000
3100
0010
0002
0000
2003
0000
3000
,
0000
0010
0100
0010
0000
0100
0000
2002
,
0000
3003
0010
0000
0110
0000
1001
0000
,
0010
0100
0010
0100
1000
0100
1000
0100
,
0010
0001
0010
0001
0100
0001
0100
0001
,
0100
1000
0100
1000
0001
0010
0001
0010
,
1000
0100
0010
0100
1000
0001
0100
0010
,
0100
0001
0010
0100
0010
0001
1000
0010
,
0100
0010
1000
0100
0010
0000
1001
0000
,
0000
0001
0100
0010
0000
1000
0000
0202
,
M0M0
M3M3
11MM
M1M1
,
0100
0000
0010
0000
1000
0010
0000
0100
0000
0000
0001
0000
0100
0000
1000
0000
,
0100
0000
0001
0000
0100
0010
0000
1000
0000
0000
0001
0000
0010
0000
0100
0000
,
0010
0000
0001
0000
0010
0100
0000
1000
0000
0000
0100
0000
0010
0000
0001
0000
,
0010
0000
0100
0000
1000
0000
0001
0100
0000
0000
0010
0000
0100
0010
0000
0000
,
1000
0000
0001
0000
0100
0001
0000
1000
0000
0000
0001
0000
1000
0000
0100
0000
,
1000
0000
0001
0000
0010
0001
0000
1000
0000
0000
0001
0000
1000
0000
0010
0000
,
0100
0000
0001
0000
0010
0100
0000
0010
0000
0000
0100
0000
1000
0000
0001
0000
,
0100
0000
0000
0010
0000
0000
1000
0000
0000
0001
0000
0000
0100
0010
0000
0000
,
1001
0000
0000
0000
;

//---------------dance-single - C. Picardy----------------
#NOTES:
     dance-single:
     :
     Medium:
     6:
     0.398905,0.451668,0.311495,0.133498,0.100123,251.000000,223.000000,28.000000,12.000000,0.000000,0.000000,0.398905,0.451668,0.311495,0.133498,0.100123,251.000000,223.000000,28.000000,12.000000,0.000000,0.000000:
0000
0000
0000
0000
,
0000
0000
0000
0000
,
0000
0000
0000
0000
,
0000
0000
0000
0000
,
0001
0010
0100
0010
,
0001
0100
0010
1000
,
0000
0001
0000
1000
0000
0001
0000
0100
,
0000
0010
0100
0010
,
1001
0000
0000
0000
0200
0000
0000
0010
,
0000
0310
0000
0000
0000
0000
1000
0000
,
0110
0000
0000
0000
1000
0000
0000
1000
0000
0000
0000
0000
0001
0000
0000
0000
,
0010
0000
0000
0000
0100
0000
0000
0100
0000
0000
0000
0000
1000
0000
0000
0000
,
0100
0000
0000
0000
0010
0000
0000
0010
0000
0000
0000
0000
0001
0000
0000
0000
,
0001
0000
0000
0000
0001
0000
0000
0001
0000
0000
0000
0000
1000
0000
0000
0000
,
0101
0000
0000
0000
0010
0000
0000
1000
0000
0000
0000
0000
0001
0000
0000
0000
,
1000
0000
0000
0000
0010
0000
0000
0100
0000
0000
0000
0000
0001
0000
0000
0000
,
1000
0000
0000
0000
0100
0000
0000
0010
0000
0000
0000
0000
0001
0000
0000
0000
,
1000
0000
0000
1000
0000
0000
1000
0000
0000
1000
0000
0000
1000
0000
0000
0000
,
0001
0000
0100
0000
0010
1000
0010
0000
,
0100
0000
0001
0000
1000
0100
1000
0000
,
0010
0000
0001
0000
0100
0000
0000
0010
,
0000
1010
0000
0110
0000
0000
0001
0000
,
1000
0000
0100
0000
0010
0001
0010
0000
,
0100
0000
1000
0000
0100
0010
0100
0000
,
1000
0000
0001
0000
0001
0100
0001
1000
,
0000
1001
0000
0101
0000
0000
0010
0000
,
0120
0000
0000
1030
0000
0000
0000
0000
,
0201
0000
0000
0310
0000
0000
0000
0000
,
2001
0000
0000
3002
0000
0000
0203
0000
,
0000
0320
0000
0000
1030
0000
0001
0000
,
1200
0000
0000
0310
0000
0000
1000
0000
,
2010
0000
0000
3100
0000
0000
0100
0000
,
0010
0000
0100
0010
0000
0100
0000
1001
,
0000
0100
0100
0100
,
1001
0000
0100
0000
0010
1000
0100
0000
,
0010
0001
0100
0010
,
1010
0000
0001
0000
1000
0100
0001
0000
,
0100
1000
0001
0011
,
1001
0000
0100
0000
0001
0100
0000
0010
,
0000
1000
0100
0010
0000
0020
0000
0000
,
0031
0000
0010
0100
0000
0010
0000
0100
,
0000
1000
0101
1100
,
0101
0000
0100
0000
0001
0100
1000
0000
,
0100
0001
0101
1000
,
1100
0000
0100
0000
0010
0100
1000
0000
,
0001
0100
0110
1000
,
0011
0000
1000
0000
0001
1000
0000
0010
,
0000
0100
0010
0100
0000
0020
0000
0000
,
0030
1000
0001
0100
0000
0010
0000
2000
,
0000
3000
0101
1100
,
0001
0000
0000
0000
1000
0000
0000
1000
0000
0000
0010
0000
0100
0000
0000
0000
,
0001
0000
0000
0000
0010
0000
0000
0010
0000
0000
0001
0000
0010
0000
0000
0000
,
0100
0000
0000
0000
1000
0000
0000
1000
0000
0000
0001
0000
0100
0000
0000
0000
,
0010
0000
0000
0000
1000
0000
0000
0001
0000
0000
0100
0000
0010
0000
0000
0000
,
1001
0000
0000
0000
0100
0000
0000
0001
0000
0000
1000
0000
0100
0000
0000
0000
,
0010
0000
0000
0000
0100
0000
0000
1000
0000
0000
0001
0000
0100
0000
0000
0000
,
0010
0000
0000
0000
1000
0000
0000
0001
0000
0000
1000
0000
0100
0000
0000
0000
,
0010
0000
0000
0010
0000
0000
0001
0000
0000
0001
0000
0000
1001
0000
0000
0000
,
0100
0000
0000
0000
;

//---------------dance-single - C. Picardy----------------
#NOTES:
     dance-single:
     :
     Easy:
     4:
     0.309906,0.353352,0.244746,0.367119,0.000000,195.000000,173.000000,22.000000,33.000000,0.000000,0.000000,0.309906,0.353352,0.244746,0.367119,0.000000,195.000000,173.000000,22.000000,33.000000,0.000000,0.000000:
// measure 0
0000
0000
0000
0000
,  // measure 1
0000
0000
0000
0000
,  // measure 2
0000
0000
0000
0000
,  // measure 3
0000
0000
0000
0000
,  // measure 4
0001
0000
0100
0000
,  // measure 5
0010
0000
1000
1000
,  // measure 6
0001
0000
0010
0000
,  // measure 7
0100
1000
1000
1000
,  // measure 8
0220
0330
0001
0100
,  // measure 9
2002
0000
0000
3003
,  // measure 10
0001
0001
0001
0100
,  // measure 11
0010
0010
0010
1000
,  // measure 12
0100
0100
0100
1000
,  // measure 13
0010
0100
0001
1000
,  // measure 14
0100
0100
0010
0001
,  // measure 15
1000
1000
0010
0100
,  // measure 16
0001
0001
1000
0100
,  // measure 17
0010
0010
2002
3003
,  // measure 18
0001
0100
0010
0100
,  // measure 19
0001
0000
1000
0100
,  // measure 20
0010
0100
1000
0000
,  // measure 21
0220
0000
0000
0330
,  // measure 22
0001
0010
0100
0010
,  // measure 23
0001
0000
1000
0010
,  // measure 24
0100
0010
1000
0000
,  // measure 25
0010
0010
0100
0010
,  // measure 26
2001
0000
3200
0000
,  // measure 27
0320
0000
0230
0000
,  // measure 28
2300
0000
3002
0000
,  // measure 29
0103
0100
0110
0000
,  // measure 30
0002
0000
0203
0000
,  // measure 31
0320
0000
2030
0000
,  // measure 32
3002
0000
0013
0010
,  // measure 33
1001
1001
0000
0000
,  // measure 34
2002
3003
0100
0010
,  // measure 35
0100
0000
0001
1000
,  // measure 36
0220
0330
0001
0001
,  // measure 37
0001
0000
1000
0100
,  // measure 38
2200
3300
0022
0033
,  // measure 39
0202
0303
2020
3030
,  // measure 40
0010
0000
0100
0000
,  // measure 41
0001
1000
0001
1000
,  // measure 42
0110
1000
0001
0100
,  // measure 43
0010
1000
0100
0010
,  // measure 44
1001
0010
0100
1000
,  // measure 45
0001
0100
0010
1000
,  // measure 46
0110
0001
1000
1000
,  // measure 47
0100
0100
0010
0010
,  // measure 48
0001
0010
0100
1000
,  // measure 49
0010
0000
1001
0110
,  // measure 50
1000
0001
0001
0100
,  // measure 51
0010
1000
1000
0100
,  // measure 52
0010
0001
0001
1000
,  // measure 53
0010
0100
0202
0303
,  // measure 54
1000
0100
0100
0010
,  // measure 55
0001
1000
1000
0010
,  // measure 56
0100
1000
1000
0100
,  // measure 57
0001
1000
1001
0011
;
