#TITLE:I Love to Love;
#SUBTITLE:;
#ARTIST:La Bouche;
#TITLETRANSLIT:;
#SUBTITLETRANSLIT:;
#ARTISTTRANSLIT:;
#GENRE:;
#CREDIT:;
#BANNER:ilovetolovebn.png;
#BACKGROUND:ilovetolovebg.png;
#LYRICSPATH:;
#CDTITLE:;
#MUSIC:ilovetolove.ogg;
#OFFSET:0.003437;
#SAMPLESTART:59.721462;
#SAMPLELENGTH:13.040000;
#SELECTABLE:YES;
#BPMS:0.000000=149.000000
;
#STOPS:
;
#BGCHANGES:32.000=redpurplehearts.mp4=1.000=1=0=1=SongBgWithMovieViz==CrossFade==,
52.000=redpurplehearts.mp4=1.000=1=0=1===CrossFade==,
84.000=flash=1.600=0=0=1=====,
84.250=peacefulpurplespace.mp4=1.000=0=1=1=StretchRewind====,
144.000=ilovetolovebg.png=1.000=1=0=1===CrossFade==,
148.000=flash=1.600=0=0=1=====,
148.250=purplebluegradient.mp4=1.000=0=1=1=StretchRewind====,
180.000=spiralwaves.mp4=1.000=1=1=1=StretchRewind==CrossFade==,
212.000=flash=1.600=0=0=1=====,
212.250=redpurplehearts.mp4=1.000=0=1=1=StretchRewind====,
244.000=purplebluegradient.mp4=1.000=0=0=1===CrossFade_Fastest==,
260.000=flash=1.600=0=0=1=====,
260.250=ilovetolovebg.png=1.000=0=0=1=====,
99999=-nosongbg-=1.000=0=0=0 // don't automatically add -songbackground-
;
#KEYSOUNDS:;
#ATTACKS:;

//---------------dance-single - C. Picardy----------------
#NOTES:
     dance-single:
     :
     Beginner:
     1:
     0.093789,0.185539,0.057089,0.019030,0.000000,69.000000,63.000000,6.000000,2.000000,0.000000,0.000000,0.093789,0.185539,0.057089,0.019030,0.000000,69.000000,63.000000,6.000000,2.000000,0.000000,0.000000:
// measure 0
0000
0000
0000
0000
,  // measure 1
0000
0000
0000
0000
,  // measure 2
0000
0000
0000
0000
,  // measure 3
0000
0000
0000
0000
,  // measure 4
0000
0000
0000
0000
,  // measure 5
0000
0000
0000
0000
,  // measure 6
0000
0000
0000
0000
,  // measure 7
0000
0000
0000
0000
,  // measure 8
2000
0000
0000
0000
,  // measure 9
3000
0000
0000
0000
,  // measure 10
0002
0000
0000
0000
,  // measure 11
0003
0000
0000
0000
,  // measure 12
0000
0000
0000
0000
,  // measure 13
0100
0000
0000
0000
,  // measure 14
0010
0000
0000
0000
,  // measure 15
1000
0000
0000
0000
,  // measure 16
0001
0000
0000
0000
,  // measure 17
0010
0000
0000
0000
,  // measure 18
0100
0000
0000
0000
,  // measure 19
1000
0000
0000
0000
,  // measure 20
0000
0000
0000
0000
,  // measure 21
1001
0000
1000
0000
,  // measure 22
1000
0000
0000
0000
,  // measure 23
0001
0000
0001
0000
,  // measure 24
0001
0000
0000
0000
,  // measure 25
0100
0000
0100
0000
,  // measure 26
0100
0000
0000
0000
,  // measure 27
0010
0000
0010
0000
,  // measure 28
0010
0000
0010
0000
,  // measure 29
0110
0000
0000
0000
,  // measure 30
0100
0000
0000
0000
,  // measure 31
0001
0000
0000
0000
,  // measure 32
1000
0000
0000
0000
,  // measure 33
0100
0000
0000
0000
,  // measure 34
0010
0000
0000
0000
,  // measure 35
0100
0000
0000
0000
,  // measure 36
0000
0000
0000
0000
,  // measure 37
1001
0000
0000
0000
,  // measure 38
0100
0000
0000
0000
,  // measure 39
0010
0000
0000
0000
,  // measure 40
0100
0000
0000
0000
,  // measure 41
0001
0000
0000
0000
,  // measure 42
1000
0000
0000
0000
,  // measure 43
0001
0000
0000
0000
,  // measure 44
1000
0000
0000
0000
,  // measure 45
1001
0000
0000
0000
,  // measure 46
0100
0000
0100
0000
,  // measure 47
0010
0000
0010
0000
,  // measure 48
0000
0000
0000
0000
,  // measure 49
0100
0000
0000
0000
,  // measure 50
0010
0000
0000
0000
,  // measure 51
1000
0000
1000
0000
,  // measure 52
1000
0000
0000
0000
,  // measure 53
1001
0000
0000
0000
,  // measure 54
0001
0000
0000
0000
,  // measure 55
0100
0000
0000
0000
,  // measure 56
0010
0000
0000
0000
,  // measure 57
1000
0000
0000
0000
,  // measure 58
0001
0000
0000
0000
,  // measure 59
0100
0000
0000
0000
,  // measure 60
0010
0000
0000
0000
,  // measure 61
1000
0000
1000
0000
,  // measure 62
1000
0000
1000
0000
,  // measure 63
0001
0000
0000
0000
,  // measure 64
0000
0000
0010
0010
,  // measure 65
1001
0000
0000
0000
;

//---------------dance-single - C. Picardy----------------
#NOTES:
     dance-single:
     :
     Easy:
     3:
     0.235152,0.278309,0.047574,0.142723,0.000000,173.000000,168.000000,5.000000,15.000000,0.000000,0.000000,0.235152,0.278309,0.047574,0.142723,0.000000,173.000000,168.000000,5.000000,15.000000,0.000000,0.000000:
0000
0000
0000
0000
,
0000
0000
0000
0000
,
0000
0000
0000
0000
,
0000
0000
0000
0000
,
1000
0000
0000
0000
,
0001
0000
0000
0000
,
0100
0000
0000
0000
,
0010
0000
0000
0000
,
2000
0000
0000
0000
,
3200
0000
0000
0000
,
0310
0000
0001
0000
,
0001
0000
0001
0000
,
1000
0100
1000
0010
,
0100
0001
0010
0001
,
1000
0010
0100
0010
,
1000
0100
0010
0100
,
1000
0001
0100
0001
,
0010
0001
0100
0010
,
1000
0010
0100
0001
,
1000
0100
0010
0001
,
0200
0000
0000
0300
,
1001
0000
0100
0000
,
0010
0000
1000
1000
,
0001
0000
0010
0000
,
0100
0000
0010
0010
,
0001
0000
1000
0000
,
0010
0000
0100
0100
,
0010
0000
1000
0000
,
0001
0000
1000
0000
,
0110
0100
0001
1000
,
0100
0010
0100
0100
,
0000
1000
0001
0100
,
0010
1000
0001
0001
,
0000
0100
0010
1000
,
0001
0100
0010
0000
,
1000
0000
0001
0000
,
0200
0000
0000
0300
,
1010
1000
1000
0000
,
0001
0100
0100
0100
,
0010
0000
1000
0000
,
0001
0000
0010
0000
,
0100
1000
1000
0000
,
0010
0100
0100
0100
,
0001
0000
1000
0000
,
0100
0000
0010
0100
,
1001
0000
0010
0010
,
0200
0000
1300
0000
,
0010
0100
0001
0001
,
2000
0000
3001
0000
,
0100
0000
0010
0010
,
2000
0000
3100
0000
,
0020
0000
0031
0001
,
2000
0000
0000
3000
,
0001
0100
0001
0100
,
0001
0010
0001
0100
,
0010
1000
0100
1000
,
0010
0100
0001
1000
,
0100
0010
0001
0010
,
0100
1000
0010
0100
,
0010
1000
0001
0010
,
0002
0000
0000
0003
,
0200
0000
0320
0000
,
2030
0000
3002
0000
,
2003
0000
0000
0000
,
3010
0010
0100
0010
,
1001
0000
0000
0000
;

//---------------dance-single - C. Picardy----------------
#NOTES:
     dance-single:
     :
     Medium:
     6:
     0.346612,0.432925,0.152237,0.095148,0.000000,255.000000,239.000000,16.000000,10.000000,0.000000,0.000000,0.346612,0.432925,0.152237,0.095148,0.000000,255.000000,239.000000,16.000000,10.000000,0.000000,0.000000:
0000
0000
0000
0000
,
0000
0000
0000
0000
,
0000
0000
0000
0000
,
0000
0000
0000
0000
,
0000
0001
1000
0000
,
0000
0010
0100
0010
,
0000
0000
1000
0000
,
0100
0000
0010
0000
,
0001
0100
0010
0000
,
0001
1000
0001
0001
,
2000
0000
3020
0000
,
0230
0000
0320
0000
,
2030
0000
3002
0000
,
1003
1100
0001
0101
,
1000
0000
0100
0000
0010
0001
0010
0000
,
1000
1010
0001
0011
,
1000
0000
0010
0000
0100
0001
0100
0000
,
0000
0010
0000
0100
0000
0010
0000
1000
,
0000
0001
0000
0010
0000
0100
0000
0100
,
0000
1000
0000
0001
0000
0100
0000
0010
,
0200
0000
0000
0300
,
1001
0000
1000
1000
0010
0000
0100
0000
,
0001
0000
0010
0010
0100
0000
0100
0000
,
0000
0000
1000
1000
0100
0000
0010
0000
,
0001
0000
0001
0001
0100
0000
0100
0000
,
0010
1000
0001
1000
,
0100
0000
0010
0010
0010
0000
0020
0000
,
0030
0001
0101
1000
,
1100
0000
0010
0100
2000
0000
0000
0000
,
3001
0100
0010
0100
,
0001
0000
1000
0100
0010
0000
0010
0000
,
0000
0001
1000
0100
,
1000
0000
0010
0100
0010
0000
0010
0000
,
0000
0100
0001
1000
,
0010
0000
1000
0100
0001
0000
0000
0000
,
0100
0000
1000
0001
,
0020
0000
0000
0030
,
1100
0010
0100
0001
,
1000
0000
0001
0100
0010
0000
0010
0000
,
1000
0001
0010
0100
,
0010
0000
0001
1000
0000
0001
0000
1000
,
0100
1000
0010
1000
,
0100
0000
0010
0001
0100
0000
0100
0000
,
0010
1000
0001
0100
,
0010
0000
1000
1000
0000
0001
0000
0100
,
0010
0000
1000
0000
0001
0000
1000
0100
,
1000
0000
0100
0010
0000
0000
0000
0000
,
0001
0000
1000
0000
0010
0100
0000
0010
,
0000
0000
1000
0000
0001
0000
1000
0001
,
0100
0000
0010
0000
1000
0000
0001
0010
,
0100
0000
0100
1000
0000
0000
0001
0000
,
0100
0000
0001
0000
0010
0100
0000
0010
,
0000
0000
0100
0000
1000
0000
0001
0100
,
1000
0110
0001
1010
,
0001
0000
1000
0000
0100
0010
0100
0000
,
0001
0011
1000
1010
,
0100
0000
0010
0000
0100
1000
0010
0000
,
0000
0100
0000
0010
0000
1000
0000
0001
,
0000
0010
0000
0010
0000
0100
0000
0100
,
0000
1000
0000
0001
0000
0100
0000
0001
,
0000
1000
0000
0100
1000
0000
0001
0100
,
0010
0010
0110
1010
,
0001
0001
0011
0110
,
1000
1000
1000
1000
,
0001
0000
0001
0000
0100
0000
0100
0010
,
1000
0000
0000
0000
;

//---------------dance-single - C. Picardy----------------
#NOTES:
     dance-single:
     :
     Hard:
     7:
     0.479820,0.525695,0.171267,0.199812,0.038059,353.000000,335.000000,18.000000,21.000000,0.000000,0.000000,0.479820,0.525695,0.171267,0.199812,0.038059,353.000000,335.000000,18.000000,21.000000,0.000000,0.000000:
0000
0000
0000
0000
,
0000
0000
0000
0000
,
0000
0000
0000
0000
,
0000
0000
0000
0000
,
0000
0010
0100
0000
0200
0000
0000
0000
,
0300
1000
0001
0000
0100
0000
0200
0000
,
0000
0000
0300
0001
1000
0000
0100
0000
,
1000
0000
0001
0001
0000
1000
0000
0001
,
0000
1000
0010
0000
0020
0000
0000
0000
,
0030
0100
0010
0000
1000
0000
2000
0000
,
3002
0000
0203
0000
,
0320
0000
2030
0000
,
3200
0000
0310
0010
,
0001
0100
1000
0000
1000
0100
0001
0000
,
0001
0100
1000
0100
0001
0010
0100
0000
,
1000
0100
0001
0000
0001
0100
1000
0000
,
1000
0100
0010
0100
0001
0100
1000
0000
,
0001
0100
0010
0000
0010
0100
0001
0000
,
1000
0100
0010
0100
1000
0100
0010
0001
,
1000
0010
0100
0000
0100
0010
1000
0000
,
1002
0000
0100
0013
,
1100
0000
0010
0100
1000
0000
1000
0100
,
0010
0000
0010
0001
0100
0000
0110
0000
,
1000
0000
0001
1000
0100
0000
0100
1000
,
0010
0000
0010
0100
0001
0000
0011
0000
,
1000
0100
0010
0100
1000
0000
0001
0100
,
0010
0100
0001
0001
0001
0000
0001
0000
,
1000
0001
0100
0010
2000
0000
3100
0010
,
0002
0000
0103
0010
2000
0000
3000
0000
,
0101
0000
0010
0001
0100
0000
0010
0000
,
1000
0010
0100
0010
1000
0000
1100
0000
,
0010
0001
0001
0100
0010
0000
0100
0000
,
0001
0010
0100
0010
0001
0001
1000
0000
,
0011
0000
1000
0100
0010
0000
0001
0000
,
0100
0000
0010
0100
0002
0000
0000
0000
,
1003
0000
0100
0000
0010
0100
1000
0001
,
0000
0100
0000
0010
0000
1000
0000
0001
,
1001
0000
1000
0100
0001
0000
0100
0000
,
1000
0010
0001
0010
1000
0000
1000
0000
,
0101
0000
1000
0000
0001
0010
0100
1000
,
0010
0000
0100
0010
0000
1000
0001
0100
,
0010
0000
1000
0100
0010
0000
1001
0000
,
0010
0100
0010
0001
0100
0000
0100
0000
,
1010
0000
0001
0000
1000
0100
0010
0001
,
0002
0000
0103
0200
0000
0000
0010
0000
,
0301
0000
0110
0000
1000
0010
0100
0010
,
1000
0000
0001
0100
0001
0000
0001
0000
,
0020
0000
0130
0010
0100
1000
0000
0020
,
0000
0000
0100
0000
1000
0000
0130
0100
,
0001
0000
1100
0000
0001
0100
1000
0100
,
0001
0000
1000
0100
1000
0000
1000
0000
,
0201
0000
0320
0000
1030
0001
0000
2001
,
0000
0000
0000
0010
0010
0000
0100
3000
,
1000
0010
0100
0010
1000
0010
0100
0001
,
0010
0001
0100
0001
0010
0001
0100
0000
,
0010
1000
0100
1000
0010
1000
0100
1000
,
0001
0100
0010
0100
0001
0010
0110
0000
,
1000
0100
0010
0100
1000
0100
0010
0100
,
0010
0001
0010
0100
0010
0001
0010
0000
,
0001
0100
1000
0100
0001
0100
1000
0100
,
0001
0000
1000
0000
0100
0000
1000
0001
,
0101
0000
0000
0000
0100
0000
0000
0000
0010
1000
0000
0000
0100
0000
0000
0000
,
0010
0100
0000
0000
1000
0000
0000
0000
0001
0100
0000
0000
0010
0000
0000
0000
,
1000
0010
0000
0000
1000
0100
0000
0000
0010
0100
0000
0000
0010
0001
0000
0000
,
0100
0000
0000
0000
0010
0000
0000
0000
1000
0000
0000
0001
1000
0000
0100
0000
,
0110
0000
0000
0000
;

//---------------dance-single - C. Picardy----------------
#NOTES:
     dance-single:
     :
     Challenge:
     10:
     0.709535,1.020467,0.228356,0.418653,0.375836,522.000000,498.000000,24.000000,44.000000,44.000000,6.000000,0.709535,1.020467,0.228356,0.418653,0.375836,522.000000,498.000000,24.000000,44.000000,44.000000,6.000000:
0000
0000
0000
0000
,
0000
0000
0000
0000
,
0000
0000
0000
0000
,
0000
0000
0000
0000
,
0000
0001
0010
0100
2000
0000
0000
0001
,
3001
0100
1000
0100
0002
0000
0023
0000
,
0130
0010
0001
1000
0100
0010
0100
1000
,
0020
0000
1030
0200
0000
0010
0310
0100
,
1000
0000
0001
0000
0100
0000
0001
0100
0001
0000
0010
0000
0000
0000
0100
0000
,
0010
0000
0100
0000
1000
0000
0010
0100
0010
0000
1000
0000
0100
0000
0010
0000
,
0001
1000
0100
1000
0100
0010
0001
0010
,
0001
0010
0001
0010
0001
0010
0001
0010
0100
0010
0100
0010
0100
0010
0100
0010
,
0100
1000
0100
1000
0100
1000
0100
1000
0001
1000
0001
1000
0001
1000
0001
1000
,
0001
0100
1000
0100
0001
0100
1000
0100
,
0001
0010
1000
0010
0001
0010
1000
0010
,
0001
0010
0100
0010
1000
0010
0100
0010
,
0100
0000
1000
0000
0100
0000
0000
0010
0100
0000
1000
0000
0001
0000
0100
0000
,
0010
1000
11MM
0000
0001
0010
MM11
0000
,
1000
0000
0010
0000
1M1M
0000
0000
0010
0100
0000
0010
0000
M11M
0000
0000
0000
,
1000
0000
0001
0000
M1M1
0000
0000
0000
0001
0000
1000
0000
1M1M
0000
0000
0100
,
0002
0200
0020
2000
,
3333
0000
0000
0000
0001
0000
0100
0000
0010
0000
0000
0100
0001
0000
1000
0000
,
0100
0000
0000
0010
0100
0000
1000
0000
0001
0000
0001
0000
0101
0000
0000
0000
,
1000
0000
0100
0000
0010
0000
0000
0100
1000
0000
0001
0000
0100
0000
0000
0010
,
1000
0000
0100
0000
0010
0000
0000
0100
0010
0000
M11M
0000
M11M
0000
0000
0000
,
0001
0000
0010
0000
0100
0000
0000
1000
0010
0000
0100
0000
0010
0000
0000
1000
,
0001
0000
0100
0000
0010
0000
0000
1000
0100
0000
0100
0000
1100
0000
0000
0000
,
0001
0100
0100
0010
0200
0000
0301
0M10
,
0020
0000
0130
10M0
2002
0000
3003
M00M
,
0010
0100
0000
0100
1000
0000
0001
0000
0100
0010
0000
0010
1000
0000
0001
0000
,
0010
0001
0000
0001
0100
0000
0001
0000
1000
0001
0000
0000
0101
0000
0000
0000
,
0100
0010
0000
0010
1000
0000
0001
0000
1000
0100
0000
0100
1000
0000
0001
0000
,
0100
0010
0100
0000
0001
0000
1000
0010
1000
0000
1M1M
0000
1M1M
0000
0000
0000
,
0001
0000
1000
0100
1000
0000
0001
0000
0100
0000
0001
0100
0001
0000
1000
0000
,
0100
0000
0010
0001
0010
0000
0100
0000
2000
0000
0000
0000
3010
0000
0000
0000
,
0100
0010
1000
0100
0010
0001
2000
0200
,
0000
0010
0300
0002
0000
0010
3003
1000
,
1MM1
0000
0001
0000
0100
0000
0001
0010
0100
0000
1000
0000
0001
0000
0010
0100
,
1000
0000
0001
0000
0010
0000
0001
0000
0100
0001
0100
0000
0001
0100
0001
0000
,
1000
0000
0100
0000
0010
0000
0100
0010
0001
0000
1000
0000
0010
0000
0100
0010
,
1000
0000
0001
0000
0010
0000
0100
0010
0001
0000
1000
0000
0100
0000
1000
0000
,
0010
0000
0100
0000
0001
0000
1000
0001
0100
0000
0010
0000
1000
0000
0001
1000
,
0100
0000
0010
0000
0100
0000
1000
0000
0100
1000
0100
0000
1000
0100
1000
0000
,
0001
0000
0100
0000
0010
0000
0100
0001
0010
0000
0100
0000
1000
0000
0001
0100
,
0010
0000
1000
0000
0100
0000
0010
0001
0100
0000
0010
0000
1000
0000
0000
0000
,
0100
0200
0001
0302
0100
0203
0010
0320
,
1000
2030
0010
3020
0001
0032
0100
0203
,
1000
2300
0001
3002
0010
0023
1000
2030
,
0100
0000
3100
0000
0010
0000
0000
0001
0100
0000
0010
0000
1MM1
0000
0000
0000
,
1000
2000
0010
3020
0100
0230
0010
0320
,
1000
2030
0001
3002
0010
0023
1000
2030
,
0010
3020
0100
0230
1000
2300
0010
3020
,
0000
0000
0000
1030
0100
0001
0100
1000
,
0001
0010
1000
0010
0001
0010
0100
0010
,
1000
0010
0001
0100
1000
0100
0010
0001
,
0010
1000
0100
0001
0100
1000
0010
0100
,
1000
0000
0100
0000
0001
0000
0000
1000
0100
0000
1000
0000
1MM1
0000
0000
0000
,
0001
0100
M1M1
0000
1000
0100
11MM
0000
,
0010
0000
0100
0000
M11M
0000
0000
1000
0001
0000
0100
0000
M1M1
0000
0000
0000
,
1000
0000
0010
0000
1M1M
0000
0000
0000
0001
0000
0010
0000
MM11
0000
0000
0001
,
2000
0200
0020
3331
,
1000
0100
0010
0000
0001
1000
0100
0000
0010
0100
1000
0000
0001
0100
0010
0000
,
1000
0001
0100
0000
0010
1000
0001
0000
0010
0100
1000
0000
0010
0100
0001
0000
,
1000
0010
0100
0000
0001
0010
0100
0000
0010
0001
0100
0000
0010
1000
0100
0000
,
0010
0100
1000
0000
0001
0100
0010
0000
1000
0100
0000
0010
0100
0000
0010
0000
,
1MM1
0000
0000
0000
;
