#TITLE:Hope;
#SUBTITLE:;
#ARTIST:Antracto;
#TITLETRANSLIT:;
#SUBTITLETRANSLIT:;
#ARTISTTRANSLIT:;
#GENRE:;
#CREDIT:;
#BANNER:hopebn.png;
#BACKGROUND:hopebg.png;
#LYRICSPATH:;
#CDTITLE:;
#MUSIC:Hope.ogg;
#OFFSET:1.158671;
#SAMPLESTART:80.710190;
#SAMPLELENGTH:16.000010;
#LASTBEATHINT:0.272850;
#SELECTABLE:YES;
#BPMS:0.000000=120.120003
;
#STOPS:
;
#BGCHANGES:;
#KEYSOUNDS:;
#ATTACKS:;

//---------------dance-single - C. Picardy----------------
#NOTES:
     dance-single:
     :
     Beginner:
     1:
     0.065917,0.124061,0.043530,0.000000,0.000000,53.000000,48.000000,5.000000,0.000000,0.000000,0.000000,0.065917,0.124061,0.043530,0.000000,0.000000,53.000000,48.000000,5.000000,0.000000,0.000000,0.000000:
0000
0000
0000
0000
,
0000
0000
0000
0000
,
0000
0000
0000
0000
,
0000
0000
0000
0000
,
0000
0000
0000
0000
,
1000
0000
0000
0000
,
0000
0000
0000
0000
,
0001
0000
0000
0000
,
0000
0000
0000
0000
,
1001
0000
0000
0000
,
0010
0000
0000
0000
,
0100
0000
0000
0000
,
1000
0000
0000
0000
,
0001
0000
0000
0000
,
1000
0000
0000
0000
,
0010
0000
0000
0000
,
0100
0000
0000
0000
,
0110
0000
0000
0000
,
1000
0000
0000
0000
,
0001
0000
0000
0000
,
0100
0000
0000
0000
,
0010
0000
0000
0000
,
1000
0000
0000
0000
,
0100
0000
0000
0000
,
0001
0000
0000
0000
,
0100
0000
0100
0000
,
0000
0000
0000
0000
,
0010
0000
0010
0000
,
0000
0000
0000
0000
,
1000
0000
1000
0000
,
0000
0000
0000
0000
,
0001
0000
0001
0000
,
0010
0000
0000
0000
,
1001
0000
0000
0000
,
0100
0000
0000
0000
,
0010
0000
0000
0000
,
1000
0000
0000
0000
,
0001
0000
0000
0000
,
0100
0000
0000
0000
,
0010
0000
0000
0000
,
1000
0000
0000
0000
,
0110
0000
0000
0000
,
0010
0000
0000
0000
,
1000
0000
0000
0000
,
0001
0000
0000
0000
,
0100
0000
0000
0000
,
0010
0000
0000
0000
,
1000
0000
0000
0000
,
0000
0000
0000
0000
,
0010
0000
0000
0000
,
0000
0000
0000
0000
,
1000
0000
0000
0000
,
0000
0000
0000
0000
,
0001
0000
0000
0000
,
0000
0000
0000
0000
,
0100
0000
0000
0000
,
0010
0000
0000
0000
,
1001
0000
0000
0000
;

//---------------dance-single - C. Picardy----------------
#NOTES:
     dance-single:
     :
     Easy:
     3:
     0.213919,0.297746,0.226357,0.034824,0.000000,172.000000,146.000000,26.000000,4.000000,0.000000,0.000000,0.213919,0.297746,0.226357,0.034824,0.000000,172.000000,146.000000,26.000000,4.000000,0.000000,0.000000:
0000
0000
0000
0000
,
0000
0000
0000
0000
,
0000
0000
0000
0000
,
0000
0000
0000
0000
,
0000
0000
0000
0000
,
1000
0000
0000
0000
,
0001
0000
0000
0000
,
0010
0000
0100
0000
,
2000
0000
0000
3000
,
1001
0000
0100
0000
,
0010
0000
0010
0000
,
1000
0000
1000
0000
,
0100
0000
0100
0000
,
0010
0000
0001
0000
,
0100
0000
0010
0000
,
1000
0000
0001
0000
,
1000
0000
0100
0000
,
0010
1001
0100
0000
,
0001
0110
0001
0000
,
0100
1001
0010
0000
,
0010
0110
0100
0000
,
1000
0001
0001
0000
,
1000
0010
0010
0000
,
1000
0100
0100
0000
,
0010
0001
0001
0000
,
1001
0100
1000
0000
,
0010
1000
0100
0000
,
0010
0001
0100
0000
,
0010
1000
0001
0000
,
0011
0000
0011
0000
,
1100
0000
1100
0000
,
0110
0000
0110
0000
,
2002
0000
0000
3003
,
1000
0001
1000
0001
,
0010
0100
0010
0100
,
1000
1000
0001
0001
,
0100
0100
0010
0010
,
1000
0010
1000
0010
,
0100
0001
0100
0001
,
0010
0001
0100
0010
,
1000
0100
0020
0030
,
0010
1001
0100
1001
,
0001
1000
0001
1000
,
0010
0110
0100
0110
,
0100
0010
0100
0010
,
1000
1100
0001
0101
,
0100
0010
0100
0010
,
1000
1010
0001
0011
,
0100
0001
1000
0001
,
1000
0000
0101
0000
,
0010
0000
1010
0000
,
0100
0000
1010
0000
,
0001
0000
1100
0000
,
0100
0100
0010
0000
,
0001
1000
1000
0000
,
0010
0000
0100
0000
,
0001
0000
1000
0000
,
1001
0000
0000
0000
;

//---------------dance-single - C. Picardy----------------
#NOTES:
     dance-single:
     :
     Medium:
     5:
     0.315904,0.372183,0.322123,0.130590,0.143649,254.000000,217.000000,37.000000,15.000000,0.000000,0.000000,0.315904,0.372183,0.322123,0.130590,0.143649,254.000000,217.000000,37.000000,15.000000,0.000000,0.000000:
0000
0000
0000
0000
,
0000
0000
0000
0000
,
0000
0000
0000
0000
,
0000
0000
0000
0000
,
0000
0000
0000
0000
,
1000
0000
0100
0000
,
0010
0000
0001
0000
,
1000
0000
0010
0000
,
0200
0000
0010
0300
,
1001
0100
0010
0100
,
0001
1000
0001
1000
,
0100
1000
0100
1000
,
0001
0010
0001
0100
,
1001
0100
0010
1000
,
0101
0010
1000
0100
,
0011
1000
0100
0010
,
2200
0000
0000
3300
,
1000
0000
0100
1000
0000
0000
0100
0000
0000
0110
0000
0000
,
0010
0000
0001
0010
0000
0000
0100
0000
0000
0011
0000
0000
,
0100
0000
0010
0100
0000
0000
0010
0000
0000
1010
0000
0000
,
0001
0000
0001
1000
0000
0000
0001
0000
0000
1010
0000
0000
,
0100
0000
0001
1000
0000
0000
0010
0000
0000
0101
0000
0000
,
0010
0000
0001
1000
0000
0000
0001
0000
0000
0110
0000
0000
,
1000
0000
0100
0010
0000
0000
0001
0000
0000
1100
0000
0000
,
0010
0000
0100
0001
0000
0000
0202
0000
0000
0000
0000
0000
,
0303
0110
0100
0011
,
1000
1100
0001
1010
,
0001
1100
0010
0101
,
1000
0110
0001
1100
,
1000
0000
1000
0001
0000
0000
0001
0000
0001
1000
0000
0000
,
0100
0000
0100
0010
0000
0000
0010
0000
0010
0100
0000
0000
,
1000
0000
0001
1000
0000
0000
0001
0000
0100
0001
0000
0000
,
1000
0000
0010
2000
0000
0000
0002
0000
0000
3003
0000
0000
,
0010
0000
0000
0101
0000
0000
0010
0000
0010
1000
0000
0000
,
0200
0000
0010
1300
,
0001
0000
0000
1100
0000
0000
0001
0000
0001
0100
0000
0000
,
0020
0000
1000
0130
,
0001
0000
0000
0011
0000
0000
0100
0000
0100
0010
0000
0000
,
2000
0000
0010
3100
,
0010
0000
0000
1001
0000
0000
0100
0000
0001
1000
0000
0000
,
0102
0000
0010
0003
,
0001
0000
1000
0001
0000
1000
0001
0000
0000
0100
0000
0000
,
0020
0100
0001
0130
,
1000
0000
0010
1000
0000
0010
1000
0000
0000
0001
0000
0000
,
0200
0010
0001
0310
,
1000
0000
0001
0000
1000
0000
0001
0000
0000
0101
0000
0000
,
0010
0000
1000
0000
0001
0000
1000
0000
0000
1001
0000
0000
,
1000
0000
1000
0000
1000
0000
0100
0000
0100
0000
0100
0000
,
0010
0000
0001
0000
1000
0000
2002
0000
0000
3003
0000
0000
,
1000
0100
0001
0100
,
1000
0100
0010
0001
,
0100
1000
0100
0001
,
0010
0100
0010
0001
,
1000
1010
0001
0011
,
1000
0100
0001
0100
,
0010
1100
0010
0001
,
0011
0101
1100
0110
,
1001
0000
0000
0000
;

//---------------dance-single - C. Picardy----------------
#NOTES:
     dance-single:
     :
     Hard:
     7:
     0.390527,0.471431,0.113178,0.278593,0.452713,314.000000,301.000000,13.000000,32.000000,0.000000,0.000000,0.390527,0.471431,0.113178,0.278593,0.452713,314.000000,301.000000,13.000000,32.000000,0.000000,0.000000:
0000
0000
0000
0000
,
0000
0000
0000
0000
,
0000
0000
0000
0000
,
0000
0000
0000
0000
,
0000
0000
0000
0000
,
1000
0000
1000
0100
0000
0000
0010
0000
0010
0100
0000
0000
,
0001
0000
0001
0010
0000
0000
0100
0000
0100
0010
0000
0000
,
1000
0000
0001
0100
0000
0000
0010
0000
1000
0001
0000
0000
,
2200
0000
0000
0000
0000
0000
0000
0000
0000
0000
3300
0000
,
1100
0010
0100
1000
,
0001
0000
0001
0000
0001
0000
0001
0000
0000
0100
0000
0000
,
0010
1000
0100
0001
,
0100
0000
0100
0000
0100
0000
0100
0000
0000
1000
0000
0000
,
0001
0000
0001
0100
0000
0000
0010
0000
0010
1000
0000
0000
,
0100
0000
0100
0010
0000
0010
0001
0000
0000
1000
0000
0000
,
0010
0000
0100
0000
0001
0000
1000
0000
0100
0000
0010
0000
,
0002
0000
0000
0000
0000
0003
1000
0001
1000
0001
0000
0000
,
1000
0000
0000
1100
0000
0000
0001
0000
0001
0010
0000
0000
,
0100
0000
0000
0011
0000
0000
0100
0000
0100
0010
0000
0000
,
1000
0000
0000
0101
0000
0000
0010
0000
0010
1000
0000
0000
,
0001
0000
0000
0110
0000
0000
1000
0000
0001
1000
0000
0000
,
0001
0000
0001
0100
0000
0100
0020
0000
0000
1030
0000
0000
,
0010
0000
0010
1000
0000
1000
0002
0000
0000
0103
0000
0000
,
0001
0000
0001
0010
0000
0010
0002
0000
0000
1003
0000
0000
,
0200
0000
0000
0000
0000
0300
1000
0100
1000
0100
1000
0100
,
1000
1001
0010
1001
,
1000
0000
0001
1000
0000
0001
0100
0000
0000
0110
0000
0000
,
1000
0011
1000
1100
,
0010
0000
0100
1000
0000
0100
0010
0000
0000
1001
0000
0000
,
0100
0001
0100
0001
0000
0000
1000
0010
1000
0010
0000
0000
,
1000
0001
1000
0001
0000
0000
1000
0100
1000
0100
0000
0000
,
1000
0100
0010
0001
0000
0000
1000
0100
0010
0001
0000
0000
,
0010
0100
1000
0001
0000
0000
0220
0000
0000
0330
0000
0000
,
0001
0000
1000
0001
0000
0100
0001
0000
0010
0001
0000
1000
,
0002
0010
0100
0013
,
1000
0000
0100
1000
0000
0001
1000
0000
0010
1000
0000
0001
,
0200
0010
1000
0301
,
1000
0000
0001
0100
0000
0001
1000
0000
0001
0010
0000
0001
,
2000
0100
0001
3010
,
1000
0000
0010
0100
0000
0001
0010
0000
0100
1000
0000
0002
,
0020
0000
0000
0033
0000
0000
1000
0001
1000
0001
1000
0001
,
1000
0000
1000
0100
0000
0100
0010
0000
0010
0001
0000
0001
,
0010
0000
0010
0100
0000
0100
0010
0000
0010
0001
0000
0001
,
0100
0000
0100
0010
0000
0010
1000
0000
1000
0010
0000
0010
,
1000
0000
1000
0100
0000
0100
0010
0000
0010
0001
0000
0001
,
1000
0000
1000
0001
0000
0001
0010
0000
0010
0001
0000
0001
,
0010
0000
0010
0100
0000
0100
1000
0000
1000
0010
0000
0010
,
0100
0000
0100
0001
0000
0001
0100
0000
0100
0010
0000
0020
,
2000
0000
0000
3030
0000
0000
0001
0100
0001
0100
0001
0100
,
0001
0100
0010
1000
,
0100
0001
0100
1000
,
0010
0001
0010
1000
,
0100
0010
0100
1000
,
0002
0203
0320
0230
,
2300
3200
0302
0023
,
0230
2300
3200
0320
,
0032
0203
0320
2030
,
3100
0000
0000
0000
;

//---------------dance-single - C. Picardy----------------
#NOTES:
     dance-single:
     :
     Challenge:
     9:
     0.583304,0.647003,0.287299,0.113178,1.218843,469.000000,436.000000,33.000000,13.000000,23.000000,0.000000,0.583304,0.647003,0.287299,0.113178,1.218843,469.000000,436.000000,33.000000,13.000000,23.000000,0.000000:
0000
0000
0000
0000
,
0000
0000
0000
0000
,
0000
0000
0000
0000
,
0000
0000
0000
0000
,
0000
0000
0000
0000
,
1000
0100
1000
0100
0000
0000
1000
0100
1000
0001
0000
0000
,
0001
1000
0001
0100
0000
0000
0001
0100
0010
1000
0000
0000
,
1000
0100
1000
0010
0000
0000
1000
0010
1000
0100
0000
0000
,
0010
0100
1000
0010
0000
0000
0100
0010
1000
0001
0000
0000
,
1001
0000
1000
0000
0100
0000
0010
0000
0100
0000
1000
0000
,
0001
0000
0001
0000
0100
0000
0010
0000
0010
0000
1000
0000
,
1000
0000
0001
0000
0001
0000
0100
0000
0100
0000
0100
0000
,
0010
0000
1000
0000
0001
0000
1000
0000
1000
0000
1000
0000
,
0001
0000
0100
0001
1000
0001
0100
0000
0001
1000
0010
1000
,
0001
0000
1000
0000
0100
0000
0010
0000
0100
0000
1000
0000
,
0001
0000
0100
0000
0100
0000
0010
0000
1000
0000
0010
0000
,
2020
0000
0000
0000
3030
0000
0010
1000
0100
0010
0001
0100
,
0010
1000
0010
1000
0000
1000
0100
0000
0100
0010
0000
0000
,
0001
0010
0001
0100
0000
0010
1000
0000
0001
1000
0000
0000
,
0010
0100
0010
1000
0000
0001
0100
0000
0001
0010
0000
0000
,
0100
1000
0001
1000
0000
0100
0010
0000
0001
1000
0000
0000
,
0001
0100
0010
1000
0000
1000
0010
1000
0001
0100
0000
0100
,
0001
0010
0100
1000
0000
1000
0100
0010
0001
1000
0000
0001
,
0100
0010
1000
0010
0000
1000
0010
1000
0001
0100
0000
0001
,
1000
0100
0010
0001
0000
0000
0220
0000
0000
0000
0330
0000
,
0MM1
1000
0100
1000
0001
1000
0010
0000
1000
0001
0000
0000
,
0100
0001
0100
0010
0100
0001
0100
0000
0010
1000
0000
0000
,
1000
0100
0010
0100
1000
0100
0010
0000
0100
1000
0000
0000
,
0010
1000
0100
1000
0010
1000
0100
0000
0010
0001
0000
MMMM
,
0000
1000
0100
1000
0100
1000
0000
0100
0010
0100
0010
0100
,
0000
0010
0001
0010
0100
0010
0000
0001
0010
0001
0100
0010
,
0000
1000
0010
0100
0010
1000
0001
0100
0010
1000
0100
0010
,
0001
0010
0100
1000
0100
0010
2002
0000
0000
0000
3003
0000
,
1000
0001
0100
0001
1000
0100
1000
0001
0010
0001
0000
0000
,
1001
0000
1100
0000
1100
0000
0110
0000
0011
0000
0011
0000
,
0001
1000
0100
1000
0010
1000
0001
0010
0001
1000
0000
0000
,
1001
0000
0101
0000
0101
0000
0110
0000
1010
0000
1010
0000
,
0001
1000
0100
0010
0100
1000
0100
0010
0001
0010
0000
0000
,
0101
0000
0110
0000
1010
0000
1001
0000
0101
0000
0101
0000
,
1000
0001
0100
0001
1000
0010
0100
0010
1000
0001
0010
0001
,
1001
0000
1001
0000
1001
0000
0001
1000
0001
1000
0001
1000
,
0001
0010
0001
1000
0001
0010
0001
0010
0001
1000
0010
1000
,
0001
1000
0001
0100
0001
1000
0001
1000
0001
0100
0001
1000
,
0010
1000
0100
1000
0010
1000
0100
1000
0010
1000
0100
0010
,
0001
0010
0100
0010
0001
0010
0100
0010
0001
0010
0100
0010
,
0001
0100
0010
1000
0001
1000
0100
0010
0001
1000
0001
1000
,
0100
0010
0001
1000
0001
1000
0010
0100
0001
1000
0100
0010
,
0001
0100
0010
1000
0100
0010
0001
1000
0001
1000
0000
0000
,
0100
0000
0000
0000
0010
0000
0000
0000
0001
0000
0000
0000
1000
0000
0001
0000
1000
0000
0001
0000
1000
0001
1000
0000
,
0001
0000
0000
01M0
0000
0000
0120
0000
0M00
1030
0000
M000
,
02M1
0000
000M
0310
0000
0000
21M0
0000
0M00
3010
0000
00M0
,
0102
0000
0M00
0013
0000
00M0
1200
0000
M000
0310
0000
00M0
,
0120
0000
0M00
0031
0000
0000
0201
0000
000M
1300
0000
M000
,
0000
0010
0100
0000
0010
0001
0000
0010
0100
0000
0010
1000
,
0000
0010
0100
0000
0010
0001
0000
0010
0100
0000
0001
0100
,
0000
0010
0001
0000
0010
1000
0000
0100
0010
0000
0001
1000
,
0100
0000
0000
0001
0000
0000
1000
0100
1000
0001
1000
0010
,
1001
0000
M00M
0000
0000
0000
0000
0000
0000
0000
0000
0000
;
