#TITLE:Heavensent;
#SUBTITLE:;
#ARTIST:Ace;
#TITLETRANSLIT:;
#SUBTITLETRANSLIT:;
#ARTISTTRANSLIT:;
#GENRE:;
#CREDIT:;
#BANNER:heavensentbn.png;
#BACKGROUND:heavensentbg.png;
#LYRICSPATH:;
#CDTITLE:;
#MUSIC:heavensent.ogg;
#OFFSET:-0.008831;
#SAMPLESTART:50.405418;
#SAMPLELENGTH:12.000000;
#SELECTABLE:YES;
#BPMS:0.000000=78.500000
,16.000000=157.000000
;
#STOPS:210.500000=0.385000
;
#BGCHANGES:8.000=fastrays.mp4=1.000=1=0=1=SongBgWithMovieViz==CrossFade==,
16.000=heavensentbg.png=1.000=1=0=1===CrossFade==,
20.000=yellow flash=1.800=0=0=1=====,
20.250=fastrays.mp4=1.000=0=1=1=StretchRewind====,
52.000=yellow flash=1.800=0=0=1=====,
52.250=rainbowparticle.mp4=1.000=0=1=1=StretchRewind====,
113.500=yellow flash=1.800=0=0=1=====,
113.750=heavensentbg.png=1.000=0=0=1=====,
114.500=yellow flash=1.800=0=0=1=====,
114.750=heavensentbg.png=1.000=0=0=1=====,
116.000=worship.mp4=1.000=0=1=1=StretchRewind==CrossFade_Fastest==,
148.000=sunrays.mp4=1.000=0=1=1=StretchRewind==CrossFade_Fastest==,
178.000=yellow flash=1.800=0=0=1=====,
178.250=heavensentbg.png=1.000=0=0=1=====,
178.500=yellow flash=1.800=0=0=1=====,
178.750=heavensentbg.png=1.000=0=0=1=====,
180.000=flash=1.800=0=0=1=====,
180.250=fastrays.mp4=1.800=0=0=1=====,
210.500=heavensentbg.png=1.000=0=0=1=====,
211.000=yellow flash=1.800=0=0=1=====,
211.250=sunrays.mp4=1.800=0=0=1=====,
240.500=yellow flash=1.800=0=0=1=====,
240.750=heavensentbg.png=1.000=0=0=1=====,
241.500=yellow flash=1.800=0=0=1=====,
241.750=heavensentbg.png=1.000=0=0=1=====,
99999=-nosongbg-=1.000=0=0=0 // don't automatically add -songbackground-
;
#KEYSOUNDS:;
#ATTACKS:;

//---------------dance-single - C. Picardy----------------
#NOTES:
     dance-single:
     :
     Beginner:
     1:
     0.100948,0.148667,0.069668,0.009953,0.000000,71.000000,64.000000,7.000000,1.000000,0.000000,0.000000,0.100948,0.148667,0.069668,0.009953,0.000000,71.000000,64.000000,7.000000,1.000000,0.000000,0.000000:
0000
0000
0000
0000
,
0000
0000
0000
0000
,
1000
0000
0000
0000
,
0001
0000
0000
0000
,
1001
0000
0000
0000
,
0100
0000
0000
0000
,
0010
0000
0000
0000
,
0100
0000
0000
0000
,
0010
0000
0000
0000
,
1000
0000
0000
0000
,
0001
0000
0000
0000
,
1000
0000
0000
0000
,
0001
0000
0000
0000
,
0110
0000
0000
0000
,
0100
0000
0100
0000
,
0100
0000
0000
0000
,
1001
0000
0000
0000
,
0100
0000
0000
0000
,
0010
0000
0010
0000
,
0010
0000
0000
0000
,
0110
0000
0000
0000
,
1000
0000
0000
0000
,
0001
0000
0000
0000
,
0100
0000
0000
0000
,
0010
0000
0000
0000
,
1000
0000
0000
0000
,
0100
0000
0000
0000
,
0010
0000
0000
0000
,
0200
0000
0000
0300
,
1001
0000
0000
0000
,
1000
0000
0000
0000
,
0001
0000
0000
0000
,
0100
0000
0100
0000
,
0100
0000
0000
0000
,
0010
0000
0000
0000
,
1000
0000
0000
0000
,
0001
0000
0001
0000
,
0001
0000
0000
0000
,
1000
0000
0000
0000
,
0010
0000
0000
0000
,
1000
0000
1000
0000
,
1000
0000
0000
0000
,
0001
0000
0000
0000
,
0010
0000
0000
0000
,
0100
0000
0000
0000
,
1001
0000
0000
0000
,
0100
0000
0000
0000
,
0010
0000
0000
0000
,
1000
0000
0000
0000
,
0001
0000
0000
0000
,
0100
0000
0000
0000
,
0010
0000
0000
0000
,
1000
0000
0000
1001
,
0000
0000
0000
0100
,
0000
0000
0000
0010
,
0000
0000
0000
1000
,
0000
0000
0000
0001
,
0000
0000
0000
1000
,
0000
0000
0000
0100
,
0000
0000
0000
0010
;

//---------------dance-single - C. Picardy----------------
#NOTES:
     dance-single:
     :
     Challenge:
     11:
     0.988154,1.393492,0.487679,0.537442,1.209244,695.000000,646.000000,49.000000,54.000000,94.000000,0.000000,0.988154,1.393492,0.487679,0.537442,1.209244,695.000000,646.000000,49.000000,54.000000,94.000000,0.000000:
0000
0000
0000
0000
,
0000
0000
0000
0000
,
1000
0100
0010
0001
0000
0000
1000
0010
0100
0001
0000
0000
1000
0100
0010
0001
0010
0100
1000
0001
0000
0000
0001
0100
0010
1000
0000
0000
0001
0100
0010
1000
,
0010
0100
0001
1000
0000
0000
0100
0010
0001
1000
0000
0000
0001
0100
0001
0100
0001
0000
1000
0100
0010
0001
1001
0000
0000
0000
0210
0000
0000
0000
0000
0000
,
M0M2
0000
0000
0000
M3M3
1000
0100
0010
0002
0000
MMM0
0000
MMM0
0000
MMM3
0000
,
1000
0100
0010
0002
00M0
0000
1003
0010
0100
0020
0M00
0000
1030
0001
0100
0010
,
1000
0000
0000
0000
0100
0000
0000
0000
0010
0000
0000
0000
0002
0000
0000
0000
00M0
0000
0000
0000
0000
0000
0000
0000
0013
0000
0000
0000
0100
0000
0000
0000
1000
0000
0000
0000
0002
0000
0000
0000
M000
0000
0000
0000
0000
0000
0000
0003
0001
0000
0000
0000
0100
0000
0000
0000
0010
0000
0000
0000
1000
0000
0000
0000
,
0010
0100
0001
2000
000M
0000
3100
0010
0001
2000
000M
0000
3010
0100
0001
0100
,
0010
1000
0100
0020
0000
0M00
0031
0100
0010
1000
0100
0000
0010
0001
0100
0010
,
1000
0100
0001
0200
0000
M00M
0301
0100
0010
0200
M0M0
0000
1300
0010
0100
0010
,
0001
0010
1000
0020
M00M
0000
0130
0001
0010
0200
0000
M0M0
0301
0100
0010
0001
,
0100
1000
0100
0020
MM0M
0000
0130
1000
0100
0002
MMM0
0000
0013
0100
0010
1000
,
0010
0100
0010
0001
0100
0010
1M1M
0000
0000
0000
MM22
0000
0000
0000
MM00
0033
,
11MM
0100
0010
0100
1000
0010
0100
0010
,
1000
0100
1000
0100
1000
0000
0001
0000
0100
0001
0100
0001
0100
0000
0110
0000
,
1010
1000
0100
0001
0100
0010
1000
0010
,
0001
0100
0010
0000
1000
0100
0010
0000
0001
0100
0010
0100
0001
1000
0100
0000
,
1MM1
0010
0100
0010
0001
0100
1000
0100
,
0001
0010
0001
0010
0001
0000
1000
0000
0001
0100
0001
0100
0001
0000
1100
0000
,
0101
1000
0001
0100
0001
0010
0100
1000
,
0010
0100
0001
0000
0010
0100
1000
0000
0001
0100
0010
1000
0100
0010
0001
0000
,
M11M
0000
0100
0000
1000
0000
0001
0010
0100
0000
1000
0000
0010
0000
0100
0010
,
1000
0000
0100
0000
0010
0000
0001
1000
0010
0000
1000
0000
0100
0000
0110
0000
,
0011
0000
0100
0000
0010
0000
1000
0100
0001
0000
0100
0000
1000
0000
0001
0100
,
1000
0000
0100
0000
0001
0000
0010
0100
1000
0000
1MM1
0000
1MM1
0000
0000
0000
,
0010
0000
0001
0100
0010
0000
1000
0000
0001
0010
0001
0010
0001
0000
1000
0010
,
0100
0010
1000
0000
0001
0000
0001
1000
0100
1000
0010
0000
0100
0000
0100
0000
,
0110
0000
0001
0000
1000
0000
0100
0010
0100
0010
0100
0000
1000
0010
0100
0000
,
1010
0000
0001
0100
0001
0100
0101
0000
0M0M
0000
2200
0000
0000
0000
3300
0000
,
0011
0000
0010
0000
0100
0000
1000
0100
1000
0000
0100
0000
0110
0000
0001
0010
,
0001
0000
0100
0000
0101
0000
0010
1000
0010
0000
0100
0000
0010
0000
1010
0000
,
1001
0000
0100
0000
0001
0000
1000
0010
1000
0000
0100
0000
1100
0000
0010
0100
,
0010
0001
0011
1000
0020
1000
0130
0101
,
0110
0000
1000
0000
0001
0000
0010
0100
1000
0000
0001
0000
0101
0000
1000
0010
,
0100
0000
0010
0000
1010
0000
0100
0001
0010
0000
0110
0000
M11M
0000
0MM0
0000
,
1001
0000
0100
0000
0010
0000
1000
0100
0010
0000
0001
0000
0101
0000
0010
1000
,
0100
0000
0010
0000
0011
0000
1000
0010
0100
0000
0001
0000
1000
0000
1100
0000
,
0101
0000
1000
0001
0100
0000
0001
0100
0010
0000
1000
0010
0100
0000
0010
1000
,
0001
0000
0010
0100
1000
0000
0100
0010
0001
0000
1000
0010
0100
0000
0110
0000
,
1010
0000
0001
1000
0100
0000
0010
0100
1000
0000
0100
0010
0001
0000
0100
0001
,
0010
0000
0001
0100
0010
0000
1000
0010
0200
0000
0001
0000
0310
0000
0110
0000
,
1001
0000
0100
0010
1000
0000
0001
0100
1000
0000
0100
0010
1000
0000
0100
0010
,
1000
0000
0001
0100
0010
0000
0100
1000
0010
0000
1001
0000
M11M
0000
0MM0
0000
,
0011
0000
1000
0100
0001
0000
0100
0010
0001
0000
1000
0010
0001
0000
1000
0100
,
0010
0000
0100
0010
1000
0000
0001
0100
0010
0000
2002
0000
0000
0000
3003
0000
,
1000
0100
1000
0200
M0M0
0000
0310
0001
0010
0002
M0M0
0000
0103
0001
0100
0001
,
0100
0010
0100
0020
0M0M
0000
1030
0010
1000
0020
M00M
0000
0130
0001
0100
0001
,
0010
0001
0010
0002
M0M0
0000
0103
1000
0100
2000
0MM0
0000
3100
0010
0100
0010
,
1000
0010
1000
0020
MM00
0000
0130
0001
0010
0100
0010
0000
0001
1000
0001
1000
,
0001
0100
0001
0020
0M0M
0000
0031
1000
0100
2000
0MM0
0000
3010
0100
0010
1000
,
0100
0010
0100
0020
MM00
0000
0031
0010
0001
2000
00MM
0000
3010
0100
0001
0100
,
0010
1000
0010
2000
00MM
0000
3001
0010
0100
2000
0MM0
0000
3001
0010
0100
0010
,
0001
0000
0100
0000
0010
0000
1000
0000
0001
0000
1000
0000
1MM1
0000
0000
0000
0000
0000
0000
0000
M22M
0330
0000
0000
1000
0000
0001
0000
0100
0000
0020
0000
,
0000
0000
1030
0001
0010
0200
0000
0000
1300
0001
0100
0010
1000
0001
0100
0020
,
0000
0000
1030
0100
0010
0002
0000
0000
1003
0010
0100
0010
1000
0100
0010
0002
,
0000
0000
0013
0100
1000
0020
0000
0000
0130
0001
0100
0010
1000
0100
0010
0200
,
0000
0000
0310
0001
0100
0010
1000
0000
0100
0010
0001
0100
1000
0100
0010
2000
,
0000
0000
3100
0010
1000
0020
0000
0000
0031
0010
1000
0010
0001
0100
1000
0002
,
0000
0000
0013
1000
0010
0002
0000
0000
0013
1000
0100
0001
0100
1000
0010
0200
,
0000
0000
0301
0100
1000
0200
0000
0000
0301
0010
1000
0010
0001
0000
1000
0100
,
0010
0001
1001
0000
0000
0000
M22M
0000
0000
0000
0000
0000
0330
0000
0MM0
0000
;

//---------------dance-single - C. Picardy----------------
#NOTES:
     dance-single:
     :
     Hard:
     9:
     0.621328,0.876702,0.378200,0.139337,0.293602,437.000000,399.000000,38.000000,14.000000,8.000000,0.000000,0.621328,0.876702,0.378200,0.139337,0.293602,437.000000,399.000000,38.000000,14.000000,8.000000,0.000000:
0000
0000
0000
0000
,
0000
0000
0000
0000
,
0100
0001
0000
1000
1100
0000
0001
0010
0100
1000
0000
0010
0110
0000
1000
0001
,
0100
0000
0010
0000
0000
0000
0100
0000
0101
0000
0000
0000
0010
0000
0100
0000
1000
0000
0010
0100
0010
0000
1000
0000
0000
0000
0001
0000
0000
0000
0000
0000
,
0220
0000
0000
0000
0330
0000
1MM0
0002
2000
0000
0000
0000
0000
0000
3003
0000
,
1000
0100
0000
0000
1000
0000
0001
0000
0100
0001
0000
0000
0100
0000
0010
0000
,
1000
0010
0000
0000
1000
0000
0100
0000
0010
0100
0000
0000
1000
0000
0010
0000
,
0100
0010
0000
0000
0100
0000
0001
0000
0010
0001
0000
0000
0010
0000
0100
0000
,
1000
0010
0000
0000
1000
0000
0010
0100
0010
0000
0000
0000
1001
0000
0000
0000
,
0100
0010
0000
0000
0100
0000
0001
0000
1000
0001
0000
0000
0010
0000
0100
0000
,
1000
0010
0000
0000
0100
0000
0001
0000
0010
0100
0000
0000
0010
0000
0001
0000
,
1000
0010
0000
0000
0100
0000
0010
0000
1000
0001
0000
0000
0010
0000
0100
0000
,
1000
0000
0001
0100
0001
0000
0101
0000
0000
0000
2200
0000
0000
0000
3300
0000
,
0001
0100
0010
0100
0001
0000
0110
0000
,
1000
1000
0100
0000
0010
0010
0001
0100
,
0101
0000
0100
0000
0010
0010
1000
0000
,
0001
0010
0001
0010
0100
1000
0100
1000
,
1001
0000
0100
0100
0010
0000
1000
0000
,
1100
0000
0010
0000
0100
0100
0001
0010
,
0011
0000
1000
0000
0100
0010
0001
0000
,
1000
0010
0100
0001
1000
0001
0100
0010
,
0120
0000
1000
1000
0000
0100
0000
0001
,
0000
1000
0030
0000
1100
0000
0001
0010
,
0100
0200
0010
0010
0000
0001
0000
1000
,
0300
0000
0011
0000
1000
0001
1001
0000
,
1000
0100
0001
0100
1000
0000
0001
0100
,
1000
0100
0001
0100
0010
0000
0010
0000
,
1000
0100
0010
0100
1000
0010
0100
0010
,
1000
0001
0000
0110
0000
1001
0000
M00M
,
1000
0100
0001
0100
2000
0000
0010
0000
,
0001
0000
0100
0000
3010
0100
0001
1000
,
0000
1010
0000
0001
0000
0101
0000
1100
,
0000
0110
0110
0000
0100
0000
1001
0000
,
0001
0010
0001
1000
0002
0000
1000
0000
,
0100
0000
0010
0000
1003
1001
1001
0000
,
0100
0000
0100
0010
0000
0100
0000
1000
,
1100
0000
0010
0000
0100
0001
0010
0100
,
1000
0100
1000
0100
0010
0001
0010
0001
,
0100
0010
0100
0010
1000
0010
1000
0010
,
0100
0001
0010
0100
1000
0010
0100
0010
,
1000
0100
0010
0000
1100
0000
0011
0000
,
0001
0100
0001
0100
1000
0100
1000
0100
,
0001
0010
0001
0010
0100
1000
1001
0000
,
0010
0000
0010
0100
0000
0101
0000
2200
,
0000
3300
0010
0000
0100
0110
0000
0MM0
,
1000
0001
0000
0000
1000
0000
0100
0000
1000
0100
0000
0000
0010
0000
0100
0000
,
0010
0001
0000
0000
0010
0000
0001
0000
0100
0001
0000
0000
0100
0000
0010
0000
,
1000
0010
0000
0000
0100
0000
0010
0000
0100
0001
0000
0000
0010
0000
0100
0000
,
1000
0010
0000
0000
0000
0000
0100
0010
0100
0000
0000
0000
1001
0000
0000
0000
,
1000
0001
0000
0000
0001
0000
0100
0000
1000
0100
0000
0000
0001
0000
0100
0000
,
0001
0010
0000
0000
0001
0000
0010
0000
1000
0010
0000
0000
0100
0000
1000
0000
,
0100
0010
0000
0000
0100
0000
1000
0000
0100
0001
0000
0000
0100
0000
1000
0000
,
0001
0000
1000
0001
1000
0000
0010
0000
0000
0000
0110
0000
1MM0
0000
1000
0001
,
0000
0000
0010
0000
0100
1000
0000
0000
0010
0000
0010
0000
0100
0000
0100
0001
,
0000
0000
0100
0000
0010
1000
0000
0000
0100
0000
0100
0000
0010
0000
0100
1000
,
0000
0000
0001
0000
0010
0001
0000
0000
1000
0000
1000
0000
0001
0000
0001
0100
,
0000
0000
0010
0000
1000
0001
0100
0000
0110
0000
0000
0000
1000
0000
1000
0100
,
0000
0000
0001
0000
0100
1000
0000
0000
0010
0000
0010
0000
0100
0000
0010
1000
,
0000
0000
0001
0000
0100
1000
0000
0000
0100
0000
0001
0000
0010
0000
0010
0100
,
0000
0000
1000
0000
0100
0001
0000
0000
0100
0000
1000
0000
0010
0000
1000
0001
,
1000
1100
0000
0022
0000
0000
0033
0000
;

//---------------dance-single - C. Picardy----------------
#NOTES:
     dance-single:
     :
     Medium:
     6:
     0.427963,0.540801,0.348342,0.109479,0.024882,301.000000,266.000000,35.000000,11.000000,0.000000,0.000000,0.427963,0.540801,0.348342,0.109479,0.024882,301.000000,266.000000,35.000000,11.000000,0.000000,0.000000:
0000
0000
0000
0000
,
0000
0000
0000
0000
,
1000
0000
0000
0100
0100
0000
0010
0000
0100
0000
0000
1000
1000
0000
0010
0000
,
0100
0000
0000
0010
0010
0000
0100
0000
0001
0000
0000
1000
0000
1001
0000
0000
,
0220
0000
0330
0000
,
1000
0000
0010
0000
1000
0000
0001
0010
,
0001
0000
1000
0000
0010
0000
0100
0010
,
0100
0000
0001
0000
0010
0000
0100
0010
,
0100
1000
0011
1100
,
0010
0000
0100
0000
0001
0000
0010
0100
,
0010
0000
0001
0000
1000
0000
0010
1000
,
0010
0000
1000
0000
0100
0000
0010
0100
,
0010
0000
0000
1001
0000
0110
0000
0000
,
1001
0100
0010
1000
,
0100
0000
1010
0000
0001
0001
0001
0000
,
0100
0001
0010
0100
,
0012
0000
1000
0103
,
0110
1000
0001
0100
,
0010
0000
1001
0000
0100
0100
0100
0000
,
0010
0000
1000
0000
0100
0010
0100
0000
,
2001
0000
0010
3001
,
1100
0000
0001
0100
0000
0001
0000
0100
,
0000
0100
0000
0000
0010
0000
1000
0010
,
1000
0100
0010
0001
,
0200
0000
0001
0000
0010
0010
0310
0000
,
1000
0001
0100
0000
0010
0000
1000
0000
,
0100
0010
0100
1000
,
0001
0010
0100
0000
1000
0100
0010
0000
,
1001
0000
0000
1100
0000
0101
0000
0000
,
0100
0010
1010
0001
,
0011
0000
1000
0000
0001
0100
0010
0000
,
1000
0110
0001
0110
,
1000
0100
0011
1100
,
0001
0100
0010
0000
1000
0000
0100
0000
,
0010
0000
0100
0000
1000
1000
0010
0000
,
0100
0000
0010
0100
0000
0002
0000
2003
,
0000
3000
0010
0000
0100
0010
0000
0000
,
1000
0100
0020
0000
0001
0000
0100
0000
,
0001
0000
0001
0000
0130
0000
1000
0010
,
0000
0100
0000
0010
0000
1000
0000
0001
,
0000
0100
0100
0000
0110
0000
1001
0000
,
0010
0001
2000
0000
0010
0000
0001
0000
,
0100
0000
0010
0000
3100
0010
0100
0000
,
1000
0000
0001
0100
0000
0020
0000
0230
,
0000
0300
0010
0000
0010
0010
0000
0000
,
1001
0000
0100
0000
0010
0000
1000
0100
,
1000
0000
0010
0000
0100
0000
0001
0010
,
0001
0000
1000
0000
0010
0000
0100
0010
,
0100
0001
1010
0101
,
0010
0000
0100
0000
1000
0000
0100
0010
,
0001
0000
0010
0000
0100
0000
1000
0010
,
0100
0000
0001
0000
0100
0000
0010
1000
,
0100
0000
0000
1001
0000
1001
0110
0000
,
0100
0000
0001
0000
1000
0100
0001
0000
,
0100
0000
1000
0000
0010
0001
0010
0000
,
1000
0000
0001
0000
0001
0100
1000
0000
,
0100
1010
0011
1000
,
0100
0000
0001
0000
0001
0100
1000
0000
,
0001
0000
0100
0000
1000
0100
0001
0000
,
0010
0100
0010
1001
,
0000
1100
0000
0011
0000
0000
0000
0000
;

//---------------dance-single - C. Picardy----------------
#NOTES:
     dance-single:
     :
     Easy:
     4:
     0.290048,0.330489,0.199053,0.179147,0.000000,204.000000,184.000000,20.000000,18.000000,0.000000,0.000000,0.290048,0.330489,0.199053,0.179147,0.000000,204.000000,184.000000,20.000000,18.000000,0.000000,0.000000:
// measure 0
0000
0000
0000
0000
,  // measure 1
0000
0000
0000
0000
,  // measure 2
1000
0000
0001
0000
,  // measure 3
1000
0001
1000
0001
,  // measure 4
0000
0000
1001
0000
,  // measure 5
0100
0010
0100
0010
,  // measure 6
1000
0001
1000
0001
,  // measure 7
1000
0100
1000
0100
,  // measure 8
0010
0001
0010
0001
,  // measure 9
1000
0100
0001
0100
,  // measure 10
1000
0010
0001
0010
,  // measure 11
1000
0001
0100
0010
,  // measure 12
2002
0000
3003
0000
,  // measure 13
0001
0100
0001
0010
,  // measure 14
0100
0100
1000
1000
,  // measure 15
1001
0000
0100
0010
,  // measure 16
0200
0000
0010
0310
,  // measure 17
1001
0100
0010
1000
,  // measure 18
0100
0010
0001
0001
,  // measure 19
0110
0000
1000
0001
,  // measure 20
0020
0000
0200
0330
,  // measure 21
1000
1000
1000
0000
,  // measure 22
0001
0000
0100
0000
,  // measure 23
0010
0000
1000
0000
,  // measure 24
0001
0000
1001
1001
,  // measure 25
0100
0100
0100
0001
,  // measure 26
0010
0010
0010
0000
,  // measure 27
0100
0000
0010
0000
,  // measure 28
0220
0000
0330
0000
,  // measure 29
0001
0001
0002
0000
,  // measure 30
0100
0000
0013
0000
,  // measure 31
0100
0010
1000
0001
,  // measure 32
1000
1000
0200
0300
,  // measure 33
2000
0000
0010
0000
,  // measure 34
0001
0000
3010
0000
,  // measure 35
0100
0001
0010
0001
,  // measure 36
0200
0300
0010
0010
,  // measure 37
1000
0001
0200
0000
,  // measure 38
0010
0010
0310
1000
,  // measure 39
0001
0100
0010
1000
,  // measure 40
0100
0000
0011
1100
,  // measure 41
0001
0100
0020
0000
,  // measure 42
1000
0100
1000
1030
,  // measure 43
0110
0000
0100
0001
,  // measure 44
1000
0010
2000
3000
,  // measure 45
1001
0000
0100
0010
,  // measure 46
0110
0000
1000
0100
,  // measure 47
1100
0000
0001
0010
,  // measure 48
0011
0000
1000
0010
,  // measure 49
0101
0000
0001
0010
,  // measure 50
1100
0000
0001
0100
,  // measure 51
1010
0000
0100
0010
,  // measure 52
2002
0000
3003
0010
,  // measure 53
0100
0010
0100
0001
,  // measure 54
1000
0001
1000
0100
,  // measure 55
1000
0001
0100
0001
,  // measure 56
0010
0001
1000
0100
,  // measure 57
0001
0100
1000
0010
,  // measure 58
0001
0010
1000
0100
,  // measure 59
0010
0001
0010
2002
,  // measure 60
0000
0000
0000
3003
0000
0000
0000
0000
;
