#TITLE:Heartbeat;
#SUBTITLE:;
#ARTIST:Nathalie;
#TITLETRANSLIT:;
#SUBTITLETRANSLIT:;
#ARTISTTRANSLIT:;
#GENRE:;
#CREDIT:;
#BANNER:heartbeatbn.png;
#BACKGROUND:heartbeatbg.png;
#LYRICSPATH:;
#CDTITLE:;
#MUSIC:heartbeat.ogg;
#OFFSET:0.025472;
#SAMPLESTART:48.685440;
#SAMPLELENGTH:12.000000;
#SELECTABLE:YES;
#BPMS:0.000000=155.100006
;
#STOPS:
;
#BGCHANGES:16.000=crazyekg.mp4=1.000=1=0=1=SongBgWithMovieViz==CrossFade==,
32.000=flash=1.800=0=0=1=====,
32.250=crazyekg.mp4=1.000=0=1=1=StretchRewind====,
64.000=yellow flash=1.800=0=0=1=====,
64.250=darkblueekg.mp4=1.000=0=1=1=StretchRewind====,
96.000=darkblueekg.mp4=1.000=1=0=1===CrossFade=#FF00FF=,
112.000=darkblueekg.mp4=1.000=1=0=1===CrossFade=#FFFF00=,
124.000=darkblueekg.mp4=1.000=1=0=1=SongBgWithMovieViz==CrossFade==,
128.000=yellow flash=1.800=0=0=1=====,
128.250=yellowekg.mp4=2.600=0=1=1=StretchRewind====,
156.000=yellowekg.mp4=1.000=0=0=1=SongBgWithMovieViz====,
156.500=yellowekg.mp4=1.000=0=0=1=====,
157.000=yellowekg.mp4=1.000=0=0=1=SongBgWithMovieViz====,
157.500=yellowekg.mp4=1.000=0=0=1=====,
158.000=yellowekg.mp4=1.000=0=0=1=SongBgWithMovieViz====,
158.500=yellowekg.mp4=1.000=0=0=1=====,
159.000=yellowekg.mp4=1.000=0=0=1=SongBgWithMovieViz====,
159.500=yellowekg.mp4=1.000=0=0=1=====,
160.000=yellow flash=1.800=0=0=1=====,
160.250=darkblueekg.mp4=2.200=0=0=1=====,
192.000=yellow flash=1.800=0=0=1=====,
192.250=crazyekg.mp4=1.000=0=0=1=====,
195.000=yellow flash=2.600=0=0=1=====,
195.250=crazyekg.mp4=1.000=0=0=1=====,
195.500=yellow flash=2.600=0=0=1=====,
195.750=crazyekg.mp4=1.000=0=0=1=====,
199.000=yellow flash=2.600=0=0=1=====,
199.250=crazyekg.mp4=1.000=0=0=1=====,
199.500=yellow flash=2.600=0=0=1=====,
199.750=crazyekg.mp4=1.000=0=0=1=====,
208.000=yellow flash=1.800=0=0=1=====,
208.250=crazyekg.mp4=1.000=0=0=1=====,
211.000=yellow flash=2.600=0=0=1=====,
211.250=crazyekg.mp4=1.000=0=0=1=====,
211.500=yellow flash=2.600=0=0=1=====,
211.750=crazyekg.mp4=1.000=0=0=1=====,
215.000=yellow flash=2.600=0=0=1=====,
215.250=crazyekg.mp4=1.000=0=0=1=====,
215.500=yellow flash=2.600=0=0=1=====,
215.750=crazyekg.mp4=1.000=0=0=1=====,
224.000=yellow flash=1.800=0=0=1=====,
224.250=deathheart.mp4=1.000=0=0=0=StretchNoLoop====,
227.000=yellow flash=2.600=0=0=1=====,
227.250=deathheart.mp4=1.000=0=0=1=====,
227.500=yellow flash=2.600=0=0=1=====,
227.750=deathheart.mp4=1.000=0=0=1=====,
231.000=yellow flash=2.600=0=0=1=====,
231.250=deathheart.mp4=1.000=0=0=1=====,
231.500=yellow flash=2.600=0=0=1=====,
231.750=deathheart.mp4=1.000=0=0=1=====,
240.000=flash=1.800=0=0=1====#FF0000=,
240.250=deathheart.mp4=1.000=0=0=1=====,
243.000=flash=2.600=0=0=1====#FF0000=,
243.250=deathheart.mp4=1.000=0=0=1=====,
243.500=flash=2.600=0=0=1====#FF0000=,
243.750=deathheart.mp4=1.000=0=0=1=====,
247.000=flash=2.600=0=0=1====#FF0000=,
247.250=deathheart.mp4=1.000=0=0=1=====,
247.500=flash=2.600=0=0=1====#FF0000=,
247.750=deathheart.mp4=1.000=0=0=1=====,
256.000=deathheart.mp4=1.000=1=0=1=SongBgWithMovieViz==CrossFade==,
258.500=flash=1.000=0=0=1====#FF0000=,
258.750=heartbeatbg.png=1.000=0=0=1=====,
99999=-nosongbg-=1.000=0=0=0 // don't automatically add -songbackground-
;
#KEYSOUNDS:;
#ATTACKS:;

//---------------dance-single - C. Picardy----------------
#NOTES:
     dance-single:
     :
     Beginner:
     1:
     0.099609,0.158357,0.088385,0.000000,0.000000,71.000000,62.000000,9.000000,0.000000,0.000000,0.000000,0.099609,0.158357,0.088385,0.000000,0.000000,71.000000,62.000000,9.000000,0.000000,0.000000,0.000000:
0000
0000
0000
0000
,
0000
0000
0000
0000
,
0000
0000
0000
0000
,
0000
0000
0000
0000
,
1001
0000
0000
0000
,
0000
0000
0000
0000
,
0000
0000
0000
0000
,
0100
0000
0000
0000
,
1001
0000
0000
0000
,
0010
0000
0000
0000
,
0100
0000
0000
0000
,
0010
0000
0000
0000
,
1000
0000
0000
0000
,
0001
0000
0000
0000
,
1000
0000
0000
0000
,
0001
0000
0000
0000
,
0110
0000
0000
0000
,
0100
0000
0000
0000
,
0010
0000
0000
0000
,
0001
0000
0000
0000
,
1000
0000
0000
0000
,
0010
0000
0000
0000
,
0100
0000
0000
0000
,
0001
0000
0000
0000
,
1001
0000
0000
0000
,
0100
0000
0100
0000
,
0100
0000
0000
0000
,
0010
0000
0000
0000
,
0010
0000
0010
0000
,
0010
0000
0000
0000
,
0001
0000
0000
0000
,
1000
0000
0000
0000
,
0110
0000
0000
0000
,
0100
0000
0000
0000
,
0010
0000
0000
0000
,
1000
0000
0000
0000
,
0001
0000
0000
0000
,
0100
0000
0000
0000
,
0010
0000
0000
0000
,
1000
0000
0000
0000
,
1001
0000
0000
0000
,
0100
0000
0000
0000
,
0010
0000
0000
0000
,
1000
0000
0000
0000
,
0001
0000
0000
0000
,
0010
0000
0000
0000
,
0100
0000
0000
0000
,
1000
0000
0000
0000
,
1001
0000
0000
0000
,
0010
0000
0000
0000
,
0100
0000
0000
0000
,
0010
0000
0000
0000
,
1000
0000
0000
0000
,
0001
0000
0000
0000
,
1000
0000
0000
0000
,
0001
0000
0000
0000
,
0110
0000
0000
0000
,
0100
0000
0000
0000
,
0010
0000
0000
0000
,
1000
0000
0000
0000
,
0001
0000
0000
0000
,
1000
0000
0000
0000
,
0001
0000
0000
0000
,
0100
0000
0000
0000
,
0010
0000
0110
0000
;

//---------------dance-single - C. Picardy----------------
#NOTES:
     dance-single:
     :
     Challenge:
     10:
     0.892270,0.900547,0.471388,0.265156,0.790556,636.000000,588.000000,48.000000,27.000000,62.000000,0.000000,0.892270,0.900547,0.471388,0.265156,0.790556,636.000000,588.000000,48.000000,27.000000,62.000000,0.000000:
0000
0000
0000
0000
,
0000
0000
0000
0000
,
0000
0000
0000
0000
,
0000
0000
0000
0000
,
1MM2
0000
0000
0000
1003
0100
1000
0100
1000
0000
1000
0000
0001
0000
M1M2
0000
,
0000
0000
0000
1003
0010
1000
0010
1000
0010
0000
0100
0000
0001
0000
MM12
0000
,
0000
0000
0013
0000
0100
0000
0000
0000
1000
0000
1000
0000
0001
0000
0010
0100
,
0010
0001
0100
0000
0010
1000
0100
0000
0010
0001
0100
0000
0001
1000
0001
1000
,
0002
0000
0000
0000
1003
0100
0010
0100
1000
0000
0001
0000
0101
0000
21MM
0000
,
0000
0000
0000
3100
0010
0001
0010
0100
0010
0000
0001
0000
0101
0000
2M1M
0000
,
0000
0000
0000
0000
3010
0100
0001
0100
0010
0000
1000
0000
0100
0000
0010
0001
,
0000
0000
1000
0000
0100
1000
0010
0000
1010
0000
0100
0000
0001
0010
0100
0010
,
0002
0000
0000
0000
1003
0100
0001
0100
1000
0000
0010
0000
0110
0000
1M2M
0000
,
0000
0000
0000
0130
0001
0010
0100
0010
0001
0000
1000
0000
0011
0000
1M2M
0000
,
0000
0000
0100
0000
0130
0000
0000
0000
0001
0000
0010
0000
0100
0000
1000
0100
,
0010
0001
0100
0000
0010
0000
0100
0020
0000
0000
1030
0001
0100
0001
0100
0001
,
0100
0000
0010
0000
1000
0000
0001
0100
0001
0000
1000
0000
0100
1000
0100
1000
,
0100
0000
0010
0000
0001
0000
1000
0010
1000
0000
0001
0000
0100
0010
0100
0010
,
0100
0000
0001
0000
0010
0000
0001
0100
0001
0100
0001
0000
1000
0100
1000
0100
,
1000
0000
11M0
M101
0000
1M10
0000
M011
,
0101
0000
0000
0000
0010
0000
1000
0000
0001
0010
0100
1000
0100
0010
0001
0000
,
MMMM
0000
0000
0000
0100
0000
0010
0000
1000
0001
0100
0010
1000
0100
0010
0000
,
MMMM
0000
0000
0000
0001
0000
1000
0000
0010
0100
0001
0100
0010
0100
0002
0000
,
0000
0000
0010
0000
0000
0000
1003
0000
0001
0100
0010
1000
0100
0010
0001
1000
,
0100
0000
1000
0000
0100
0000
0010
0100
0010
0000
0001
0000
0100
0000
0010
1000
,
0010
0000
0100
0000
0001
0000
1000
0001
1000
0000
0100
0000
0010
0000
0100
1000
,
0100
0010
0100
1000
0001
0100
1000
0100
,
0001
0010
0100
0010
1000
0010
0001
0011
,
1002
M000
0100
0203
000M
2000
0300
0M02
,
3000
M020
0003
200M
0030
02M0
3000
M002
,
0300
0M00
0103
001M
0001
1000
0000
0010
,
M1M1
0000
11MM
0000
0001
0100
0010
1000
,
0001
0000
0010
0000
0100
0000
0010
0001
0010
0000
0100
0000
1000
0000
0001
0100
,
0001
0000
1000
0000
0100
0000
0001
0100
0001
0000
0100
0000
1000
0000
0010
1000
,
0010
0000
0100
0000
0001
0000
1000
0100
1000
0000
0001
0000
0010
0000
0100
0010
,
0100
0010
0100
0000
1000
0001
1000
0000
0001
0100
0010
1000
0100
0010
0001
0000
,
1001
0000
0100
0000
0010
0000
1000
0100
0010
0000
0001
0000
0100
0000
0010
0100
,
0001
0000
0010
0000
0100
0000
1000
0010
0100
0000
0001
0000
1000
0000
0100
1000
,
0001
0000
0100
0000
0010
0000
1000
0001
0010
0000
0100
0000
1000
0000
0001
0000
,
M100
0001
0010
0000
M010
0001
0100
0000
M010
1000
0100
1000
0010
0000
1001
0000
,
0100
0001
0100
0000
0001
0100
0001
0000
1000
0010
1000
0000
0010
1000
0010
0000
,
1000
0001
0100
0000
0001
1000
0100
0000
0010
0100
1000
0000
0001
0100
0001
0000
,
1000
0100
0010
0000
0001
1000
0100
0000
0010
0001
0010
0000
0001
0010
0001
0000
,
1000
0100
1000
0000
0010
1000
0010
0000
1000
0001
0100
0000
0110
0000
1001
0000
,
1000
0001
0100
0000
0010
1000
0100
0000
0010
0100
1000
0000
0010
0100
0001
0000
,
1000
0100
0010
0000
0001
0100
0010
0000
1000
0001
0100
0000
0010
1000
0100
0000
,
1000
0100
0010
0000
0001
0100
0010
0000
0100
0010
1000
0000
0001
0010
0100
0010
,
0001
0000
0100
0010
1000
0000
0100
0010
0001
0000
1000
0100
0010
0001
1000
0100
,
1MM1
0000
0000
0000
1000
0100
1000
0100
1000
0000
0001
0000
0101
0000
0210
0000
,
00M0
0000
0000
0301
0010
0001
0010
0001
0010
0000
0100
0000
1100
0000
0012
0000
,
00M0
0000
0000
0000
1003
0010
1000
0010
1000
0000
0001
0000
0100
0000
0100
0010
,
0000
0000
1000
0001
1000
0001
1000
0000
0100
0010
0100
0010
0100
1000
0001
0000
,
0021
0000
000M
0000
0031
0100
0001
0100
0001
0000
1000
0000
1100
0000
2010
0000
,
00M0
0000
0000
3010
0100
0010
0100
0010
0100
0000
0001
0000
0011
0000
0120
0000
,
0M00
0000
0001
0000
0031
0000
0000
0000
1000
0000
0100
0000
0010
0000
0100
1000
,
0001
0100
0010
0000
0100
0000
0001
2000
0000
0000
3100
0001
0100
0010
0100
1000
,
11MM
0000
0000
0000
0001
0100
0010
0100
0001
0000
1000
0000
1100
0000
0101
0000
,
0M0M
0000
1000
0010
0100
0010
1000
0010
0100
0000
0001
0000
1010
0000
0110
0000
,
0MM0
0000
0001
0000
1000
0100
0010
0100
1000
0000
0010
0100
0001
0000
0100
0010
,
0000
0000
1000
0001
0100
0010
1000
0000
1001
0000
0001
0010
0100
0010
0001
0000
,
1010
0000
M0M0
0000
0001
0010
0100
0010
0001
0000
0100
0000
0011
0000
0101
0000
,
0M0M
0000
0010
1000
0100
1000
0010
1000
0100
0000
0010
0000
0011
0000
1100
0000
,
MM00
0000
0001
0000
0001
0000
000M
0000
1000
0000
1000
0000
1010
0000
0001
0010
,
0100
1000
0010
0000
0100
0000
0001
0010
0000
0000
0001
0100
0010
1000
0100
0010
,
0001
0100
0010
1000
0000
2001
0000
0001
,
0000
0002
0000
0000
3003
0000
0000
0000
;

//---------------dance-single - C. Picardy----------------
#NOTES:
     dance-single:
     :
     Easy:
     3:
     0.312856,0.380793,0.412464,0.333900,0.000000,223.000000,181.000000,42.000000,34.000000,0.000000,0.000000,0.312856,0.380793,0.412464,0.333900,0.000000,223.000000,181.000000,42.000000,34.000000,0.000000,0.000000:
0000
0000
0000
0000
,
0000
0000
0000
0000
,
0000
0000
0000
0000
,
0000
0000
0000
0000
,
0110
0000
0000
0000
,
0110
0000
0000
0000
,
1001
0000
0000
0000
,
1001
0000
0000
0000
,
0200
0310
0010
0020
,
0030
1000
1000
2000
,
3000
0100
0010
0100
,
1000
0000
0110
0000
,
1001
0100
0010
0200
,
0300
0001
1000
0002
,
0003
1000
0010
0100
,
2002
3003
0220
0000
,
0330
1000
1000
1000
,
0000
0001
0001
0001
,
0000
0100
0100
0010
,
0010
0000
1000
0000
,
0101
0010
0100
0100
,
0000
0001
1000
1000
,
0000
0100
1000
0010
,
0200
0000
0301
0100
,
2002
3003
2200
3300
,
0202
0303
2020
3030
,
0001
0010
0001
0010
,
0100
0100
0100
0000
,
2200
3300
0202
0303
,
2020
3030
0022
0033
,
1000
0100
0010
0001
,
1001
0000
0100
0100
,
0110
0000
1000
0010
,
1000
0000
0001
0100
,
0001
0001
1000
1000
,
0100
0000
0010
0010
,
1001
0000
0100
0010
,
1000
1000
0000
0001
,
1000
0100
1000
0100
,
0010
0000
0100
0100
,
1001
0110
0000
0001
,
0100
1001
0000
0010
,
1000
0001
1000
0001
,
0010
0010
0100
0100
,
1001
0000
0110
0000
,
1000
1001
0000
0100
,
0010
0010
1000
0001
,
0100
0010
0100
0010
,
1001
0000
0100
0110
,
0000
0001
1000
1001
,
0000
0100
0010
0100
,
1000
0000
0110
0000
,
1001
0100
0010
1001
,
0000
0100
0100
0110
,
0000
0001
0100
0010
,
2000
0000
0002
3003
,
0110
1000
1000
0110
,
0001
0010
0010
1001
,
0100
0010
0100
0010
,
1000
0001
1000
0001
,
0110
1000
0001
0110
,
1000
0001
0100
1001
,
0010
0100
1000
0001
,
0202
0303
2020
3030
,
2002
0000
0000
0000
0000
3003
0000
0000
;

//---------------dance-single - C. Picardy----------------
#NOTES:
     dance-single:
     :
     Medium:
     6:
     0.405450,0.448555,0.353541,0.108026,0.009821,289.000000,253.000000,36.000000,11.000000,0.000000,0.000000,0.405450,0.448555,0.353541,0.108026,0.009821,289.000000,253.000000,36.000000,11.000000,0.000000,0.000000:
0000
0000
0000
0000
,
0000
0000
0000
0000
,
0000
0000
0000
0000
,
0000
0000
0000
0000
,
1001
0000
0000
0000
0000
0000
0100
0010
,
0000
0000
0000
0000
0000
0000
1000
0001
,
0000
0000
0100
0000
,
1100
0101
0011
1010
,
0100
0000
0010
0000
1000
0000
0001
0100
,
0000
0000
0010
0000
1000
0000
0100
1000
,
0000
0100
0010
0100
,
1100
0000
0001
0000
0101
0000
1000
0100
,
0010
0000
0100
0000
1000
0000
0010
0100
,
0000
0000
0001
0000
1000
0000
0100
0010
,
0000
0100
0011
0100
,
0010
0000
0000
0000
1000
0000
0000
1001
0000
0000
0000
0000
0100
0000
0000
0000
,
1010
0000
0001
0000
1000
0000
0100
0100
,
0000
0000
0010
0000
0100
0000
1000
1000
,
0000
0000
0010
0000
0100
0000
0001
0100
,
0010
0000
1000
1000
0000
1000
0000
1000
,
0001
0000
0010
0000
0100
0000
0010
0001
,
0000
0000
0100
0000
0010
0000
1000
0010
,
0000
0000
0100
0000
0001
0010
0100
1000
,
0000
0001
0000
0100
0000
0010
0000
0000
,
1000
1100
0001
0101
,
1000
0000
0001
0000
0010
0100
1000
0000
,
0002
0010
1000
0103
,
0020
1000
0100
1030
,
0002
0000
0000
0103
0000
0100
0000
0000
,
0020
0000
0000
1030
0000
1000
0000
0000
,
0001
0000
0010
0000
0100
0010
0000
2002
,
0000
0000
0000
0000
3003
0000
0100
0010
,
0100
0000
0001
0000
1000
0000
0100
0100
,
0000
0100
0000
0000
1000
0000
0001
0000
,
0101
1000
1010
0200
,
0001
0000
0010
0000
0301
0000
1000
0100
,
1000
0101
1000
0010
,
0100
0100
0010
0000
1000
0000
0001
0001
,
0010
0000
0100
0000
1000
0000
0001
0001
,
0001
1100
0101
1100
,
0001
0000
0100
0000
0110
0000
1000
1000
,
0000
1000
0000
0000
0110
0000
0001
0000
,
1000
0000
0010
0100
0000
0001
0000
1000
,
0000
0100
0000
0000
0110
0000
0010
0100
,
0010
0001
1001
0100
,
0010
0010
0010
0000
1000
0000
0001
0100
,
1000
0000
1000
0100
0001
0000
0001
0100
,
0010
0010
1010
0101
,
1001
0000
0100
0000
0010
0000
1000
1000
,
0000
0000
0001
0000
0100
0000
0010
0010
,
0000
1000
0100
1000
,
0110
0001
0101
1000
,
1001
0000
0010
0000
0100
0000
0010
0010
,
0000
0000
0001
0000
1000
0000
0001
0001
,
0000
1000
1010
0100
,
0002
0000
0000
2000
0000
3003
0100
0000
,
1001
0000
0100
0010
0100
0000
0001
0001
,
0000
0000
1000
0100
1000
0000
0010
0010
,
0000
0000
0100
0010
0100
0000
0010
0000
,
1000
0100
0011
0100
,
0110
0000
1000
0001
1000
0000
0100
0010
,
0000
0000
0001
1000
0001
0000
0010
0100
,
0000
1000
1001
0100
,
0010
0000
0000
0000
0100
0000
0000
1001
0000
0000
0000
0000
0110
0000
0000
0000
,
1000
0000
0001
2000
0000
0200
0000
0000
,
0000
3300
0000
0000
;

//---------------dance-single - C. Picardy----------------
#NOTES:
     dance-single:
     :
     Hard:
     8:
     0.593443,0.639565,0.343720,0.098206,0.132578,423.000000,388.000000,35.000000,10.000000,4.000000,0.000000,0.593443,0.639565,0.343720,0.098206,0.132578,423.000000,388.000000,35.000000,10.000000,4.000000,0.000000:
// measure 0
0000
0000
0000
0000
,  // measure 1
0000
0000
0000
0000
,  // measure 2
0000
0000
0000
0000
,  // measure 3
0000
0000
0000
0000
,  // measure 4
1001
0000
0100
0000
0010
0000
1000
0001
,  // measure 5
0000
0000
0010
0000
0100
0000
1000
0001
,  // measure 6
0000
0100
0010
0100
,  // measure 7
1010
0000
0101
0000
1100
0000
0001
0010
,  // measure 8
0011
0000
1000
0100
0010
0100
1000
1001
,  // measure 9
0000
0001
0100
0010
1000
0010
0100
0110
,  // measure 10
0000
0000
0001
0000
0010
0000
0100
0000
0010
0000
0001
0000
0010
0000
0100
1000
,  // measure 11
0000
0000
0001
0000
0100
0000
0010
0100
0000
0000
0001
0000
0010
0000
0001
0000
,  // measure 12
1001
0000
1000
0010
0100
0001
0010
0110
,  // measure 13
0000
0100
1000
0100
0010
0001
0100
0101
,  // measure 14
0000
0100
0010
0000
1000
1000
1000
0000
,  // measure 15
0001
0100
0000
0000
0001
0000
1000
0100
0000
0000
1000
0000
0001
1000
0001
0000
,  // measure 16
1001
0000
0010
0100
1000
1000
0100
1000
,  // measure 17
0000
0000
0001
0100
0001
0001
0100
0001
,  // measure 18
0000
0000
1000
0010
1000
1000
0010
1000
,  // measure 19
0001
0000
0010
0100
0000
1000
0000
0010
,  // measure 20
1010
0000
0001
0010
0100
0010
0001
0100
,  // measure 21
0010
0000
1000
0010
0100
0010
1000
1000
,  // measure 22
0010
0000
0010
0100
0001
0010
0100
1000
,  // measure 23
0000
1010
0000
0001
0000
0011
0000
0100
,  // measure 24
0020
0000
1000
1000
0000
0100
0000
0001
,  // measure 25
0000
1000
0000
0001
0000
1030
0000
0200
,  // measure 26
0000
0000
0010
0000
1000
1000
0000
0001
,  // measure 27
0000
1000
0000
0001
0000
0010
0300
0000
,  // measure 28
0012
0000
0103
0120
0000
1030
0000
2100
,  // measure 29
0000
0010
0000
0100
0000
0001
0000
3100
,  // measure 30
0000
0000
1000
0100
0010
0001
0000
0100
,  // measure 31
0020
0000
1000
0000
0130
0001
0010
0100
,  // measure 32
1000
0000
0101
0000
1000
0100
0010
0100
,  // measure 33
0100
0000
1100
0000
0001
0100
0010
0100
,  // measure 34
0002
0000
0013
0100
0000
1000
0000
1001
,  // measure 35
0000
0100
0000
0000
0010
1000
0100
1000
,  // measure 36
0010
0000
1001
0000
0100
0001
0010
0010
,  // measure 37
0001
0100
0010
0000
1000
0010
0100
0010
,  // measure 38
1000
0100
1000
0100
0010
0001
0010
0001
,  // measure 39
M100
0010
0000
0000
M100
0001
0000
0000
M010
0100
0000
0000
M010
0001
0000
0000
,  // measure 40
2100
0000
3010
0000
0100
0001
0010
0100
,  // measure 41
0100
0000
0011
0000
1000
1000
0100
1000
,  // measure 42
0020
0000
0130
0010
0000
1000
0000
1100
,  // measure 43
0000
0101
0000
0000
0001
0100
1000
0100
,  // measure 44
0001
0000
0110
0000
0100
0010
1000
0001
,  // measure 45
0001
0010
0100
0000
0010
0100
1000
1000
,  // measure 46
0001
0100
0001
0100
0010
1000
0010
1000
,  // measure 47
0001
0000
0100
0010
0000
0000
0010
1000
0000
0000
1000
0100
0000
0000
0010
0000
,  // measure 48
0110
0000
0010
0001
0100
0100
0010
1000
,  // measure 49
0000
0010
1000
0010
0100
0100
0001
0010
,  // measure 50
0000
0000
0100
0000
0010
0000
0001
0000
0001
0000
1000
0000
0010
0000
0100
0010
,  // measure 51
0000
0000
1000
0000
0001
0100
0000
0000
0010
0000
1000
0000
0100
0000
1000
0000
,  // measure 52
1001
0000
0100
0100
0010
1000
0100
0110
,  // measure 53
0000
0001
0010
0010
0001
0100
0010
1010
,  // measure 54
0000
0001
0001
0000
1000
1000
0100
0000
,  // measure 55
0010
0100
0000
0000
1000
0000
0001
0100
0000
0000
0001
0000
0010
0000
0100
0000
,  // measure 56
0110
0000
0000
0000
1000
0100
1000
0000
0001
0000
0010
0000
0100
0000
1000
0000
,  // measure 57
0000
0000
0001
0000
0100
0001
0100
0000
0010
0000
0010
0000
1000
0000
0001
0000
,  // measure 58
0000
0000
0100
0000
0010
1000
0010
0000
0100
0000
0010
0000
0100
0000
0001
1000
,  // measure 59
0000
0000
0100
0000
0100
0010
0000
0000
0001
0010
0001
0000
0010
0000
0100
0000
,  // measure 60
1100
0000
0000
0000
0001
0100
0001
0000
0010
0000
0100
0000
1000
0000
1001
0000
,  // measure 61
0000
0000
0100
0000
0010
0100
0010
0000
1000
0000
0001
0000
0100
0000
0110
0000
,  // measure 62
0000
1000
1000
0000
0001
0001
0001
0010
,  // measure 63
0100
1000
0000
0000
0001
0000
0001
0100
0000
0000
0010
0000
1000
0010
1000
0000
,  // measure 64
0001
0010
0100
1000
0000
1002
0000
0010
,  // measure 65
0000
0103
0000
0000
0000
0000
0000
0000
;
