#VERSION:0.83;
#TITLE:Hand in Hand (Gewalt Ist Doof);
#SUBTITLE:;
#ARTIST:Blümchen;
#TITLETRANSLIT:;
#SUBTITLETRANSLIT:;
#ARTISTTRANSLIT:;
#GENRE:;
#ORIGIN:;
#CREDIT:;
#BANNER:handinhandbn.png;
#BACKGROUND:handinhandbg.png;
#PREVIEWVID:;
#JACKET:;
#CDIMAGE:;
#DISCIMAGE:;
#LYRICSPATH:;
#CDTITLE:;
#MUSIC:handinhand.ogg;
#OFFSET:-0.742179;
#SAMPLESTART:91.509392;
#SAMPLELENGTH:11.439997;
#SELECTABLE:YES;
#BPMS:0.000=168.010;
#STOPS:;
#DELAYS:;
#WARPS:;
#TIMESIGNATURES:0.000=4=4;
#TICKCOUNTS:0.000=4;
#COMBOS:0.000=1;
#SPEEDS:0.000=1.000=0.000=0;
#SCROLLS:0.000=1.000;
#FAKES:;
#LABELS:0.000=Song Start;
#BGCHANGES:;
#KEYSOUNDS:;
#ATTACKS:
;

//---------------dance-single - C. Picardy----------------
#NOTEDATA:;
#CHARTNAME:;
#STEPSTYPE:dance-single;
#DESCRIPTION:C. Picardy;
#CHARTSTYLE:;
#DIFFICULTY:Beginner;
#METER:1;
#RADARVALUES:0.094780,0.136095,0.042530,0.008506,0.000000,78.000000,73.000000,5.000000,1.000000,0.000000,0.000000,0.000000,0.000000,0.000000,0.094780,0.136095,0.042530,0.008506,0.000000,78.000000,73.000000,5.000000,1.000000,0.000000,0.000000,0.000000,0.000000,0.000000;
#CREDIT:C. Picardy;
#NOTES:
0000
0000
0000
0000
,
0000
0000
0000
0000
,
0000
0000
0000
0000
,
0000
0000
0000
0000
,
0010
0000
0000
0000
,
0000
0000
0000
0000
,
0100
0000
0000
0000
,
0000
0000
0000
0000
,
0001
0000
0000
0000
,
1000
0000
0000
0000
,
0100
0000
0100
0000
,
0100
0000
0000
0000
,
0001
0000
0000
0000
,
0100
0000
0000
0000
,
0010
0000
0000
0000
,
1000
0000
0000
0000
,
1001
0000
0000
0000
,
0100
0000
0000
0000
,
0010
0000
0000
0000
,
0100
0000
0000
0000
,
0010
0000
0000
0000
,
1000
0000
1000
0000
,
1000
0000
0000
0000
,
0001
0000
0000
0000
,
1001
0000
0000
0000
,
1000
0000
0000
0000
,
0001
0000
0000
0000
,
1000
0000
0000
0000
,
0001
0000
0000
0000
,
0010
0000
0010
0000
,
0010
0000
0000
0000
,
0100
0000
0000
0000
,
1001
0000
0000
0000
,
0100
0000
0000
0000
,
0010
0000
0000
0000
,
1000
0000
0000
0000
,
0001
0000
0000
0000
,
0100
0000
0000
0000
,
0010
0000
0000
0000
,
1000
0000
0000
0000
,
0001
0000
0000
0000
,
1000
0000
0000
0000
,
0001
0000
0000
0000
,
0100
0000
0000
0000
,
0020
0000
0000
0000
,
0000
0000
0000
0000
,
0000
0000
0000
0000
,
0000
0000
0030
0000
,
1001
0000
0000
0000
,
0100
0000
0000
0000
,
0010
0000
0000
0000
,
1000
0000
0000
0000
,
0001
0000
0000
0000
,
0100
0000
0000
0000
,
0001
0000
0000
0000
,
1000
0000
0000
0000
,
0100
0000
0000
0000
,
0010
0000
0000
0000
,
0001
0000
0001
0000
,
0001
0000
0000
0000
,
1000
0000
0000
0000
,
0100
0000
0000
0000
,
0010
0000
0000
0000
,
0000
0000
0000
0000
,
1001
0000
0000
0000
,
0100
0000
0000
0000
,
0010
0000
0000
0000
,
0100
0000
0000
0000
,
0001
0000
0000
0000
,
1000
0000
1000
0000
,
1000
0000
0000
0000
,
0100
0000
0000
0000
,
0010
0000
0000
0000
,
0000
0000
0000
0000
,
0001
0000
0000
0000
,
0000
0000
0000
0000
,
1000
0000
0000
0000
,
0100
0000
0000
0000
,
0100
0000
0000
0000
,
0000
0000
0000
0000
,
0010
0000
0000
0000
;

//---------------dance-single - C. Picardy----------------
#NOTEDATA:;
#CHARTNAME:;
#STEPSTYPE:dance-single;
#DESCRIPTION:C. Picardy;
#CHARTSTYLE:;
#DIFFICULTY:Easy;
#METER:4;
#RADARVALUES:0.278266,0.344490,0.068047,0.034024,0.000000,229.000000,221.000000,8.000000,4.000000,0.000000,0.000000,0.000000,0.000000,0.000000,0.278266,0.344490,0.068047,0.034024,0.000000,229.000000,221.000000,8.000000,4.000000,0.000000,0.000000,0.000000,0.000000,0.000000;
#CREDIT:C. Picardy;
#NOTES:
0000
0000
0000
0000
,
0000
0000
0000
0000
,
0000
0000
0000
0000
,
0000
0000
0000
0000
,
0001
0000
0000
0000
,
0001
0000
0000
0000
,
1000
0000
1000
0000
,
1000
0000
0100
0100
,
0010
0000
0001
0000
,
0100
0000
0010
0010
,
1000
0000
0001
0000
,
0001
0000
1000
0100
,
1000
0000
0010
0100
,
0001
0000
0100
0000
,
0010
0000
0100
0000
,
0100
0000
0100
0100
,
0001
1000
0001
1000
,
0010
0100
0010
0100
,
0001
1000
0001
1000
,
0100
0010
0100
0010
,
0001
0010
0001
0010
,
0001
0100
0001
0100
,
0010
0000
1000
1000
,
0001
0000
1000
1000
,
0001
0100
0001
0100
,
0010
0100
0010
0100
,
0010
1000
0010
1000
,
0100
1000
0100
1000
,
0001
1000
0001
1000
,
0001
0010
0001
0010
,
0001
0000
1000
0000
,
1000
0000
0000
0000
,
0001
0000
0100
0100
,
0010
0000
1000
0000
,
0001
0000
0010
0010
,
0100
0000
1000
0000
,
0001
0100
0010
0010
,
1000
0000
0001
0000
,
1000
0100
1000
1000
,
0010
0000
0100
0001
,
2002
3003
0001
1000
,
0100
0100
0010
0001
,
0000
1000
0010
0100
,
0001
0001
1000
0100
,
2001
0000
0000
0000
,
0001
0000
0000
0000
,
0100
0000
0000
0000
,
0010
0000
3010
0000
,
0100
0001
0100
0010
,
1000
0000
0001
0001
,
1000
0000
0100
0000
,
1001
0000
0100
0010
,
1000
0000
0001
1000
,
0100
0000
0010
0001
,
1000
0000
0001
0000
,
0110
0000
0100
0100
,
0010
1000
0001
1000
,
0100
0000
0010
0010
,
0001
0000
1001
0000
,
1001
0000
0100
0010
,
1000
0000
0100
0010
,
0001
0000
1000
1000
,
0010
0000
0100
0000
,
0001
0000
0010
0100
,
1001
0010
0100
1000
,
0001
0010
0100
1000
,
0001
0100
0010
1000
,
0001
0100
0010
1000
,
0100
0010
0001
0100
,
0010
0000
1000
0001
,
1000
0000
0100
0010
,
1001
0000
1000
0001
,
0100
0000
0010
0000
,
0001
0000
1000
0010
,
1000
0000
0001
0000
,
0001
0000
0100
0010
,
0100
0000
0000
0010
,
1000
0000
0001
1000
,
0010
0000
0100
0000
,
0010
0000
1000
0000
,
0200
0000
0000
0000
,
0300
0000
0000
0000
;

//---------------dance-single - C. Picardy----------------
#NOTEDATA:;
#CHARTNAME:;
#STEPSTYPE:dance-single;
#DESCRIPTION:C. Picardy;
#CHARTSTYLE:;
#DIFFICULTY:Challenge;
#METER:10;
#RADARVALUES:0.776470,1.136818,0.348743,0.272190,0.370008,639.000000,598.000000,41.000000,32.000000,65.000000,0.000000,2.000000,0.000000,0.000000,0.776470,1.136818,0.348743,0.272190,0.370008,639.000000,598.000000,41.000000,32.000000,65.000000,0.000000,2.000000,0.000000,0.000000;
#CREDIT:C. Picardy;
#NOTES:
0000
0000
0000
0000
,
0000
0000
0000
0000
,
0000
0000
0000
0000
,
0000
0000
0000
0000
,
1000
0100
1000
0100
1000
0100
1000
0100
0010
0100
0010
0100
0010
0100
0010
0100
,
0010
0001
0010
0001
0010
0001
0010
0001
0100
0001
0100
0001
0100
0001
0100
0001
,
1000
0001
1000
0001
1000
0001
1000
0100
1000
0100
1000
0001
0010
0001
0010
0100
,
1000
0100
0010
0001
1000
0100
0010
0001
1000
0001
0010
0100
1000
0001
0010
0100
,
1000
0100
0001
0100
1000
0100
0001
0100
,
1000
0010
0100
0010
1000
0010
1000
1010
,
1MM1
M1M1
MM1M
11MM
,
M1M1
0000
MM11
0000
11MM
0000
MM11
0100
,
1001
0100
0010
1000
0100
1000
0010
1000
,
0100
0010
0001
0010
0100
0010
0001
0100
,
0101
0000
1000
0100
1100
0000
0001
0010
,
0011
0100
0020
1030
,
0001
0100
1000
0100
0001
0100
1000
0100
,
0010
0010
1000
1000
0100
1000
0010
1000
,
0100
0010
0001
0010
0100
0010
0001
0100
,
0010
0010
1000
1000
0001
0100
1000
0100
,
0001
0100
0010
0010
1000
0100
0010
0001
,
1000
1000
0010
0010
0100
0001
0010
0001
,
0100
0001
0010
0100
0200
0000
1300
1000
,
1M1M
M1MM
MM11
11MM
,
1000
0100
0001
0100
1000
0100
0001
0100
,
1000
1000
0010
0010
0100
0010
1000
0010
,
0100
0010
1000
0001
0001
0010
0100
1000
,
0001
0001
0100
0100
0001
0010
0100
1000
,
0001
0100
0010
0100
0001
0100
1000
0100
,
0010
0010
1000
0001
0010
0010
0100
0100
,
2000
0000
0000
0100
0100
0000
0010
3010
,
4MM0
0004
0000
0000
0000
0000
0000
0000
0MM0
0000
0000
0000
0000
0000
0000
0000
0MM0
0000
0000
0000
0000
0000
0000
0000
3MM3
0000
0000
0000
0000
0000
0000
0000
,
1000
0000
0100
0000
0010
0000
0100
0000
1000
0100
1000
0100
1000
0000
0010
0000
,
0000
0000
0100
0000
0001
0000
0100
0001
0100
0001
0100
0000
0010
0000
1000
0000
,
0000
0000
0001
0000
0010
0000
0100
1000
0100
1000
0100
0000
0010
0000
0001
0000
,
0000
0000
1000
0000
0010
0000
0100
0010
0100
0010
0100
0000
0001
0000
1000
0000
,
0000
0000
0100
0000
0010
0000
0001
0010
0001
0010
0100
0000
0010
0000
0001
0000
,
0000
0000
0100
0000
0010
0000
1000
0010
1000
0010
0100
0000
0001
0000
1000
0000
,
0000
0000
0100
0000
1000
0000
0010
0100
0010
0100
0001
0000
0100
0000
0010
0000
,
0000
0000
1000
0000
0001
0000
1000
0100
1000
0100
0010
0000
0100
0000
1000
0000
,
0000
0000
0001
0000
0010
0000
0001
0100
0001
1000
0001
0000
1000
0000
0100
0000
,
0000
0000
0010
0000
0100
0000
1000
0100
0010
0001
1000
0000
0100
0000
0010
0000
,
0000
0000
0001
0000
1000
0000
0010
0100
0001
1000
0010
0000
0100
0000
0010
0000
,
0000
0000
1000
0000
0001
0000
0010
0100
1000
0001
0100
0000
0010
0000
1000
0000
,
2002
0000
0000
0000
3003
0000
0000
0000
1000
0001
0100
0010
1000
0001
0010
0100
,
0010
0001
1000
0010
0100
0010
1000
0001
0100
0010
1000
0001
0100
0010
0100
0001
,
1000
0001
0100
0010
1000
0001
0100
0010
1000
0001
0010
0100
0010
0001
1000
0010
,
0100
0010
1000
0001
0010
0100
1000
0001
0200
0000
0000
0000
M3MM
0000
0000
0000
,
0001
0100
1000
0100
0001
0100
1000
0100
,
0010
0001
0010
1000
0100
0001
0100
1000
,
0010
0100
0001
0100
0120
0000
0130
0100
,
M1M1
0000
1M1M
0000
0001
0010
0100
1000
,
0001
0010
1000
0010
0001
0010
1000
0010
,
0001
0100
0010
0100
1000
0100
0001
0010
,
0100
0010
0001
0100
0102
0000
0013
0010
,
MM11
0000
11MM
0000
MMM1
0000
1000
0100
,
1001
0100
0010
0100
1000
0001
0100
0010
,
1000
0100
0010
0100
1000
0001
0100
0101
,
0110
1M1M
MMM1
11MM
,
MM11
0000
M1M1
0000
1MM1
0000
M01M
0100
,
1MM1
0100
0010
0001
0100
0010
0001
0010
,
1000
0100
0001
0100
1000
0010
0001
0010
,
1010
0000
0001
0010
0011
0000
1000
0100
,
1100
0010
0200
0301
,
1000
0001
0100
0010
1000
0001
0100
0010
,
1000
0100
1000
0000
0100
1000
0100
0000
0010
0000
0001
0000
0100
0000
0001
0000
,
0010
0100
0010
0001
0001
0100
0010
0010
,
1000
0010
1000
0000
0010
1000
0010
0000
0100
0000
0001
0000
1000
0000
0100
0000
,
0010
0100
1000
0001
0100
0010
1000
0001
,
0100
0001
0100
0000
0001
0100
0001
0000
1000
0000
0100
0000
0010
0000
0100
0000
,
1100
0000
0010
1000
1010
0000
0001
0010
,
0011
0000
0110
0000
0110
0100
1001
0100
,
0102
0000
0010
0003
2000
0000
3100
1000
,
0020
0000
0200
0030
0002
0300
0200
0003
,
2000
0300
0100
3001
0020
0000
0100
0130
,
2000
0000
0010
3000
0200
0000
0002
0300
,
0020
0003
1000
0000
0100
0030
0002
0000
,
0200
0003
0010
0300
0002
0000
0020
0003
,
0200
0030
0000
1300
0002
0000
0203
0020
,
0000
0000
0330
0100
0020
0000
2030
0002
,
0000
0000
0000
0000
,
3003
0000
0000
0000
;

//---------------dance-single - C. Picardy----------------
#NOTEDATA:;
#CHARTNAME:;
#STEPSTYPE:dance-single;
#DESCRIPTION:C. Picardy;
#CHARTSTYLE:;
#DIFFICULTY:Medium;
#METER:6;
#RADARVALUES:0.382767,0.516735,0.297708,0.136095,0.000000,315.000000,280.000000,35.000000,16.000000,0.000000,0.000000,0.000000,0.000000,0.000000,0.382767,0.516735,0.297708,0.136095,0.000000,315.000000,280.000000,35.000000,16.000000,0.000000,0.000000,0.000000,0.000000,0.000000;
#CREDIT:C. Picardy;
#NOTES:
0000
0000
0000
0000
,
0000
0000
0000
0000
,
0000
0000
0000
0000
,
0000
0000
0001
0001
,
0001
0000
0000
1000
,
0100
0000
0000
0000
0010
0000
0000
0010
,
0000
0000
0000
0000
0100
0000
0000
2002
,
0000
0000
0000
3003
,
1000
0000
0001
0000
0100
0000
0010
1000
,
0001
0010
0100
1000
,
2200
3300
0022
0033
,
0202
0303
0010
1100
,
1001
0100
0010
0001
,
0100
0010
1000
0001
,
2001
0000
0000
0001
0001
0000
0001
3001
,
0000
0000
1000
0010
,
0100
0000
0010
0000
1000
0000
0001
0100
,
0010
1000
0100
0100
,
0100
0010
0001
1000
,
0010
0100
0001
1000
,
1100
0000
0001
0100
,
1001
0000
0110
1001
,
0110
0000
0000
1000
1000
0000
0001
0001
,
0000
1000
0010
0100
,
1001
0000
0100
0000
0010
0000
1000
0001
,
0100
0010
1000
1000
,
1000
0000
0001
1000
0100
0000
0010
0001
,
1000
0010
0100
0100
,
0100
0001
1000
0100
,
0100
0010
0001
0100
,
1001
0000
0000
0100
0010
0000
0010
0200
,
0000
0000
0300
0000
,
0001
0000
0100
0000
0010
0000
1000
0001
,
0000
0100
0010
0010
,
0000
0000
1000
0000
0001
0000
0010
0100
,
0000
1000
0001
0001
,
0000
0000
0100
0000
0010
0000
1000
0001
,
0000
0010
0001
0001
,
0000
0000
1000
0000
0100
0000
1000
0010
,
0000
0100
0001
1000
,
0001
0000
0100
0000
0010
0000
1000
0001
,
0100
0000
0010
0000
1000
0000
0001
1000
,
0100
0000
0010
0000
0001
0000
1000
0010
,
0100
0001
1000
0100
,
2001
0000
0010
0000
,
0100
0000
0001
0000
,
0010
0010
0001
0001
,
0100
0001
3100
0000
,
0001
0100
0001
1000
,
0100
0000
1000
0000
0001
0000
0010
0001
,
0010
0000
0000
0100
1000
0000
0001
0010
,
0000
0001
1000
0100
,
0010
0100
1000
0010
,
0100
0000
0001
0000
1000
0000
0010
1000
,
0100
0000
0000
1000
0001
0000
0100
0010
,
0000
1000
0001
0100
,
1001
0010
0100
1000
,
0001
0100
0010
1000
,
0101
0010
1100
0010
,
0101
1000
1100
0101
,
1001
0100
0010
0100
,
1000
0001
0100
0010
,
0210
0000
0000
0010
0010
0000
0010
0310
,
0000
0000
1000
0001
,
0101
0001
0100
0010
,
1000
0100
0011
0100
,
1001
0000
0000
0100
0010
0000
1000
0001
,
1000
0100
0010
0100
,
0011
1000
0010
0100
,
1001
0000
0110
1001
,
0110
0000
0000
1000
0001
0000
0001
1000
,
0000
0100
0010
0100
,
1100
0000
0001
0100
,
0010
0000
1000
0001
,
0001
0000
0000
1000
0100
0000
0100
1000
,
0000
0000
0001
0100
,
0110
0000
0000
0001
,
1000
0000
0100
0010
,
0001
0000
0000
0000
0100
0000
0000
2002
,
0000
0000
3003
0000
0010
0000
0000
2002
,
0000
0000
0000
0000
,
3003
0000
0000
0000
;

//---------------dance-single - C. Picardy----------------
#NOTEDATA:;
#CHARTNAME:;
#STEPSTYPE:dance-single;
#DESCRIPTION:C. Picardy;
#CHARTSTYLE:;
#DIFFICULTY:Hard;
#METER:7;
#RADARVALUES:0.488484,0.551184,0.221154,0.136095,0.000000,402.000000,376.000000,26.000000,16.000000,0.000000,0.000000,0.000000,0.000000,0.000000,0.488484,0.551184,0.221154,0.136095,0.000000,402.000000,376.000000,26.000000,16.000000,0.000000,0.000000,0.000000,0.000000,0.000000;
#CREDIT:C. Picardy;
#NOTES:
0000
0000
0000
0000
,
0000
0000
0000
0000
,
0000
0000
0000
0000
,
0000
0000
0001
0010
,
0100
0000
0000
1000
,
0002
0000
0000
0000
0103
0000
0100
0200
,
0000
0000
0300
0001
1000
0000
0100
0010
,
0100
1000
0001
0100
,
0110
0100
0101
1000
,
0101
0000
1100
0000
0001
0000
0010
0100
,
1000
1010
0100
0011
,
0101
0000
1001
0000
1100
0000
0010
0100
,
0001
1000
0100
0010
,
0011
0000
1000
0000
0010
0000
0100
0010
,
2001
0000
0000
0001
0001
0000
0001
3001
,
0000
0000
0100
0010
,
0001
0100
0010
0100
0001
0100
0010
0100
,
0001
1000
0100
0010
,
0001
0010
0100
0010
0001
0010
0100
0010
,
0001
0100
0010
1000
,
0100
1000
0010
1000
0100
1000
0010
1000
,
0100
0010
0100
1000
,
0101
0000
0100
0010
0100
0000
0001
1000
,
0001
1000
0100
0010
,
0001
0100
1000
0100
0001
0100
1000
0100
,
0001
1000
0100
0010
,
0001
0010
1000
0010
0001
0010
1000
0010
,
0001
0100
0010
1000
,
0001
1000
0100
1000
0001
1000
0100
1000
,
0010
0100
0001
0001
,
2000
0000
0000
0010
0010
0000
0010
3010
,
0200
0000
0000
0300
,
0001
0100
0010
0000
1000
0000
0001
1000
,
0000
0100
0100
0010
0001
0010
0100
1000
,
0000
0001
1000
0000
0100
0000
0010
0010
,
0000
0001
0001
1000
0100
0010
0100
1000
,
0000
0001
0100
0000
0010
0000
1000
0001
,
0000
1000
1000
0001
0100
0010
0100
0001
,
0000
1000
1000
0100
0010
0010
0001
0000
,
2000
0000
0000
0000
0100
0000
0100
3100
,
0000
1000
0100
0010
0001
0010
0100
1000
,
0000
0010
0100
1000
0001
0010
0100
1000
,
0000
0001
0100
0010
1000
0010
0100
0001
,
0000
0100
0010
0100
0001
1000
0010
0100
,
0110
0000
0002
0000
,
2003
0000
3200
0000
,
0310
0010
0001
1000
,
0010
0100
0101
0000
,
1000
0000
0001
0000
0100
0000
0010
1000
,
0001
0000
0010
0000
0100
0000
0010
0001
,
0100
0000
0010
1000
1000
0000
0001
0100
,
0100
0000
0010
0000
1000
0000
0001
0010
,
0100
0000
1000
0000
0001
0000
0100
0010
,
1000
0000
0001
0000
1000
0000
0100
0010
,
0100
0000
0000
1000
0001
0000
0010
0001
,
1000
0000
0010
0000
0100
0001
0010
0100
,
1000
0010
0100
0001
,
1100
0000
0101
0000
0010
0000
1000
0100
,
0010
0011
1000
1100
,
0101
0000
1001
0000
1001
0000
0010
0100
,
1000
0001
0100
0010
,
0100
0000
0001
0000
1000
0000
0001
0100
,
0010
0000
0000
1000
0001
0000
0100
0010
,
0100
0001
1000
0010
,
0100
0010
1000
0010
0100
0010
1000
0010
,
0100
0001
0010
0100
,
1000
0100
0010
0100
1000
0100
0010
0100
,
1000
0001
0100
0010
,
0001
0100
0010
0100
0001
0100
0010
0100
,
0001
1000
0100
0010
,
0011
0000
1000
0010
1000
0000
0001
0000
,
0011
0101
1010
1100
,
0001
1000
0001
1000
,
0100
0010
0100
0100
,
0200
0000
0000
1000
1300
0000
0001
0002
,
0000
0000
0103
0010
,
2000
0000
0000
3001
,
0100
0000
0010
1000
,
0001
0000
0000
1000
0001
0000
0200
0002
,
0000
0000
0303
1000
0001
0000
0020
0002
,
0000
0000
0000
0000
,
0033
0000
0000
0000
;
