#TITLE:Halcyon and On and On;
#SUBTITLE:;
#ARTIST:Orbital;
#TITLETRANSLIT:;
#SUBTITLETRANSLIT:;
#ARTISTTRANSLIT:;
#GENRE:;
#CREDIT:;
#BANNER:halcyonbn.png;
#BACKGROUND:halcyonbg.png;
#LYRICSPATH:;
#CDTITLE:;
#MUSIC:halcyon.ogg;
#OFFSET:-0.007962;
#SAMPLESTART:75.576683;
#SAMPLELENGTH:15.159998;
#SELECTABLE:YES;
#BPMS:0.000000=126.989990
;
#STOPS:
;
#BGCHANGES:3.000=halcyon.mp4=1.000=1=0=0=StretchNoLoop==CrossFade==,
256.000=halcyonbg.png=1.000=1=0=1===CrossFade==,
99999=-nosongbg-=1.000=0=0=0 // don't automatically add -songbackground-
;
#KEYSOUNDS:;
#ATTACKS:;

//---------------dance-single - C. Picardy----------------
#NOTES:
     dance-single:
     :
     Beginner:
     1:
     0.089505,0.130528,0.072293,0.016065,0.000000,78.000000,69.000000,9.000000,2.000000,0.000000,0.000000,0.089505,0.130528,0.072293,0.016065,0.000000,78.000000,69.000000,9.000000,2.000000,0.000000,0.000000:
0000
0000
0000
0000
,
0000
0000
0000
0000
,
0000
0000
0000
0000
,
0000
0000
0000
0000
,
1000
0000
0000
0000
,
0000
0000
0000
0000
,
0001
0000
0000
0000
,
0000
0000
0000
0000
,
1001
0000
0000
0000
,
0100
0000
0000
0000
,
0010
0000
0000
0000
,
0100
0000
0000
0000
,
1001
0000
0000
0000
,
1000
0000
0000
0000
,
0001
0000
0000
0000
,
1000
0000
0000
0000
,
0110
0000
0000
0000
,
0100
0000
0000
0000
,
0010
0000
0000
0000
,
1000
0000
0000
0000
,
0110
0000
0000
0000
,
0001
0000
0000
0000
,
0010
0000
0000
0000
,
0100
0000
0000
0000
,
0010
0000
0000
0000
,
0001
0000
0000
0000
,
1000
0000
0000
0000
,
0100
0000
0000
0000
,
0010
0000
0000
0000
,
1000
0000
0000
0000
,
0001
0000
0000
0000
,
0100
0000
0000
0000
,
0010
0000
0010
0000
,
0010
0000
0000
0000
,
0100
0000
0100
0000
,
0100
0000
0000
0000
,
0001
0000
0001
0000
,
0001
0000
0000
0000
,
1000
0000
1000
0000
,
1000
0000
0000
0000
,
1001
0000
0000
0000
,
0100
0000
0000
0000
,
0010
0000
0000
0000
,
1000
0000
0000
0000
,
1001
0000
0000
0000
,
0001
0000
0000
0000
,
0010
0000
0000
0000
,
0100
0000
0000
0000
,
0110
0000
0000
0000
,
1000
0000
1000
0000
,
1000
0000
0000
0000
,
0001
0000
0000
0000
,
1001
0000
0000
0000
,
0100
0000
0100
0000
,
0100
0000
0000
0000
,
0010
0000
0000
0000
,
0100
0000
0010
0000
,
0010
0000
0000
0000
,
1000
0000
0001
0000
,
0001
0000
0000
0000
,
0100
0000
0010
0000
,
0010
0000
0000
0000
,
1000
0000
1000
0000
,
0001
0000
0000
0000
,
0220
0000
0000
0000
,
0330
0000
0000
0000
;

//---------------dance-single - C. Picardy----------------
#NOTES:
     dance-single:
     :
     Easy:
     3:
     0.209993,0.261057,0.088358,0.080325,0.000000,183.000000,172.000000,11.000000,10.000000,0.000000,0.000000,0.209993,0.261057,0.088358,0.080325,0.000000,183.000000,172.000000,11.000000,10.000000,0.000000,0.000000:
0000
0000
0000
0000
,
0000
0000
0000
0000
,
0000
0000
0000
0000
,
0000
0000
0000
0000
,
1000
0000
0000
0000
,
0001
0000
0000
0000
,
0100
0000
0000
0000
,
0010
0000
0000
0000
,
1000
1000
2002
0000
,
3003
0000
0100
0000
,
0010
0000
1000
1000
,
1000
0000
0001
0000
,
0010
0010
0220
0000
,
0330
0000
0100
0000
,
0001
0000
0010
0010
,
0010
0000
0100
0000
,
2001
0001
3001
0000
,
0100
0000
0010
0000
,
1000
0000
0001
1000
,
0001
0000
0100
0010
,
0210
0010
0310
0000
,
1000
0000
0001
0000
,
0010
0000
0100
1000
,
0100
0000
0010
0000
,
0001
0000
0100
0000
,
0010
0010
1000
0000
,
0001
0000
0010
0000
,
0100
0100
1000
0000
,
0001
0000
0100
0000
,
0010
1000
0001
0000
,
0010
0000
0100
0000
,
0010
0001
1000
0000
,
0001
0100
1000
0000
,
1000
0100
0001
0000
,
0001
0010
0100
0000
,
0100
0010
0001
0000
,
1000
0100
0001
0000
,
0001
0100
1000
0000
,
1000
0010
0001
0000
,
0001
0010
1000
0000
,
0101
0001
0001
0100
,
0010
0000
1000
0000
,
0001
0000
1000
1000
,
0001
0100
0020
0030
,
1010
1000
1000
0100
,
0010
0000
0001
0000
,
1000
0000
0001
0001
,
1000
0100
0020
0030
,
1001
0001
0100
0100
,
0010
0000
1000
0001
,
0100
0000
0010
0010
,
1000
0001
0010
0100
,
0110
0010
0010
0001
,
0100
0000
0010
1000
,
0100
0000
0010
0010
,
0001
1000
0010
0100
,
1001
1000
0001
1000
,
0100
1000
0100
1000
,
0010
0100
0010
0100
,
0001
0100
0001
0100
,
1001
0010
0100
0010
,
0100
0001
0010
0001
,
0010
0100
1000
0100
,
1000
0001
0100
0010
,
2002
0000
0000
0000
,
3003
0000
0000
0000
;

//---------------dance-single - C. Picardy----------------
#NOTES:
     dance-single:
     :
     Medium:
     6:
     0.320153,0.339374,0.168683,0.096390,0.048195,279.000000,258.000000,21.000000,12.000000,0.000000,0.000000,0.320153,0.339374,0.168683,0.096390,0.048195,279.000000,258.000000,21.000000,12.000000,0.000000,0.000000:
0000
0000
0000
0000
,
0000
0000
0000
0000
,
0000
0000
0000
0000
,
0000
0000
0000
0000
,
1000
0000
0000
1000
0000
0000
1000
0000
0000
0000
0000
0000
0001
0000
0000
0000
,
0100
0000
0000
0100
0000
0000
0100
0000
0000
0000
0000
0000
0000
0000
0000
0000
,
0010
0000
0000
0010
0000
0000
0010
0000
0000
0000
0000
0000
1000
0000
0000
0000
,
0001
0000
0000
0001
0000
0000
0001
0000
0000
0000
0000
0000
1000
0000
0000
0000
,
1001
1001
0100
0100
,
0010
0000
1000
0001
,
0200
0000
0310
1000
,
0100
0000
0010
0000
,
0110
0110
0100
1000
,
0001
0000
0100
0100
,
0020
0000
1030
0001
,
0100
0000
0010
1000
,
1001
0110
1000
0001
,
1000
0100
0010
0100
,
2000
0000
3001
0001
,
0100
0010
1000
0010
,
0110
1001
0100
0010
,
1000
0100
0010
0001
,
0200
0000
0310
0010
,
1000
0001
0100
0010
,
0001
0000
0000
0001
0000
0000
0001
0000
0000
0000
1000
0000
0100
0000
0000
0000
,
0010
0000
0000
0010
0000
0000
0010
0000
0000
0000
0001
0000
0100
0000
0000
0000
,
0010
0000
0000
0010
0000
0000
0010
0000
0000
0000
1000
0000
0010
0000
0000
0000
,
0100
0000
0000
0100
0000
0000
0100
0000
0000
0000
0001
0000
1000
0000
0000
0000
,
0100
0000
0000
1000
0000
0000
1000
0000
0000
0000
0001
0000
1000
0000
0000
0000
,
0010
0000
0000
0100
0000
0000
0100
0000
0000
0000
0001
0000
0010
0000
0000
0000
,
0001
0000
0000
0100
0000
0000
0100
0000
0000
0000
0010
0000
1000
0000
0000
0000
,
0100
0000
0000
0100
0000
0000
0010
0000
0000
0000
0001
0000
1000
0000
0000
0000
,
0010
0000
0100
0000
0001
0010
0001
0000
,
1000
0000
0100
0000
1000
0100
1000
0000
,
0010
0000
0100
0000
0010
1000
0010
0000
,
0100
0000
0001
0000
0010
0001
0010
0000
,
0100
0000
1000
0000
0001
0100
1000
0000
,
0100
0000
0001
0000
1000
0100
0001
0000
,
0100
0000
1000
0000
0001
0010
1000
0000
,
0001
0000
0100
0000
1000
0001
0100
0000
,
1010
0000
0101
0000
1000
0001
0100
0000
,
0010
1000
0100
0010
,
0002
0000
1003
0100
,
1000
0000
0010
0000
0100
0001
0010
0000
,
1100
0000
0011
0000
1000
0100
0010
0000
,
0001
1000
0010
0100
,
0020
0000
0130
0001
,
0010
0000
0100
0000
1000
0001
0010
0000
,
1010
0000
0011
0000
1000
0100
0001
0000
,
0100
0000
1000
0000
0010
0100
0010
0000
,
2000
0000
3010
0100
,
0001
0000
1000
0000
0100
0010
0001
0000
,
0101
0000
1100
0000
0010
0001
0100
0000
,
0010
0000
1000
0000
0100
0010
0100
0000
,
2000
0000
3010
0100
,
0001
0000
1000
0000
0001
0100
0010
0000
,
1001
0000
0110
0000
1000
1000
1000
0000
,
0001
0000
1000
0000
0100
0010
0001
0000
,
0200
0000
0000
0000
0310
0010
0010
0000
,
1000
0000
0001
0000
1000
0100
0010
0000
,
1100
0000
0101
0000
0100
0100
0100
0000
,
0010
0000
1000
0000
0001
0010
0100
0000
,
0020
0000
0000
0000
0031
0001
0001
0000
,
0100
0010
1000
0100
,
2002
0000
0000
0000
,
3003
0000
0000
0000
;

//---------------dance-single - C. Picardy----------------
#NOTES:
     dance-single:
     :
     Challenge:
     9:
     0.603586,0.600431,0.168683,0.393593,0.409658,526.000000,505.000000,21.000000,49.000000,10.000000,0.000000,0.603586,0.600431,0.168683,0.393593,0.409658,526.000000,505.000000,21.000000,49.000000,10.000000,0.000000:
0000
0000
0000
0000
,
0000
0000
0000
0000
,
0000
0000
0000
0000
,
0000
0000
0000
0000
,
2000
0000
0000
0010
0000
0000
0001
0000
0000
0000
0001
0000
0000
0000
3010
0000
,
0200
0000
0000
1000
0000
0000
0010
0000
0001
0000
0001
0000
0300
0000
1000
0000
,
0200
0000
0000
0010
0000
0000
1000
0000
0000
0000
1000
0000
0000
0000
0310
0000
,
0002
0000
0000
0100
0000
0000
0010
0000
0000
0000
1000
0000
0000
0000
0103
0000
,
0202
0000
0000
0303
2020
0000
0000
3030
0001
0000
0100
0000
1000
0000
0100
0000
,
0001
0010
0100
1000
0010
0010
0200
0000
,
0302
0000
0010
0000
0103
0010
1000
0100
,
0010
0000
0001
0000
1000
0000
0020
0000
0000
0000
1000
0000
2000
0000
0000
3030
,
2002
0000
0000
3003
0022
0000
0000
0033
1000
0000
0100
0000
0001
0000
0100
0000
,
1000
0010
0001
0010
1000
1000
0200
0000
,
0320
0000
1000
0000
0031
0010
0001
0100
,
0010
0000
1000
0000
0001
0000
0002
0000
0000
0000
0010
0000
0020
0000
0000
0033
,
0220
0000
0000
0330
2200
0000
0000
3300
1000
0000
0100
0000
1000
0000
0010
0000
,
1000
0000
0000
0001
0100
0000
0001
0000
0010
0000
0010
0000
0001
0000
1000
0000
,
0010
0000
0000
0100
0010
0000
0100
0000
0010
0000
1000
0000
0001
0000
0100
0000
,
0010
0000
0000
0100
0001
0000
0010
0000
0100
0000
1000
0000
0010
0000
0000
0000
,
0202
0000
0000
0303
2200
0000
0000
3300
1000
0000
0100
0000
0001
0000
0100
0000
,
1000
0000
0000
0010
0100
0000
0001
0000
0100
0000
1000
0000
0100
0000
0001
0000
,
0010
0000
0000
0100
0010
0000
0001
0000
0100
0000
1000
0000
0100
0000
0001
0000
,
1000
0000
0000
0100
0010
0000
0100
0000
1000
0000
0001
0000
0100
0000
0000
0000
,
0010
0000
0000
1000
0010
0000
1000
0010
1000
0000
0100
0000
0010
0000
0001
0000
,
1000
0000
0000
0100
1000
0000
0001
0100
0001
0000
0100
0000
0110
0000
0MM0
0000
,
1000
0000
0000
0001
1000
0000
0010
0100
0010
0000
1000
0000
0001
0000
0010
0000
,
0100
0000
0000
0010
0001
0000
1000
0100
1000
0000
0001
0000
1001
0000
M00M
0000
,
1000
0000
0001
0010
0001
0000
1000
0100
1000
0000
0001
0000
0100
0000
0010
1000
,
0010
0000
0100
0000
0001
0000
1000
0100
1000
0100
1000
0000
1001
0000
M00M
0000
,
0010
0000
0100
0010
0100
0000
0010
0001
0010
0000
0100
0000
1000
0000
0001
0100
,
0001
0000
1000
0000
0010
0000
0100
0001
0100
0001
0100
0000
0110
0000
1MM0
0001
,
0000
0000
0100
0000
0010
0000
1000
0010
1000
0000
0100
0000
0010
0000
0001
0010
,
0000
0000
0001
0000
0100
0000
0001
0100
0010
1000
0001
0000
1000
0000
0001
0100
,
0000
0000
0010
0000
1000
0000
0100
0010
0100
0000
1000
0000
0001
0000
0100
0010
,
0000
0000
1000
0000
0001
0000
1000
0010
1000
0010
1000
0000
1001
0000
0100
0010
,
0000
0000
1000
0000
0001
0000
0010
0100
1000
0000
0001
0000
0100
0000
0001
0010
,
0000
0000
0100
0000
1000
0000
0001
0010
0100
1000
0001
0000
0100
0000
0010
1000
,
0000
0000
0100
0000
0010
0000
0100
0010
0001
0000
1000
0000
0100
0000
1000
0010
,
0000
0000
0100
0000
0010
0000
1000
0100
0010
0001
1000
0000
1001
0000
0001
0100
,
0020
0000
0000
0000
1030
0000
0001
0100
0001
0000
1000
0000
0100
0000
1000
0000
,
0010
0000
0100
0010
0100
0000
0001
0100
0001
0100
0001
0000
2000
0000
0000
0000
,
0200
0000
3000
0000
0010
0000
0000
1300
0100
0000
0001
0000
0100
0000
1000
0000
,
0010
0000
0000
0001
0010
0000
1000
0000
0001
0100
0001
0000
1000
0000
0000
0000
,
0120
0000
0000
0000
1030
0000
0100
0010
0001
0000
1000
0000
0100
0000
0010
0100
,
1000
0000
0001
0000
0100
0000
0001
0010
0001
0010
0001
0000
2000
0000
0000
0000
,
0020
0000
3000
0000
0001
0000
0000
1030
0001
0000
0010
0000
1000
0000
0100
0000
,
0001
0000
1000
0000
0010
0000
0100
0010
0100
0010
0100
0000
0010
0000
0100
1000
,
0002
0000
0000
0103
2000
0000
0000
3100
0010
0000
0100
0000
0001
0000
1000
0100
,
0010
0000
0100
0000
1000
0000
0001
0100
0001
0100
0001
0000
2000
0000
0000
0000
,
3020
0000
0000
0000
0100
0000
0000
1030
0001
0000
0010
0000
0100
0000
0010
0001
,
0010
0000
0100
0000
1000
0000
0010
0100
0010
0100
0010
0000
2000
0000
0000
3001
,
0020
0000
0000
0130
0002
0000
0000
0103
0010
0000
0001
0000
0100
0000
0010
1000
,
0001
0000
0010
0000
0100
0000
1000
0100
1000
0100
1000
0000
0010
0000
0100
0001
,
2000
0000
0000
0000
3010
0000
0100
0010
0100
0000
0001
0000
1000
0000
0100
0010
,
0100
0000
1000
0000
0001
0000
0010
0100
0010
0100
1000
0000
0002
0000
0000
0003
,
2200
0000
0000
3300
0101
0000
0100
0010
0100
0000
0001
0000
0010
0000
0100
1000
,
0100
0000
0010
0000
0001
0000
1000
0010
1000
0010
1000
0000
0001
0000
0010
0001
,
0010
0000
0100
0000
1000
0000
0001
0010
0001
0000
1000
0000
0010
0000
1000
0100
,
1000
0000
0010
0000
0100
0000
0001
0010
0001
0010
0001
0000
1001
0000
M00M
0000
,
2002
0000
0000
3003
0110
0000
0100
0010
1000
0000
0001
0000
1000
0000
0100
0010
,
0001
0000
1000
0000
0100
0000
0010
0001
1000
0000
0010
0000
0100
0000
0001
0100
,
0010
0000
1000
0000
0100
0000
0010
0100
1000
0000
0001
0000
0100
0000
0001
0010
,
0100
0000
0010
0000
0001
0000
0100
0010
1000
0001
0100
0000
1010
0000
0001
1000
,
0200
0020
0000
0000
,
0330
0000
0000
0000
;

//---------------dance-single - C. Picardy----------------
#NOTES:
     dance-single:
     :
     Hard:
     7:
     0.456706,0.469902,0.088358,0.120488,0.160650,398.000000,387.000000,11.000000,15.000000,0.000000,0.000000,0.456706,0.469902,0.088358,0.120488,0.160650,398.000000,387.000000,11.000000,15.000000,0.000000,0.000000:
// measure 0
0000
0000
0000
0000
,  // measure 1
0000
0000
0000
0000
,  // measure 2
0000
0000
0000
0000
,  // measure 3
0000
0000
0000
0000
,  // measure 4
1000
0000
0000
1000
0000
0000
1000
0000
0000
0000
2000
0000
0000
0000
3001
0000
,  // measure 5
0001
0000
0000
0001
0000
0000
0001
0000
0001
0000
0001
0000
0000
0000
0100
0000
,  // measure 6
0100
0000
0000
0100
0000
0000
0100
0000
0000
0000
0200
0000
0000
0000
0310
0000
,  // measure 7
0010
0000
0000
0010
0000
0000
0010
0000
0000
0000
0020
0000
0000
0000
1030
0000
,  // measure 8
0001
0000
1100
0000
1000
0100
1000
0100
,  // measure 9
1000
0010
0100
0001
,  // measure 10
0020
0000
0000
0000
0031
0100
0001
0100
,  // measure 11
0010
0000
1000
0001
0000
0001
1000
0000
,  // measure 12
0010
0000
0101
0000
0001
0010
0001
0010
,  // measure 13
0001
1000
0001
0010
,  // measure 14
0200
0000
0000
0000
1300
0010
1000
0010
,  // measure 15
0100
0000
0001
0100
0000
0100
0010
0000
,  // measure 16
1010
0000
0101
0000
0001
0010
0100
1000
,  // measure 17
0010
0000
0100
0001
0010
0100
1000
0000
,  // measure 18
0020
0000
0100
0000
1030
0001
0100
0010
,  // measure 19
1000
0000
0001
0100
0000
0100
0010
0000
,  // measure 20
0101
0000
1100
0000
0010
0100
1000
0001
,  // measure 21
0100
0000
0010
1000
0100
0010
0001
0000
,  // measure 22
2000
0000
0010
0000
3100
0010
0001
0100
,  // measure 23
0010
0000
1000
0100
0000
0100
0010
0000
,  // measure 24
0001
0000
0000
0010
0001
0000
0010
0000
0100
0000
1000
0000
0010
0000
0000
0000
,  // measure 25
0100
0000
0000
0010
0100
0000
0001
0000
0100
0000
0010
0000
1000
0000
0000
0000
,  // measure 26
0001
0000
0000
1000
0100
0000
0010
0000
0100
0000
1000
0000
0010
0000
0000
0000
,  // measure 27
0100
0000
0000
0001
0010
0000
0100
0000
0010
0000
0001
0000
0100
0000
0000
0000
,  // measure 28
0001
0000
0000
0100
1000
0000
0100
0000
0001
0000
0010
0000
0100
0000
0000
0000
,  // measure 29
1000
0000
0000
0100
0001
0000
0100
0000
1000
0000
0010
0000
0001
0000
0000
0000
,  // measure 30
0010
0000
0000
1000
0001
0000
0100
0000
1000
0000
0100
0000
0001
0000
0000
0000
,  // measure 31
1000
0000
0000
0010
0001
0000
0010
0000
1000
0000
0100
0000
0010
0000
0000
0000
,  // measure 32
0001
0000
0010
0000
0001
0000
0010
0001
0010
0000
0100
0000
1000
0000
0000
0000
,  // measure 33
0001
0000
0100
0000
0001
0000
0100
0001
0100
0000
0010
0000
1000
0000
0000
0000
,  // measure 34
0001
0000
0100
0000
0010
0000
0100
0001
0100
0000
0001
0000
0010
0000
0000
0000
,  // measure 35
0100
0000
0010
0000
0001
0000
0010
0100
0010
0000
0001
0000
0100
0000
0000
0000
,  // measure 36
0010
0000
1000
0000
0100
0000
1000
0010
1000
0000
0001
0000
0100
0000
0000
0000
,  // measure 37
0001
0000
0010
0000
0100
0000
1000
0100
1000
0000
0100
0000
0010
0000
0000
0000
,  // measure 38
0010
0000
0001
0000
0100
0000
0001
0010
0001
0000
0100
0000
0010
0000
0000
0000
,  // measure 39
1000
0000
0001
0000
0100
0000
0001
1000
0001
0000
0100
0000
0010
0000
0000
0000
,  // measure 40
1010
0000
0011
0000
1000
0100
0010
0100
,  // measure 41
1000
0000
0010
0000
0100
0000
0010
1000
0010
0000
0100
0000
0001
0000
0000
0000
,  // measure 42
0020
0000
0100
0000
0031
0100
0010
1000
,  // measure 43
0010
0000
0100
0000
0001
0000
0100
0010
0100
0000
0010
0000
2000
0000
0000
3000
,  // measure 44
1100
0000
0110
0000
0100
0010
0001
0010
,  // measure 45
0100
0000
0010
0000
0001
0000
1000
0100
1000
0000
0010
0000
0100
0000
0000
0000
,  // measure 46
0002
0000
0010
0000
1003
0100
0010
0001
,  // measure 47
0010
0000
0100
0000
1000
0000
0010
0100
0010
0000
1000
0000
0002
0000
0000
0000
,  // measure 48
1003
0000
0000
0001
0000
0000
0100
0000
0000
0000
0010
0000
0000
0000
1000
0000
,  // measure 49
0001
0000
0000
0010
0000
0000
0100
0000
0010
0000
0010
0000
0001
0000
0100
0000
,  // measure 50
0010
0000
0000
1000
0000
0000
0010
0000
0000
0000
0100
0000
0000
0000
0001
0000
,  // measure 51
1000
0000
0000
0100
0000
0000
0010
0000
0000
0000
0001
0000
0002
0000
0000
0000
,  // measure 52
0103
0000
0000
0010
0000
0000
1000
0000
0000
0000
0100
0000
0000
0000
0010
0000
,  // measure 53
0001
0000
0000
0100
0000
0000
0010
0000
1000
0000
0100
0000
0100
0000
0010
0000
,  // measure 54
0001
0000
0000
0100
0000
0000
1000
0000
0000
0000
0100
0000
0000
0000
0010
0000
,  // measure 55
1000
0000
0000
0001
0000
0000
0100
0000
0010
0000
0010
0000
2000
0000
0000
0000
,  // measure 56
3001
0000
0001
0000
0100
0000
0000
0100
0010
0000
1000
0000
1000
0000
0000
0000
,  // measure 57
0001
0000
0001
0000
0010
0000
0000
0100
0010
0000
0001
0000
0001
0000
0000
0000
,  // measure 58
0100
0000
0100
0000
0010
0000
0000
1000
0001
0000
0001
0000
0001
0000
1000
0000
,  // measure 59
0100
0000
0100
0000
0100
0000
0000
1000
0100
0000
1000
0000
1000
0000
0000
0000
,  // measure 60
0010
0000
0010
0000
0100
0000
0000
0001
0100
0000
0100
0000
0010
0000
0000
0000
,  // measure 61
1000
0000
1000
0000
0001
0000
0000
1000
0100
0000
0100
0000
0100
0000
0000
0000
,  // measure 62
0010
0000
0010
0000
0001
0000
0000
0010
0100
0000
0100
0000
1000
0000
0001
0000
,  // measure 63
0100
0000
0100
0000
0100
0000
0000
0001
0010
0000
0010
0000
0001
0000
0000
0000
,  // measure 64
0202
0000
0000
0000
,  // measure 65
0303
0000
0000
0000
;
