#TITLE:Got to Get It;
#SUBTITLE:;
#ARTIST:Culture Beat;
#TITLETRANSLIT:;
#SUBTITLETRANSLIT:;
#ARTISTTRANSLIT:;
#GENRE:;
#CREDIT:;
#BANNER:gottogetitbn.png;
#BACKGROUND:gottogetitbg.png;
#LYRICSPATH:;
#CDTITLE:;
#MUSIC:gottogetit.ogg;
#OFFSET:-1.207416;
#SAMPLESTART:81.038040;
#SAMPLELENGTH:12.000000;
#SELECTABLE:YES;
#BPMS:0.000000=132.860001
;
#STOPS:
;
#BGCHANGES:16.000=4Kdarkorange.mp4=1.000=1=0=1=SongBgWithMovieViz==CrossFade==,
32.000=4Kdarkorange.mp4=1.000=1=0=1===CrossFade==,
47.000=yellow flash=1.600=0=0=1=====,
47.250=4Kdarkorange.mp4=1.000=0=0=1=====,
48.000=bluebars.mp4=1.000=0=0=0=StretchNoLoop==CrossFade_Fastest==,
78.250=gottogetit.mp4=1.000=0=0=0=StretchNoLoop==CrossFade_Fastest==,
240.000=gottogetitbg.png=1.000=1=0=1===CrossFade==,
99999=-nosongbg-=1.000=0=0=0 // don't automatically add -songbackground-
;
#KEYSOUNDS:;
#ATTACKS:;

//---------------dance-single - C. Picardy----------------
#NOTES:
     dance-single:
     :
     Beginner:
     1:
     0.081415,0.133709,0.035071,0.008768,0.000000,65.000000,61.000000,4.000000,1.000000,0.000000,0.000000,0.081415,0.133709,0.035071,0.008768,0.000000,65.000000,61.000000,4.000000,1.000000,0.000000,0.000000:
0000
0000
0000
0000
,
0000
0000
0000
0000
,
0000
0000
0000
0000
,
0000
0000
0000
0000
,
1000
0000
0000
0000
,
0001
0000
0000
0000
,
1000
0000
0000
0000
,
0001
0000
0000
0000
,
1001
0000
0000
0000
,
0100
0000
0000
0000
,
0010
0000
0000
0000
,
0100
0000
0000
0000
,
0110
0000
0100
0000
,
0100
0000
0000
0000
,
0010
0000
0010
0000
,
0010
0000
0000
0000
,
1000
0000
1000
0000
,
1000
0000
0000
0000
,
0001
0000
0001
0000
,
0001
0000
0000
0000
,
1000
0000
0000
0000
,
0001
0000
0000
0000
,
1000
0000
0000
0000
,
0001
0000
0000
0000
,
0100
0000
0000
0000
,
0010
0000
0000
0000
,
0100
0000
0000
0000
,
0010
0000
0000
0000
,
1000
0000
0000
0000
,
1000
0000
0000
0000
,
0001
0000
0000
0000
,
0001
0000
0000
0000
,
0100
0000
0000
0000
,
0100
0000
0000
0000
,
0010
0000
0000
0000
,
0010
0000
0000
0000
,
1001
0000
0000
0000
,
0100
0000
0000
0000
,
0010
0000
0000
0000
,
1000
0000
0000
0000
,
0001
0000
0000
0000
,
1000
0000
0000
0000
,
0100
0000
0000
0000
,
0010
0000
0000
0000
,
1001
0000
0000
0000
,
0001
0000
0000
0000
,
0001
0000
0000
0000
,
1000
0000
0000
0000
,
1000
0000
0000
0000
,
0100
0000
0000
0000
,
0100
0000
0000
0000
,
0010
0000
0000
0000
,
0010
0000
0000
0000
,
0100
0000
0000
0000
,
1000
0000
0000
0000
,
0001
0000
0000
0000
,
0100
0000
0000
0000
,
0010
0000
0000
0000
,
1000
0000
0000
0000
,
0001
0000
0000
0000
,
0200
0000
0000
0000
,
0300
0000
0000
0000
;

//---------------dance-single - C. Picardy----------------
#NOTES:
     dance-single:
     :
     Easy:
     3:
     0.241740,0.263033,0.113981,0.157820,0.000000,193.000000,180.000000,13.000000,18.000000,0.000000,0.000000,0.241740,0.263033,0.113981,0.157820,0.000000,193.000000,180.000000,13.000000,18.000000,0.000000,0.000000:
0000
0000
0000
0000
,
0000
0000
0000
0000
,
0000
0000
0000
0000
,
0000
0000
0000
0000
,
1000
0000
0001
0000
,
1000
0000
0001
0000
,
0010
0000
0100
0000
,
1000
0100
0100
0100
,
1001
0000
0100
0010
,
0100
0000
0001
0100
,
0010
0000
1000
0100
,
0020
0000
0000
0130
,
1001
1000
1000
1000
,
0001
0001
0001
0001
,
0100
0100
0100
0100
,
0010
0010
0010
0010
,
1000
0010
1000
1000
,
0001
0010
0001
0001
,
1000
0100
0010
0010
,
0002
0000
0000
0103
,
0110
0000
1000
0001
,
0001
0000
0100
0010
,
0010
0000
1000
0100
,
0100
0000
0010
1000
,
1000
0000
0001
0100
,
0110
0000
1000
0100
,
1001
0000
0010
0100
,
0110
0000
0001
0100
,
1001
1000
0001
0001
,
1000
0100
0010
0001
,
0001
1000
0010
0100
,
0100
0010
1000
0100
,
0100
1000
0100
1000
,
0010
0100
0010
0100
,
0001
0010
0001
0010
,
0200
0000
0300
1001
,
0210
0000
0320
0000
,
0230
0000
0320
0000
,
2030
0000
3200
0000
,
0320
0000
0032
0000
,
0203
0000
0010
0310
,
2000
0000
0100
3100
,
0020
0000
0001
0031
,
2000
0000
3000
0110
,
0000
0100
0100
1000
,
0010
0010
0100
0010
,
0000
1000
0001
0100
,
0001
0010
0001
0001
,
0000
1000
1000
0010
,
0010
1000
0100
0010
,
0000
1000
0100
1000
,
0001
0100
0010
0010
,
0000
0100
0100
0010
,
0010
0001
0100
0020
,
0000
1030
0001
0100
,
0001
1000
0100
2000
,
0000
3010
0100
0001
,
0010
0100
0010
0002
,
0000
1003
0010
0100
,
0001
0000
1001
0110
,
1001
0000
0000
0000
;

//---------------dance-single - C. Picardy----------------
#NOTES:
     dance-single:
     :
     Medium:
     6:
     0.355721,0.401126,0.219194,0.280569,0.061374,284.000000,259.000000,25.000000,32.000000,0.000000,0.000000,0.355721,0.401126,0.219194,0.280569,0.061374,284.000000,259.000000,25.000000,32.000000,0.000000,0.000000:
0000
0000
0000
0000
,
0000
0000
0000
0000
,
0000
0000
0000
0000
,
0000
0000
0000
0000
,
0000
0100
0000
0010
0000
0100
0000
0010
,
0000
0100
0000
1000
0000
0001
0000
1000
,
0000
1001
0000
1100
0000
0101
0000
1010
,
0000
0101
0000
0010
0100
0000
1001
0000
,
0010
0000
0100
0000
0010
0001
0010
0000
,
0100
0000
0010
0000
0100
0010
0100
0000
,
1000
0000
0100
0000
1000
0100
1000
0000
,
0020
1000
0130
0011
,
1000
0000
0000
0000
0100
0000
0000
0000
0010
0000
0000
0001
0000
0001
0000
0000
,
0100
0000
0000
0000
0010
0000
0000
0000
1000
0000
0000
0100
0000
0100
0000
0000
,
0010
0000
0000
0000
0100
0000
0000
0000
1000
0000
0000
0010
0000
0010
0000
0000
,
0100
0000
0000
0000
0001
0000
0000
0000
0010
0000
0000
1000
0000
1000
0000
0000
,
0100
0000
0000
0000
0011
0000
0000
0000
1000
0000
0000
0010
0000
0100
0000
0000
,
0001
0000
0000
0000
1100
0000
0000
0000
0010
0000
0000
0001
0000
0010
0000
0000
,
0001
0000
0000
0000
0110
0000
0000
0000
1000
0000
0000
0001
0000
0100
0000
0000
,
0002
0010
1003
1100
,
0001
0000
0100
0000
0010
0000
1000
0010
,
1000
0000
0100
0000
0010
0000
0001
0010
,
0001
0000
1000
0000
0010
0000
0100
0010
,
0100
0000
0001
0000
1000
0000
0100
0010
,
0100
0000
1000
0000
1000
0000
0001
0001
,
0001
0000
0100
0000
0010
0000
0100
0100
,
0100
0000
0001
0000
0100
0000
1000
1000
,
1000
0000
0100
0000
0001
0000
0010
0010
,
0010
0000
0100
0000
1000
0000
0001
0100
,
0010
0000
1000
0000
0001
0000
1000
0100
,
0010
0000
0100
0000
1000
0000
0010
0100
,
0001
0000
0010
0000
0100
0000
0010
0001
,
0100
0000
0010
0000
1000
0000
1000
0100
,
0001
0000
0100
0000
1000
0000
0001
0100
,
1000
0000
0100
0000
0001
0000
0001
0010
,
0200
0010
0301
1010
,
0002
0000
0200
0003
0020
0300
0200
0030
,
2000
0300
0200
3000
0002
0300
0013
0100
,
2000
0000
0200
3000
0002
0300
0200
0003
,
2000
0300
0020
3000
0200
0030
0301
0010
,
0200
0010
0001
1000
,
0320
0000
1000
0000
0001
0000
0130
0010
,
2000
0001
0010
0100
,
3002
1000
0103
0110
,
1001
0000
0100
0100
0100
0000
0010
0010
,
0010
0100
0010
2002
,
3003
0100
0110
1000
,
1001
0000
0100
0000
0001
0100
0010
0000
,
0000
0000
1000
1000
1000
0000
0001
0001
,
0001
1000
0100
0202
,
0303
1000
0110
0001
,
0110
0000
0100
0000
0010
1000
0100
0000
,
0000
0000
1000
0100
1000
0000
0001
0100
,
0001
1000
0010
0220
,
0330
0000
0100
0010
0100
0000
0001
1000
,
0001
1000
0001
0022
,
0033
0000
1000
0010
1000
0000
0001
0010
,
0001
1000
0100
2020
,
3030
0000
0001
0100
0010
0000
1000
0100
,
0010
0000
0110
0011
,
2000
0000
0000
0000
,
3000
0000
0000
0000
;

//---------------dance-single - C. Picardy----------------
#NOTES:
     dance-single:
     :
     Challenge:
     10:
     0.733988,0.781866,0.201659,0.210427,0.881162,586.000000,563.000000,23.000000,24.000000,0.000000,7.000000,0.733988,0.781866,0.201659,0.210427,0.881162,586.000000,563.000000,23.000000,24.000000,0.000000,7.000000:
// measure 0
0000
0000
0000
0000
,  // measure 1
0000
0000
0000
0000
,  // measure 2
0000
0000
0000
0000
,  // measure 3
0000
0000
0000
0000
,  // measure 4
0000
0000
1000
0100
0000
0000
0010
0100
0000
0000
0010
0001
0000
0000
0100
0001
,  // measure 5
0000
0000
0100
0010
0000
0000
1000
0001
0000
0000
0010
0100
0000
0000
0010
0001
,  // measure 6
0000
0000
1000
0100
0000
0000
0001
0100
0000
0000
1000
0010
0000
0000
0001
0010
,  // measure 7
0000
0000
0010
1000
0010
1000
0001
0100
0000
0100
0000
0010
1000
0001
0010
0100
,  // measure 8
1000
0000
0001
1000
0100
0000
0100
1000
0010
0000
0010
1000
0100
0000
0100
0010
,  // measure 9
0001
0000
0001
0100
0010
0000
0010
1000
0100
0010
0000
0000
1001
0000
0100
0010
,  // measure 10
1000
0000
0001
0010
0100
0000
1000
0100
0010
0000
0001
0100
0010
0000
1000
0010
,  // measure 11
0100
0000
0001
0010
0100
0000
1000
0100
0010
0001
0000
0000
1100
0000
0001
0100
,  // measure 12
0010
1000
0001
0100
0010
0100
0001
0010
0100
0000
1000
0010
0000
0010
0000
0100
,  // measure 13
0010
0100
0001
1000
0100
0010
0100
1000
0001
0000
0100
0010
0000
0010
0000
1000
,  // measure 14
0001
0100
0010
0100
0001
1000
0100
0010
0100
0000
1000
0001
0000
0001
0000
0100
,  // measure 15
0010
0100
0001
0010
0100
1000
0010
0100
0010
0000
0100
0001
0000
0001
0000
1000
,  // measure 16
0001
0100
1000
0100
0010
0100
0001
0010
0100
0000
1000
0100
0000
0010
0000
0001
,  // measure 17
1000
0100
0001
0100
0010
0100
1000
0100
0001
0000
0100
1000
0000
0010
0000
0100
,  // measure 18
0001
0010
1000
0010
0001
0100
0010
0100
1000
0000
0100
0001
0000
0010
0000
0100
,  // measure 19
1000
0001
0100
0010
0100
0001
1000
0100
0010
0100
1000
0001
0100
0000
0010
1000
,  // measure 20
0001
0000
1000
0000
0100
0000
0100
0000
1000
0100
1000
0000
0100
1000
0000
0020
,  // measure 21
0000
0000
0100
0000
0130
0000
0001
0010
0001
0000
0001
0010
0000
0001
0010
0000
,  // measure 22
0110
0000
0100
0000
1000
0000
0010
0100
0000
0001
0000
0001
0000
0101
0000
2100
,  // measure 23
0000
0000
0010
0000
3010
0000
0100
0000
0110
0000
1000
0001
0000
1000
0000
0100
,  // measure 24
0010
0100
1000
0000
0001
0100
0010
0000
1010
0000
0100
0001
0000
1000
0200
0000
,  // measure 25
0000
0000
1000
0000
0010
0000
1000
0000
1300
0000
0010
0100
0001
0010
0000
0110
,  // measure 26
0000
0000
1000
0001
1000
0000
0100
0010
0000
0010
0100
0000
1000
0000
0001
0100
,  // measure 27
0000
0000
0010
0100
0010
1000
0001
0010
0100
0000
1000
0010
1000
0100
0010
0000
,  // measure 28
1001
0000
0100
0000
0001
0100
0001
0000
0100
0001
0100
0000
0010
0000
0010
1000
,  // measure 29
0000
0000
0100
0000
1100
0000
0001
0000
0101
0000
1000
0100
0010
0000
0001
1000
,  // measure 30
0000
0000
0010
0000
1000
0010
0100
0010
1000
0000
0001
0010
0000
0010
0000
0110
,  // measure 31
0000
0000
1000
0001
0100
0010
1000
0100
0010
0000
0100
1000
0000
0010
0100
0000
,  // measure 32
1010
0000
0100
0000
0101
0000
0001
0000
0011
0000
0010
0100
0000
1100
0000
1100
,  // measure 33
0000
0000
0001
0100
0010
0100
0001
0010
0100
0000
1000
0001
0100
0010
1000
0000
,  // measure 34
0000
0000
0001
0000
0010
0100
0010
0000
0001
0000
1000
0100
0000
0100
0000
0011
,  // measure 35
0000
0000
0100
0010
0100
0001
1000
0000
0100
0000
0100
0010
0000
0010
0100
0000
,  // measure 36
1001
0000
0001
0100
1000
0000
1000
0100
0001
0000
0001
0100
1000
0000
1000
0100
,  // measure 37
0010
0000
0010
1000
0100
0000
0100
1000
0010
0000
0010
1000
0100
0000
0100
0010
,  // measure 38
0001
0000
0001
1000
0100
0000
0100
0010
0100
0000
0100
1000
0010
0000
0010
0100
,  // measure 39
0001
0000
0001
1000
0010
0000
0010
0100
0001
1000
0000
0000
0011
0000
1000
0001
,  // measure 40
0100
0000
0010
1000
0001
0000
1000
0001
0100
0000
0001
1000
0100
0000
0010
0001
,  // measure 41
1000
0000
0010
1000
0100
0000
0010
0001
1000
0000
0001
0100
0010
0000
1000
0100
,  // measure 42
0010
0000
0001
0010
0100
0000
1000
0010
0100
0000
0001
0100
0010
0000
1000
0100
,  // measure 43
0010
0000
0001
0010
0100
0000
0010
0001
0100
0000
0010
1000
0100
0000
0010
0100
,  // measure 44
2000
0000
3002
0100
0010
0010
2003
0010
,  // measure 45
0100
0000
0100
0000
3001
0000
0100
0000
0002
0100
0000
0000
2000
0000
0000
0000
,  // measure 46
0010
3003
2000
0000
0200
0000
0001
0000
,  // measure 47
0010
0000
0000
0000
0010
0000
3300
0100
1000
0000
0001
0000
1000
0000
0001
0100
,  // measure 48
0020
0000
0230
0010
0001
0301
0020
0100
,  // measure 49
1000
0000
1000
0000
0001
0000
0130
0000
0002
0010
0000
0000
0200
0000
0000
0000
,  // measure 50
1000
0303
0200
0000
0020
0000
1000
0000
,  // measure 51
1000
0000
0330
0000
0001
0000
1000
0000
0100
0000
0010
0000
0001
0000
0010
0100
,  // measure 52
0020
0000
0031
0100
0001
0001
1000
0100
,  // measure 53
1000
0000
1000
0000
0010
0000
0100
0010
0100
0001
0000
0000
0110
0000
0010
1000
,  // measure 54
0200
0000
0301
0100
1000
1000
0010
0001
,  // measure 55
0010
0000
0010
0000
1000
0000
0001
0100
0010
1000
0000
0000
0110
0000
0100
0010
,  // measure 56
0002
0000
0103
0010
0100
0100
1000
0100
,  // measure 57
0010
0000
0010
0000
1000
0000
0100
0010
0100
1000
0000
0000
1001
0000
0010
0100
,  // measure 58
0020
0000
0130
1000
0001
0001
0100
0010
,  // measure 59
1000
0000
1000
0000
0200
0000
0000
0000
0310
0001
0000
0100
0010
0000
1000
0001
,  // measure 60
0200
0020
0000
0000
,  // measure 61
0000
0000
0330
0000
;

//---------------dance-single - C. Picardy----------------
#NOTES:
     dance-single:
     :
     Hard:
     8:
     0.503521,0.510175,0.245498,0.131517,0.214811,402.000000,374.000000,28.000000,15.000000,0.000000,0.000000,0.503521,0.510175,0.245498,0.131517,0.214811,402.000000,374.000000,28.000000,15.000000,0.000000,0.000000:
0000
0000
0000
0000
,
0000
0000
0000
0000
,
0000
0000
0000
0000
,
0000
0000
0000
0000
,
0000
0000
1000
0100
0000
0000
1100
0000
0000
0000
0010
0100
0000
0000
0110
0000
,
0000
0000
0010
0001
0000
0000
0011
0000
0000
0000
0100
0001
0000
0000
0101
0000
,
0000
0000
1000
0001
0000
0000
1010
0000
0000
0000
0100
0010
0000
0000
0101
0000
,
0000
0000
1000
0000
0001
0000
0010
0100
0000
0010
0000
0100
1000
0000
0001
0000
,
0100
0100
0110
0000
0001
0010
0011
0000
,
1000
0000
1000
0000
1100
0000
0000
0001
0100
0000
0100
0000
0110
0000
0000
0000
,
1000
0010
0110
0000
0001
0010
0110
0000
,
0001
0000
0000
0100
0000
0000
0010
0000
0000
0100
0000
0000
1001
0000
0000
0000
,
0010
0000
0100
0000
1000
0000
0100
0000
0010
0000
0000
0001
0000
0001
0000
0000
,
0100
0000
0010
0000
1000
0000
0001
0000
0100
0000
0000
0010
0000
0010
0000
0000
,
1000
0000
0100
0000
0001
0000
0100
0000
1000
0000
0000
0100
0000
0010
0000
0000
,
0001
0000
0100
0000
1000
0000
0100
0000
0001
0000
0000
1000
0000
0010
0000
0000
,
1000
0000
0100
0000
0010
0000
0100
0000
1000
0000
0100
1000
0000
0100
0000
0100
,
0010
0000
0001
0000
0010
0000
0001
0000
0100
0000
0010
1000
0000
1000
0000
0000
,
0001
0000
0100
0000
0010
0000
0100
0000
0001
0000
0010
0100
0000
0010
0000
0100
,
1000
0100
0010
0001
0100
0000
1001
0000
,
0100
0000
0010
0000
0100
0000
0000
0001
0100
0000
0010
0000
0100
0000
0000
0000
,
0010
0000
0010
0000
1000
0000
0000
0100
0010
0000
0010
0000
0011
0000
0000
0000
,
1000
0000
0010
0000
1000
0000
0000
0100
1000
0000
0010
0000
1000
0000
0000
0000
,
0001
0000
0001
0000
0010
0000
0000
0001
0100
0000
0010
0000
1010
0000
0000
0000
,
0001
0000
0100
0000
1000
0000
0000
1000
0100
0000
0001
0000
0001
0000
0000
0010
,
0100
0000
0100
0000
1000
0000
0000
0010
0100
0000
0001
0000
1001
0000
0000
0000
,
1000
0000
0100
0000
0001
0000
0000
0001
0100
0000
1000
0000
0001
0000
0000
0010
,
0100
0000
0010
0000
0001
0000
0000
1000
0010
0000
0100
0000
1001
0000
0000
0000
,
0001
0000
0100
0000
0010
0000
0100
0000
0001
0000
0100
0000
0010
0000
0000
0010
,
0000
0000
1000
0000
0010
0000
0100
0000
0010
0000
1000
0000
0100
0000
0000
0100
,
0000
0000
0010
0000
0001
0000
0100
0000
0001
0000
0010
0000
0001
0000
0000
0001
,
0000
0000
1000
0000
0100
0000
1000
0000
0010
0000
0000
0100
0000
0000
1001
0000
,
0000
0000
0001
0000
0001
0000
0100
0000
0010
0000
0000
1000
0000
1000
0000
1000
,
0000
0000
0100
0000
0010
0000
0100
0000
1000
0000
0000
0001
0000
0000
0101
0000
,
0000
0000
0010
0000
0010
0000
1000
0000
0001
0000
0000
0100
0000
0100
0000
0100
,
0000
0010
1000
0100
0010
0000
1001
0000
,
0001
0100
0001
0100
1000
0100
1000
0100
,
0010
0100
0010
0100
0001
0010
0001
0010
,
0100
1000
0100
1000
0100
0001
0100
0001
,
0100
0010
0100
0010
0001
0100
0010
0000
,
1000
0010
0100
0010
1000
0010
0100
0001
,
1000
0001
0100
0001
0010
0001
1000
0001
,
0100
0010
0001
0010
0100
0010
0001
0010
,
2000
0010
3100
0011
,
0101
0000
1000
0100
1000
1000
0001
0100
,
0001
0001
0010
0100
2000
0000
0010
0000
,
3001
0200
0010
0301
,
0020
0000
1000
0000
0130
0100
0010
0000
,
1010
0000
0001
0100
0010
0010
1000
0100
,
0010
0010
0001
0100
0020
0000
0100
0000
,
1030
0000
0002
0000
0020
0003
0200
0030
,
2000
0300
0020
3000
0001
0000
1030
0000
,
0101
0000
1000
0100
0001
0001
0100
1000
,
0010
0010
0100
0010
0200
0000
1000
0000
,
0301
0000
0001
0100
1000
1000
0100
0001
,
0010
0010
0100
0010
0200
0000
0001
0000
,
1300
0000
0010
0001
0010
0010
0100
1000
,
0100
0100
1000
0010
0200
0000
1000
0000
,
0310
0000
0001
0100
0010
0010
1000
0001
,
1000
1000
0000
0000
1100
0000
0011
0000
,
0202
0000
0000
0000
,
0000
0303
0000
0000
;
