#TITLE:Gimme Gimme Gimme;
#SUBTITLE:(A Man after Midnight);
#ARTIST:ABBA feat. Nightcore;
#TITLETRANSLIT:;
#SUBTITLETRANSLIT:;
#ARTISTTRANSLIT:;
#GENRE:;
#CREDIT:;
#BANNER:gimmegimmegimmebn.png;
#BACKGROUND:gimmegimmegimmebg.png;
#LYRICSPATH:;
#CDTITLE:;
#MUSIC:gimmegimmegimme.ogg;
#OFFSET:0.008000;
#SAMPLESTART:50.918339;
#SAMPLELENGTH:12.000000;
#SELECTABLE:YES;
#DISPLAYBPM:163.000000;
#BPMS:0.000000=162.520004
,204.000000=162.559998
;
#STOPS:32.000000=0.738000
;
#BGCHANGES:8.000=hypnoticcolorfultunnel.mp4=1.000=1=0=1=SongBgWithMovieViz==CrossFade==,
24.000=flash=1.600=0=0=1====#FF00FF=,
24.250=hypnoticcolorfultunnel.mp4=1.000=0=0=1=SongBgWithMovieViz====,
26.000=flash=1.600=0=0=1====#FF00FF=,
26.250=hypnoticcolorfultunnel.mp4=1.000=0=0=1=SongBgWithMovieViz====,
28.000=flash=1.600=0=0=1====#FF00FF=,
28.250=hypnoticcolorfultunnel.mp4=1.000=0=0=1=SongBgWithMovieViz====,
30.000=flash=1.600=0=0=1====#FF00FF=,
30.250=hypnoticcolorfultunnel.mp4=1.000=0=0=1=SongBgWithMovieViz====,
32.000=gimmegimmegimmebg.png=1.000=0=0=1===CrossFade_Faster==,
36.000=flash=1.600=0=0=1=====,
36.250=hypnoticcolorfultunnel.mp4=1.000=0=1=1=StretchRewind====,
72.000=flash=1.600=0=0=1=====,
72.250=gimmegimmegimmebg.png=1.000=0=0=1=====,
76.000=60FPS Smart .mp4=1.000=0=1=1=StretchRewind==CrossFade_Faster==,
112.000=hypnoticcolorfultunnel.mp4=1.000=0=0=1===SlideLeft==,
134.000=flash=1.600=0=0=1=====,
134.250=gimmegimmegimmebg.png=1.000=0=0=1=====,
136.000=orangestartunnel.mp4=1.000=0=1=1=StretchRewind==SlideRight==,
168.000=flash=1.600=0=0=1=====,
168.250=hypnoticcolorfultunnel.mp4=1.000=0=0=1=====,
184.000=60FPS Smart .mp4=1.000=0=0=1===CrossFade_Faster==,
204.000=orangestartunnel.mp4=1.000=0=0=1===SlideUp==,
236.000=flash=1.600=0=0=1=====,
236.250=hypnoticcolorfultunnel.mp4=1.000=0=0=1=SongBgWithMovieViz====,
252.000=60FPS Smart .mp4=1.000=0=0=1=SongBgWithMovieViz====,
266.000=flash=1.600=0=0=1=====,
266.250=gimmegimmegimmebg.png=1.000=0=0=1=====,
99999=-nosongbg-=1.000=0=0=0 // don't automatically add -songbackground-
;
#KEYSOUNDS:;
#ATTACKS:;

//---------------dance-single - C. Picardy----------------
#NOTES:
     dance-single:
     :
     Beginner:
     1:
     0.103096,0.190522,0.048112,0.019245,0.000000,75.000000,70.000000,5.000000,2.000000,0.000000,0.000000,0.103096,0.190522,0.048112,0.019245,0.000000,75.000000,70.000000,5.000000,2.000000,0.000000,0.000000:
0000
0000
0000
0000
,
0000
0000
0000
0000
,
0000
0000
0000
0000
,
0000
0000
0000
0000
,
2000
0000
0000
0000
,
3000
0000
0000
0000
,
0001
0000
0001
0000
,
0001
0000
0001
0000
,
0001
0000
0000
0000
,
0100
0000
0000
0000
,
0010
0000
0000
0000
,
0100
0000
0000
0000
,
0010
0000
0000
0000
,
1000
0000
0000
0000
,
0001
0000
0000
0000
,
1000
0000
0000
0000
,
0001
0000
0000
0000
,
1000
0000
0000
0000
,
1001
0000
0000
0000
,
0100
0000
0000
0000
,
0010
0000
0000
0000
,
0010
0000
0000
0000
,
0100
0000
0000
0000
,
0001
0000
0000
0000
,
1000
0000
0000
0000
,
1000
0000
0000
0000
,
0001
0000
0000
0000
,
0001
0000
0000
0000
,
1001
0000
0000
0000
,
0100
0000
0000
0000
,
0010
0000
0000
0000
,
1000
0000
0000
0000
,
0001
0000
0000
0000
,
1000
0000
0000
0000
,
1001
0000
1000
0000
,
1000
0000
1000
0000
,
1000
0000
0000
0000
,
0010
0000
0000
0000
,
0001
0000
0001
0000
,
0001
0000
0001
0000
,
0001
0000
0000
0000
,
0000
0000
0000
0000
,
1001
0000
0000
0000
,
0100
0000
0000
0000
,
0010
0000
0000
0000
,
1000
0000
0000
0000
,
0001
0000
0000
0000
,
1000
0000
0000
0000
,
0001
0000
0000
0000
,
0200
0000
0000
0000
,
0000
0000
0300
0000
,
1001
0000
1000
0000
,
1000
0000
1000
0000
,
1000
0000
0000
0000
,
0100
0000
0000
0000
,
0001
0000
0001
0000
,
0001
0000
0001
0000
,
0001
0000
0000
0000
,
1000
0000
0000
0000
,
0010
0000
0000
0000
,
0100
0000
0000
0000
,
0010
0000
0000
0000
,
1000
0000
0000
0000
,
0001
0000
0000
0000
,
0100
0000
0000
0000
,
0010
0000
0000
0000
,
1000
0000
0000
0000
;

//---------------dance-single - C. Picardy----------------
#NOTES:
     dance-single:
     :
     Easy:
     3:
     0.290044,0.383931,0.240558,0.461872,0.000000,211.000000,186.000000,25.000000,48.000000,0.000000,0.000000,0.290044,0.383931,0.240558,0.461872,0.000000,211.000000,186.000000,25.000000,48.000000,0.000000,0.000000:
0000
0000
0000
0000
,
0000
0000
0000
0000
,
0000
0000
0000
0000
,
0000
0000
0000
0000
,
2000
0000
0000
3000
,
0002
0000
0000
0003
,
1000
0000
0001
0000
,
1001
1001
2002
0000
,
3003
0000
0000
0000
,
1000
0001
1000
0000
,
0010
0100
0010
0000
,
1000
0100
1000
0000
,
0001
0100
0010
0000
,
1000
0100
0010
0000
,
0001
0010
0100
0000
,
1000
0010
0100
0000
,
0001
0100
0010
1000
,
0010
0100
0010
0100
,
0220
0000
0330
0000
,
1000
0000
0001
0000
,
0100
0010
0100
0000
,
0001
1000
0100
0100
,
0020
0000
0031
1000
,
0010
0010
0020
0030
,
1000
0000
0010
0000
,
0100
0001
1000
0000
,
0100
0010
0001
1000
,
0001
0001
1000
1000
,
0101
0000
0010
0000
,
0100
0000
1000
0001
,
0100
0000
0010
0000
,
1000
0001
1000
0001
,
0010
0100
0010
0100
,
1100
0101
1001
0000
,
0010
0010
0010
0010
,
1000
0001
0100
0001
,
2000
0000
3002
0000
,
0103
0010
1001
0000
,
0100
0100
0100
0100
,
1000
0001
0100
0001
,
0020
0000
0230
0000
,
1300
0001
0010
0100
,
2002
3003
0010
0100
,
1000
0220
0330
1000
,
2002
3003
0100
0010
,
2002
3003
0010
0100
,
0220
0330
1000
0001
,
0100
2020
3030
0100
,
0202
0303
0010
0100
,
2002
0000
0000
3003
,
0001
1000
0001
1000
,
0001
0001
0001
0001
,
1000
0010
1000
0100
,
0020
0000
0032
0000
,
1003
1000
2002
3003
,
1000
1000
1000
1000
,
0001
0100
0010
1000
,
0200
0000
0320
0000
,
0031
0010
0100
1000
,
0001
0001
1000
1000
,
0010
0100
0010
1000
,
0220
0330
2002
3003
,
2200
3300
0202
0303
,
0010
0010
0100
0100
,
1000
0001
0100
0010
,
2020
3030
0022
0033
,
2002
0000
3003
0000
;

//---------------dance-single - C. Picardy----------------
#NOTES:
     dance-single:
     :
     Medium:
     5:
     0.426131,0.447919,0.346404,0.298292,0.000000,310.000000,274.000000,36.000000,31.000000,0.000000,0.000000,0.426131,0.447919,0.346404,0.298292,0.000000,310.000000,274.000000,36.000000,31.000000,0.000000,0.000000:
0000
0000
0000
0000
,
0000
0000
0000
0000
,
0000
0000
0000
0000
,
0000
0000
0000
0000
,
0002
0000
0203
0000
,
0320
0000
2030
0000
,
3001
0000
1100
0000
,
0101
0000
1100
0000
0010
1000
0100
0000
,
2002
3003
0000
0010
,
2000
0010
3100
0010
,
0100
0010
0100
0000
1000
0000
0010
0100
,
0020
0000
1000
0000
0130
0000
1000
0010
,
0200
0000
0001
0000
0310
0000
0001
0010
,
0200
0010
1300
0001
,
1000
0010
1000
0000
0100
0000
0010
0001
,
0002
0000
1000
0000
0103
0000
0010
0100
,
2000
0010
0001
3100
,
0101
1100
0110
0000
,
2001
0001
0002
3003
,
0100
0000
0010
0000
0100
0000
0010
1000
,
0100
0000
0010
0000
0100
0000
1000
0100
,
0010
0000
0001
0100
0010
0000
1000
0010
,
0100
0100
0001
1000
,
1010
0011
2002
3003
,
0001
0000
0100
0000
0010
0000
1000
0010
,
0100
0000
0001
0010
0100
0000
1000
0001
,
0100
0000
0010
1000
0001
0000
0010
0100
,
1000
1000
0101
1100
,
1001
0010
0100
1000
,
0001
0000
0100
0000
0001
0000
1000
0100
,
1000
0010
0100
0001
,
0020
0100
0001
0130
,
1100
0001
0101
1010
,
0100
0010
0100
0000
2002
0000
3003
0000
,
1000
0100
1000
0100
1000
0000
0001
0000
,
0100
0000
0010
0000
1000
0000
0100
0010
,
0100
1000
0010
0100
,
0001
0010
0100
1000
,
0001
0100
0001
0100
0001
0000
1000
0000
,
0010
0000
1000
0000
0001
0000
0010
0100
,
0010
0001
0100
0010
,
1010
0101
2002
3003
,
2000
0001
3010
0100
,
0010
0001
0020
0000
0100
0000
0031
0100
,
0020
0000
1000
0000
0130
0000
0010
1000
,
0020
1000
0130
0001
,
0020
0001
0130
0001
,
1000
0010
0200
0000
0301
0000
1000
0010
,
0200
0000
0001
0000
0310
0000
1000
0100
,
0020
0001
0100
0100
,
0001
0130
0011
1100
,
0101
0101
0101
1000
,
0100
0000
1000
0000
0010
0000
0100
0010
,
0100
0001
0010
0100
,
1000
0010
0100
0001
,
1100
1100
1100
0010
,
0001
0000
1000
0000
0100
0000
0010
0100
,
0010
0001
0100
0010
,
0100
0000
0001
0000
0010
0100
0010
0000
,
0011
0011
0011
1000
,
0010
0000
0100
0000
0001
0100
0020
0000
,
1000
1000
0100
0100
,
1000
0100
1000
0130
,
1010
1010
1010
0100
,
0010
0000
0001
0000
0010
0100
2000
0000
,
0001
0010
0100
0100
,
0001
3100
1001
0000
;

//---------------dance-single - C. Picardy----------------
#NOTES:
     dance-single:
     :
     Hard:
     8:
     0.589711,0.607890,0.327159,0.221313,0.197258,429.000000,395.000000,34.000000,23.000000,6.000000,0.000000,0.589711,0.607890,0.327159,0.221313,0.197258,429.000000,395.000000,34.000000,23.000000,6.000000,0.000000:
0000
0000
0000
0000
,
0000
0000
0000
0000
,
0000
0000
0000
0000
,
0000
0000
0000
0000
,
0001
0100
1000
0000
1000
0100
0001
0000
,
1000
0100
0001
0000
0001
0100
1000
0000
,
0011
0000
1010
0000
,
0011
0000
1100
0000
0100
0010
0001
1000
,
2002
0000
0000
0000
3003
0000
1000
0100
,
0020
0000
0001
0000
0130
0000
0001
0100
,
0010
0000
1000
0010
2000
0000
0000
0000
0001
0000
0000
0000
3010
0000
0100
0010
,
0200
0000
0000
0000
0001
0000
0000
0000
0310
0000
0000
0000
1000
0000
0100
1000
,
0200
0000
0000
0000
0010
0000
0000
0000
1300
0000
0000
0000
0010
0000
0100
0001
,
0200
0000
0010
0000
0301
0000
1000
0100
,
0010
0000
0001
0010
0002
0000
0000
0000
0100
0000
0000
0000
0013
0000
0010
0100
,
2000
0000
0000
0000
0001
0000
0000
0000
3010
0000
0000
0000
0100
0000
0001
1000
,
0200
0010
1000
0310
,
0001
0010
0100
1000
0001
0100
0010
1000
,
2200
0000
3300
MMMM
,
0011
0000
0000
0000
1000
0000
0000
1000
0100
0000
0000
0000
0010
0000
0100
0000
,
1000
0000
0100
0000
0010
0000
0000
0001
0010
0000
0000
0000
0001
0000
0100
0000
,
0010
0100
0001
0010
0100
0000
1000
0020
,
0100
0100
1000
0130
,
1010
1100
0012
0103
,
1001
0000
0000
0000
1000
0000
0000
0001
0100
0000
0010
0000
0100
0000
0001
0000
,
1000
0000
0000
0000
0100
0000
0000
0010
0100
0000
1000
0000
0100
0000
0010
0000
,
0001
0000
0000
0010
0100
0000
1000
0000
0001
0000
0000
0100
0010
0000
1000
0000
,
0001
0001
1100
0011
,
1000
0000
0100
0000
0010
0000
0100
0000
1000
0000
0000
0010
0000
0000
0200
0000
,
0000
0000
0001
0000
0301
0000
0100
0000
0010
0000
0000
0010
0000
0000
1000
0000
,
0010
0000
1000
0000
0100
0000
0010
0000
0001
0000
0000
0001
0000
0000
0012
0000
,
0010
1000
0010
0103
,
1010
0101
0011
1100
,
0001
0010
0100
1000
2002
0000
3003
M00M
,
1000
0100
1000
0100
0010
0001
0010
0002
,
0000
0013
0100
1000
0000
0001
0100
0010
,
0000
0000
0010
0000
0100
0000
0000
0001
0010
0000
0100
0000
0010
0000
0001
0000
,
1000
1000
0010
1000
0000
0001
0101
0000
,
0001
0010
0001
0010
0100
1000
0100
2000
,
0000
3001
0100
0010
0000
1000
0001
0100
,
0000
0000
0100
0000
0010
0000
0000
0010
1000
0000
0100
0000
0010
0000
0100
0000
,
1000
0000
0100
0000
0010
0000
0010
0000
0000
0000
0100
0010
0100
0000
0000
0010
,
0001
0000
0000
0001
0100
0000
0000
0100
0010
0000
0000
0010
1000
0000
0100
0000
,
0010
0000
0100
0000
1000
0000
0000
1000
0001
0000
0000
0001
0010
0000
0100
0000
,
1000
0000
0000
1000
0001
0000
0000
0001
0100
0000
0000
0100
0010
0000
1000
0000
,
0001
0000
0000
0001
0010
0000
0000
0010
0100
0000
0000
0100
1000
0000
0100
0000
,
0010
0000
0000
0010
0001
0000
0000
0001
0100
0000
0000
0100
1000
0000
0100
0000
,
0001
0000
0010
0000
0100
0000
0000
0100
0010
0000
0000
0010
0100
0000
1000
0000
,
0010
0000
0000
0010
0001
0000
0000
0001
0010
0000
0000
0010
1000
0000
0100
0000
,
0020
0001
1000
0031
,
1100
0000
0000
0000
1001
0000
0000
0000
0101
0000
0000
0000
1000
0100
1000
0100
,
1000
0100
1000
0100
0010
0001
0010
0001
,
0100
0001
0100
0001
0100
0010
0100
0010
,
1000
0010
0100
0010
1000
0010
0100
0001
,
0010
0100
1000
0001
0000
0101
0101
0000
,
0001
0100
0001
0100
0010
1000
0010
1000
,
0100
1000
0100
1000
0100
0010
0100
0010
,
0001
0010
0100
0010
0001
0010
0100
1000
,
0100
0010
0001
0100
0000
0110
0110
0000
,
1000
0010
1000
0010
0100
0001
0100
0001
,
0010
0100
1000
0100
0010
0001
0200
0000
,
0010
0010
0001
0310
,
1010
0101
0011
1100
,
1000
0100
1000
0100
0010
0001
0010
0001
,
0100
0010
0100
0001
0100
0001
0020
0000
,
0100
0100
0001
0130
,
1100
0101
1001
0000
;

//---------------dance-single - C. Picardy----------------
#NOTES:
     dance-single:
     :
     Challenge:
     10:
     0.813774,0.909310,0.558095,0.384893,0.538850,592.000000,534.000000,58.000000,40.000000,27.000000,11.000000,0.813774,0.909310,0.558095,0.384893,0.538850,592.000000,534.000000,58.000000,40.000000,27.000000,11.000000:
// measure 0
0000
0000
0000
0000
,  // measure 1
0000
0000
0000
0000
,  // measure 2
0000
0000
0000
0000
,  // measure 3
0000
0000
0000
0000
0000
0000
0000
0000
0000
0000
1000
0100
1000
0100
1000
0100
,  // measure 4
1000
0000
0100
0000
0010
0000
0000
0001
0010
0000
0100
0000
1000
0000
0000
0010
,  // measure 5
0100
0000
0001
0000
1000
0000
0000
0100
0010
0000
0001
0000
1000
0000
0010
0000
,  // measure 6
0110
1000
1100
0010
,  // measure 7
0101
0000
0010
0000
1010
0000
1001
0000
0001
0010
0001
0010
0100
1000
0100
2000
,  // measure 8
0002
3003
M00M
0000
0MM0
0000
M00M
0000
0000
0000
1000
0001
0100
0000
0010
1000
,  // measure 9
0001
0000
0100
0001
0100
0000
0001
0100
0001
0000
0100
0010
1000
0000
0001
0010
,  // measure 10
0100
1000
0100
0010
0001
0000
0010
0001
0010
0000
0001
0010
0100
0000
1000
0010
,  // measure 11
0100
0000
0010
0100
0010
0000
0100
0010
0100
0000
0010
0100
0001
0000
0010
0100
,  // measure 12
1000
0000
0100
1000
0100
0000
1000
0100
1000
0000
0100
0010
0001
0000
0010
0100
,  // measure 13
1000
0000
0001
1000
0001
0000
1000
0001
1000
0000
0001
0100
0010
0000
1000
0001
,  // measure 14
0100
0010
1000
0100
0010
0000
0001
0010
0001
0000
0010
0100
1000
0000
0010
0100
,  // measure 15
0001
0000
1000
0010
1000
0000
0010
1000
0010
0000
1000
0100
0010
0000
0001
0100
,  // measure 16
0010
0000
1000
0010
1000
0000
0001
0010
0001
0000
1000
0100
1000
0000
0001
0100
,  // measure 17
0001
0000
0101
0000
1000
0000
1100
0000
0001
0000
0011
0000
1000
0100
0010
0100
,  // measure 18
2000
0000
0200
0000
0001
0000
0000
3300
,  // measure 19
0011
0000
0000
0000
1000
0000
0000
1000
0100
0000
0010
0000
0001
0000
0010
0000
,  // measure 20
0200
0000
0000
0000
1300
0000
1000
0020
0000
0000
0000
0000
1030
0000
0100
0000
,  // measure 21
0010
0000
0100
0000
1000
0000
0001
0100
0000
0000
0010
0000
1000
0000
0100
0000
,  // measure 22
0020
0001
1000
0031
,  // measure 23
1100
0000
0011
0000
0202
0000
1000
0303
,  // measure 24
0101
0000
0000
0000
0100
0000
0100
0010
0000
1000
0000
0000
0001
0000
0001
0000
,  // measure 25
0011
0000
0010
0000
0100
0000
1000
0002
0000
0000
0000
0000
1003
0000
1000
0000
,  // measure 26
1100
0000
0100
0000
0010
0000
0001
0010
0000
0000
0100
0000
0100
0000
1000
0000
,  // measure 27
0002
0000
0000
0003
1001
0000
0000
0000
1000
0100
1000
0100
0010
0001
0010
0001
,  // measure 28
0100
0000
0010
0000
0100
0000
0001
0000
0010
0000
0000
1100
0000
0000
0102
0000
,  // measure 29
0000
0000
1000
0000
1000
0000
0100
0000
1000
0000
0000
0100
0000
0000
1003
0000
,  // measure 30
1010
0000
1000
0000
0100
0000
0010
0000
0011
0000
0000
0101
0000
0000
2200
0000
,  // measure 31
0000
0000
0001
0000
0010
0000
0001
3300
,  // measure 32
1000
0100
0010
0000
0001
0010
0100
0000
1000
0001
0100
0000
0010
1000
0100
0000
,  // measure 33
0011
1000
1100
0101
2002
0000
3003
M00M
,  // measure 34
1100
M100
1100
1M00
1100
M100
1M00
0020
,  // measure 35
0000
0130
0001
0020
0000
0100
0100
0130
,  // measure 36
1100
0000
0001
0000
0010
0000
0001
2000
0000
0000
0010
0000
0010
0000
3010
0000
,  // measure 37
0110
0000
1000
0000
0001
0000
0100
0000
0000
0000
0010
1000
0100
0000
0010
0000
,  // measure 38
0011
00M1
0011
001M
0011
00M1
0100
0020
,  // measure 39
0000
1030
0100
0020
0000
0001
0001
0031
,  // measure 40
1001
0000
0100
0000
0010
0000
1000
0001
0000
0000
1000
0000
0010
0000
0100
0000
,  // measure 41
0001
0000
1000
0000
0100
0000
0200
0000
0000
0000
0310
0100
1000
0000
0001
0010
,  // measure 42
0100
0000
1000
0100
1000
0000
0100
1000
0100
0000
0010
0001
1000
0000
0001
0100
,  // measure 43
0010
1000
0010
0100
0001
0000
0100
0001
0100
0000
0010
0100
0001
0000
0100
0010
,  // measure 44
1000
0000
0010
1000
0010
0000
1000
0010
1000
0000
0100
0010
0001
0000
1000
0010
,  // measure 45
0100
0000
0001
0100
0001
0000
0100
0001
0100
0000
0001
0100
0010
0000
1000
0100
,  // measure 46
0010
0000
0001
0010
0001
0000
0010
0001
0010
0000
0001
0010
0100
0000
1000
0100
,  // measure 47
0010
0001
0010
0100
1000
0000
0001
1000
0001
0000
1000
0001
0100
0000
0010
1000
,  // measure 48
0100
0000
0010
0100
0010
0000
0100
0010
0100
0000
0010
0001
0100
0000
0010
1000
,  // measure 49
0100
0000
1000
0001
0100
0000
0010
0100
0001
0000
0010
0100
1000
0000
0001
0100
,  // measure 50
0010
0000
0110
0000
1000
0000
1001
0000
1100
0000
0101
0000
1000
0100
1000
0100
,  // measure 51
1000
11M0
0001
M101
1000
1M10
0001
0200
,  // measure 52
0000
0310
1000
0200
0000
0310
0110
0010
,  // measure 53
0001
0000
0010
0000
0100
0000
1000
0001
0000
0000
0100
0000
0100
0000
0010
0000
,  // measure 54
0110
0000
0010
0000
1000
0000
0001
0000
0000
0000
1000
0010
1000
0000
0001
0000
,  // measure 55
0010
0M11
1000
11M0
0001
M101
1000
0200
,  // measure 56
0000
0310
0100
2000
0000
3001
1001
0001
,  // measure 57
0100
0000
0010
0000
0100
0000
0001
1000
0000
0000
0100
0000
0010
0000
0001
0000
,  // measure 58
1001
0000
1000
0000
0100
0000
0010
0000
0100
0000
1000
0000
0001
0100
0001
0100
,  // measure 59
0001
0100
0010
0001
0010
0100
0010
1000
,  // measure 60
0100
0001
0100
0010
1000
0010
0100
1000
,  // measure 61
2200
0000
0010
3300
0202
0000
0010
0303
,  // measure 62
2200
0000
0001
3300
2002
0000
0010
3003
,  // measure 63
1000
0100
0010
1000
0010
0100
0010
0001
,  // measure 64
0100
1000
0100
0001
0010
1000
0010
0001
,  // measure 65
0202
0000
1000
0303
0220
0000
1000
0330
,  // measure 66
M1M1
MM11
22MM
0000
,  // measure 67
0000
0000
3300
0000
;
