#TITLE:Gargoyle;
#SUBTITLE:;
#ARTIST:Sanxion7;
#TITLETRANSLIT:;
#SUBTITLETRANSLIT:;
#ARTISTTRANSLIT:;
#GENRE:;
#CREDIT:;
#BANNER:gargoylebn.png;
#BACKGROUND:gargoylebg.png;
#LYRICSPATH:;
#CDTITLE:;
#MUSIC:Gargoyle.ogg;
#OFFSET:0.003541;
#SAMPLESTART:59.179138;
#SAMPLELENGTH:12.000000;
#SELECTABLE:YES;
#BPMS:0.000000=150.000000
;
#STOPS:
;
#BGCHANGES:8.000=rainbowshining.mp4=1.000=1=0=1=SongBgWithMovieViz==CrossFade==,
16.000=flash=1.600=0=0=1=====,
16.250=rainbowshining.mp4=1.400=0=1=1=StretchRewind====,
80.000=flash=1.600=0=0=1=====,
80.250=cavetunnel.mp4=1.000=0=0=0=StretchNoLoop====,
144.000=cavetunnel.mp4=1.000=1=0=1=SongBgWithMovieViz==CrossFade==,
146.000=gargoylebg.png=1.000=0=0=1===CrossFade_Fastest==,
148.000=flash=1.600=0=0=1=====,
148.250=Shinytunnel.mp4=1.000=0=0=0=StretchNoLoop====,
212.000=flash=1.600=0=0=1=====,
212.250=Shinytunnel.mp4=1.000=0=0=1=====,
244.000=flash=1.600=0=0=1=====,
244.250=Shinytunnel.mp4=1.000=0=0=1=====,
276.000=flash=1.600=0=0=1=====,
276.250=rainbowshining.mp4=1.000=0=0=1=SongBgWithMovieViz====,
279.250=flash=1.800=0=0=1=====,
279.500=gargoylebg.png=1.000=0=0=1=====,
99999=-nosongbg-=1.000=0=0=0 // don't automatically add -songbackground-
;
#KEYSOUNDS:;
#ATTACKS:;

//---------------dance-single - C. Picardy----------------
#NOTES:
     dance-single:
     :
     Beginner:
     1:
     0.105391,0.146276,0.042399,0.000000,0.000000,87.000000,82.000000,5.000000,0.000000,0.000000,0.000000,0.105391,0.146276,0.042399,0.000000,0.000000,87.000000,82.000000,5.000000,0.000000,0.000000,0.000000:
0000
0000
0000
0000
,
0000
0000
0000
0000
,
0000
0000
0000
0000
,
0000
0000
0000
0000
,
0010
0000
0000
0000
,
0010
0000
0000
0000
,
0100
0000
0000
0000
,
0100
0000
0000
0000
,
0001
0000
0000
0000
,
0001
0000
0000
0000
,
1000
0000
0000
0000
,
1000
0000
0000
0000
,
0100
0000
0000
0000
,
0010
0000
0000
0000
,
0100
0000
0000
0000
,
0010
0000
0000
0000
,
0001
0000
0000
0000
,
1000
0000
0000
0000
,
0001
0000
0000
0000
,
1000
0000
0000
0000
,
1001
0000
1000
0000
,
1000
0000
0000
0000
,
0001
0000
0001
0000
,
0001
0000
0000
0000
,
0100
0000
0100
0000
,
0100
0000
0000
0000
,
0010
0000
0010
0000
,
0010
0000
0000
0000
,
0001
0000
1000
0000
,
0001
0000
0000
0000
,
0100
0000
0010
0000
,
0100
0000
0000
0000
,
1000
0000
0001
0000
,
1000
0000
0000
0000
,
0010
0000
0100
0000
,
0010
0000
0000
0000
,
0100
0000
0000
0000
,
1001
0000
0000
0000
,
0100
0000
0000
0000
,
0010
0000
0000
0000
,
0100
0000
0000
0000
,
0010
0000
0000
0000
,
1000
0000
0000
0000
,
0001
0000
0000
0000
,
1000
0000
0000
0000
,
0110
0000
0000
0000
,
0010
0000
0000
0000
,
0100
0000
0000
0000
,
0010
0000
0000
0000
,
1000
0000
0000
0000
,
0001
0000
0000
0000
,
0100
0000
0000
0000
,
0010
0000
0000
0000
,
1001
0000
0000
0000
,
0100
0000
0100
0000
,
0100
0000
0000
0000
,
0010
0000
0010
0000
,
0010
0000
0000
0000
,
1000
0000
1000
0000
,
1000
0000
0000
0000
,
0001
0000
0001
0000
,
0001
0000
0000
0000
,
0100
0000
0010
0000
,
0100
0000
0000
0000
,
0001
0000
1000
0000
,
0001
0000
0000
0000
,
0010
0000
0100
0000
,
0010
0000
0000
0000
,
1000
0000
0001
0000
,
1001
0000
0000
0000
;

//---------------dance-single - C. Picardy----------------
#NOTES:
     dance-single:
     :
     Easy:
     4:
     0.290734,0.295731,0.084798,0.033919,0.000000,240.000000,230.000000,10.000000,4.000000,0.000000,0.000000,0.290734,0.295731,0.084798,0.033919,0.000000,240.000000,230.000000,10.000000,4.000000,0.000000,0.000000:
0000
0000
0000
0000
,
0000
0000
0000
0000
,
1000
0000
0001
0000
,
0100
0000
0000
0000
,
1001
0100
0010
0000
,
1000
0001
0100
0000
,
0010
1000
0001
0000
,
0010
0100
1000
0000
,
0001
0100
1000
0000
,
1000
0100
0001
0000
,
0010
0100
1000
0000
,
0010
0100
0001
0000
,
1100
0001
0100
0000
,
0010
1000
0100
0000
,
0010
0001
0100
0000
,
0001
1000
0010
0000
,
0100
0010
1000
0000
,
0100
0010
0001
0000
,
1000
0010
0100
0000
,
0001
1000
0100
0000
,
1001
0100
0010
1000
,
0001
0000
0010
0000
,
0100
0010
0001
0010
,
0100
0000
1000
0000
,
0010
0100
0001
0100
,
0010
0000
1000
0000
,
0100
1000
0010
1000
,
0100
0000
0010
0000
,
1001
0100
0010
1000
,
0001
0010
0100
0000
,
1000
0100
1000
0100
,
0010
0001
1000
0000
,
0001
0100
1000
0100
,
0001
0100
0010
0000
,
1000
0100
0010
0001
,
0010
0100
1000
0000
,
2002
0000
0000
3003
,
0110
0100
0010
0100
,
0010
1000
0010
1000
,
0001
1000
0001
1000
,
0100
1000
0100
1000
,
0100
0010
0100
0010
,
0001
0010
0001
0010
,
0100
1000
0001
0010
,
0100
0000
1000
0010
,
1001
0100
0010
1000
,
0100
0010
0001
1000
,
0010
0100
0001
0010
,
0100
0010
0001
0100
,
0010
1000
0100
0010
,
0100
1000
0010
0100
,
0001
0010
0100
1000
,
0010
0000
0001
1000
,
0110
1000
0100
0001
,
0100
1000
0010
0001
,
0010
1000
0100
0001
,
0100
1000
0010
0001
,
0010
1000
0001
0100
,
1000
0100
0001
0010
,
1000
0010
0001
0100
,
0010
0000
0010
0100
,
1001
0010
0100
1000
,
0010
0100
0010
1000
,
0001
0100
0010
1000
,
0100
1000
0010
0100
,
0001
0010
0001
1000
,
0001
0010
0001
0100
,
0010
1000
0100
0010
,
0001
0100
0010
1000
,
2002
0000
0000
3003
;

//---------------dance-single - C. Picardy----------------
#NOTES:
     dance-single:
     :
     Medium:
     6:
     0.397337,0.414766,0.186555,0.008480,0.000000,328.000000,306.000000,22.000000,1.000000,0.000000,0.000000,0.397337,0.414766,0.186555,0.008480,0.000000,328.000000,306.000000,22.000000,1.000000,0.000000,0.000000:
0000
0000
0000
0000
,
0000
0000
0000
0000
,
1000
0001
0100
0010
,
0000
0000
0100
0100
,
1001
0000
0010
0000
1000
0100
1000
0000
,
0010
0100
0001
1000
,
0100
1000
0010
0100
,
0001
0000
1000
0000
0100
0000
0010
0001
,
0010
0100
1000
0010
,
0100
0001
1000
0010
,
1000
0100
0010
0100
,
1000
0000
0010
0000
0100
0000
0010
1000
,
0010
1000
0100
0010
,
0100
0000
1000
0000
0001
0000
0100
0001
,
0100
0010
1000
0001
,
0010
0000
0100
0000
1000
0000
0001
0010
,
0001
0000
0100
0000
0010
0000
1000
0001
,
1000
0000
0100
0000
0010
0000
0001
0100
,
0001
0000
1000
0000
0100
0000
1000
0010
,
1000
0000
0000
0001
0100
0000
0100
0000
,
1001
0000
1000
0000
0100
0000
0010
0100
,
1000
0001
0100
0010
,
1000
0000
0001
0000
0100
0000
0001
0010
,
0100
0010
0001
1000
,
0010
0000
1000
0000
0100
0000
0010
0001
,
0100
0010
1000
0100
,
0010
0000
0001
0000
1000
0000
0010
0100
,
0001
1000
0100
0010
,
0001
0100
0010
0000
1000
0000
1010
0000
,
0100
0001
1000
0100
,
0010
0100
1000
0000
0001
0000
0101
0000
,
1000
0100
1000
0010
,
0100
0001
1000
0000
0100
0000
0110
0000
,
0010
0001
0100
0000
0010
0000
0110
0000
,
1000
0001
0100
0000
0010
0000
1001
0000
,
0010
0100
1000
0000
0001
0000
0100
0000
,
1001
0000
0000
0100
0010
0000
0100
0000
,
1001
0100
0010
1000
,
0001
0000
0100
0000
0010
0000
1000
0100
,
0001
0100
1000
0010
,
0100
0000
0001
0000
0010
0000
0001
0100
,
1000
0100
0010
0010
,
1000
0001
0010
0010
,
0100
1000
0001
0010
,
0100
0000
1000
0000
0001
0010
0100
1000
,
0010
0000
0100
0000
0001
0010
0001
0000
,
0100
0000
0010
0000
1000
0000
0100
1000
,
0100
0000
0010
0000
0001
0000
1000
0010
,
1000
0000
0100
0000
0010
0000
0001
0010
,
0001
0100
0010
0010
,
1000
0001
0100
0100
,
0010
1000
0001
0100
,
0010
0000
0000
0000
1000
0100
0010
0001
,
0100
0110
1000
0001
,
1000
0000
0100
0000
0010
0000
0001
0100
,
0010
1001
0001
0100
,
0010
0000
1000
0000
0100
0000
0010
0100
,
1000
0110
0001
1000
,
0100
0000
0010
0000
0001
0000
1000
0100
,
0010
0011
0100
0010
,
1001
0000
0000
0000
0010
0100
0010
0100
,
0010
0000
1001
0000
0100
0010
1000
0000
,
0001
0000
0110
0000
1000
0010
0100
0000
,
0001
0000
1100
0000
0010
0100
1000
0000
,
0001
0000
0110
0000
1000
0001
0100
0000
,
0010
0000
1001
0000
1000
0010
0100
0000
,
0001
0000
1100
0000
0001
0100
0010
0000
,
1000
0000
0011
0000
1000
0010
0100
0000
,
1001
0000
0000
0000
0001
0010
0100
1000
,
0002
0000
0000
0000
0000
0000
0000
0003
;

//---------------dance-single - C. Picardy----------------
#NOTES:
     dance-single:
     :
     Challenge:
     12:
     1.019993,0.990435,0.186555,0.093277,1.377959,842.000000,820.000000,22.000000,11.000000,8.000000,1.000000,1.019993,0.990435,0.186555,0.093277,1.377959,842.000000,820.000000,22.000000,11.000000,8.000000,1.000000:
// measure 0
0000
0000
0000
0000
,  // measure 1
0000
0000
0000
0000
,  // measure 2
1000
0100
0001
0010
,  // measure 3
MMMM
0000
0000
0000
0000
0000
0000
0000
0000
0000
0000
0000
0000
0000
0000
0000
0000
0000
0100
0000
0010
0000
0100
0000
0010
0000
0000
0000
0000
0000
0100
0000
0000
0010
0000
0000
0000
0000
0000
0010
0000
0000
0100
0000
0000
0000
0000
0000
,  // measure 4
1001
0000
0001
0010
0100
0000
1000
0010
1000
0010
1000
0010
1000
0000
0001
0000
,  // measure 5
0100
0010
1000
0010
1000
0000
0001
0010
0001
0010
0001
0010
0001
0000
1000
0000
,  // measure 6
0010
0100
0010
0100
0001
0000
1000
0100
1000
0100
1000
0100
1000
0000
0100
0000
,  // measure 7
0010
0100
0010
0100
1000
0000
0001
0100
0001
0100
0001
0100
0010
0000
0120
0000
,  // measure 8
1000
0031
0100
0001
0100
0000
0010
1000
0010
1000
0001
0100
0001
0000
1000
0000
,  // measure 9
0100
0010
0100
0010
0001
0000
0100
0001
0100
0001
1000
0010
1000
0000
0100
0000
,  // measure 10
0010
0001
0010
0001
1000
0000
0010
0100
0010
0100
0001
0100
0001
0000
1000
0000
,  // measure 11
0001
0010
0001
0010
0100
0000
0010
0001
0010
0001
0100
0001
0100
0000
2010
0000
,  // measure 12
0001
3100
0010
1000
0010
0000
0100
0010
1000
0010
0100
0001
1000
0000
0100
0000
,  // measure 13
0010
0100
1000
0100
0010
0000
0001
0010
0100
1000
0100
0010
0001
0000
1000
0000
,  // measure 14
0001
0100
0010
1000
0001
0000
1000
0001
0100
0010
1000
0001
0100
0000
0010
0000
,  // measure 15
1000
0100
0010
0100
1000
0000
0001
0100
0010
0100
0001
0100
0010
0000
1002
0000
,  // measure 16
1003
0001
0100
0010
1000
0000
0100
0010
0001
1000
0010
0100
0001
0000
1000
0000
,  // measure 17
0010
0100
0001
1000
0100
0000
0010
0100
1000
0001
0100
0010
0100
0000
0001
0000
,  // measure 18
1000
0010
0100
0001
0010
0000
0100
1000
0001
0100
0010
1000
0001
0000
0100
0000
,  // measure 19
0010
0000
0000
1000
0000
0000
0001
0000
0000
0100
0000
0000
0010
0000
0000
0000
0000
0000
1000
0000
0001
0000
1000
0000
0001
0000
0000
0000
0000
0000
1000
0000
0000
0001
0000
0000
0000
0000
0000
0001
0000
0000
1000
0000
0000
0000
0000
0000
,  // measure 20
0110
0000
0100
0001
0000
1000
0010
1000
0001
0100
0010
1000
0000
0001
0010
0001
,  // measure 21
0100
0000
0001
0010
0000
0001
0010
0100
1000
0000
0001
0100
0000
0010
1000
0001
,  // measure 22
1000
0100
1000
0010
0000
0100
0001
0000
0010
0000
0010
0100
0000
1000
0100
0010
,  // measure 23
0001
0010
0100
1000
0000
0001
0100
0000
0010
1000
0010
0100
0000
0000
2001
0000
,  // measure 24
3010
1000
0001
0100
0000
0010
1000
0000
0001
0010
0100
1000
0000
0100
0010
0001
,  // measure 25
0010
0100
1000
0001
0000
0100
0010
0000
1000
0010
0100
0001
0000
0100
0010
1000
,  // measure 26
0001
0100
0010
0100
0000
0001
0010
0000
0100
1000
0100
0010
0000
0001
1000
0001
,  // measure 27
1000
0100
0010
0100
0000
1000
0001
0000
0100
0010
1000
0001
0100
0000
2001
0000
,  // measure 28
0001
3010
0100
1000
0000
0100
0010
0100
1000
0100
0010
0001
0000
1000
0100
0010
,  // measure 29
0100
1000
0001
0010
0000
0100
0010
0001
0010
0100
1000
0001
0000
1000
0010
0100
,  // measure 30
0010
1000
0001
0100
0000
0010
1000
0010
0100
0001
0100
0010
0000
1000
0010
0100
,  // measure 31
0010
1000
0001
0100
0000
0001
0100
0010
1000
0010
0100
0001
0000
1000
0001
0100
,  // measure 32
0010
1000
0010
0100
0000
0010
0100
0010
0001
0010
1000
0001
0000
0010
0100
0010
,  // measure 33
1000
0010
0001
0100
0000
0001
0100
0010
0100
1000
0100
0001
0000
1000
0100
0001
,  // measure 34
0100
0010
0100
1000
0000
0100
0010
1000
0010
0001
1000
0100
0000
1000
0100
0001
,  // measure 35
0100
0010
0100
1000
0000
0001
0100
0010
0100
1000
0100
0001
0100
0010
1000
0000
,  // measure 36
2002
0000
0000
0000
0000
0000
0000
0000
0000
0000
0000
0000
3003
0000
0000
0000
0000
0000
0100
0000
0010
0000
0100
0000
0010
0000
0000
0000
0000
0000
1000
0000
0000
0001
0000
0000
0000
0000
0000
0001
0000
0000
1000
0000
0000
0000
0000
0000
,  // measure 37
0110
0000
0100
0000
0001
0000
1000
0000
0010
1000
0010
1000
0010
0000
1000
0000
,  // measure 38
0001
0000
1000
0000
0100
0000
1000
0100
1000
0100
0010
0100
1000
0000
0100
0000
,  // measure 39
0010
0000
0001
0000
0100
0000
0010
1000
0010
0100
0010
0000
0100
0000
0001
0000
,  // measure 40
1000
0000
0100
0000
0010
0000
0001
0010
0001
1000
0001
0010
0001
0000
0100
0000
,  // measure 41
0010
0000
1000
0000
0001
0000
0010
0100
0010
0100
1000
0000
0001
0000
0100
0000
,  // measure 42
0010
0000
1000
0000
0001
0000
0010
0100
0010
0100
1000
0100
0010
0000
0001
0000
,  // measure 43
0100
0000
0010
0000
1000
0000
0100
0010
0100
1000
0100
0010
0100
0000
1000
0000
,  // measure 44
0010
0000
0100
0000
0001
0000
1000
0000
0010
0100
0010
0100
0010
0000
0110
0000
,  // measure 45
1001
0000
0001
0000
0100
0000
0010
1000
0010
1000
0001
0100
0001
0000
1000
0000
,  // measure 46
0100
0000
0010
0000
0001
0000
1000
0100
1000
0100
0010
0001
0010
0000
0100
0000
,  // measure 47
1000
0000
0001
0000
0010
0000
0001
0100
0001
0100
0010
0100
0010
0000
1000
0000
,  // measure 48
0001
0000
0010
0000
0100
0000
0010
0001
0010
0001
1000
0100
1000
0000
0010
0000
,  // measure 49
0100
0000
0001
0000
1000
0000
0001
0100
0010
1000
0010
0100
0001
0000
1000
0000
,  // measure 50
0100
0000
0010
0000
0001
0000
1000
0100
0010
0001
0010
0100
1000
0000
0001
0000
,  // measure 51
0100
0000
0010
0000
1000
0000
0001
1000
0001
0100
0010
1000
0001
0000
0100
0000
,  // measure 52
0010
0000
1000
0000
0001
0000
0100
0000
0010
0000
1000
0000
0100
0010
0100
0010
0100
0000
1000
0000
0001
0000
0100
0000
0010
0000
0100
0000
0010
0000
1000
0000
,  // measure 53
1001
0000
0100
0000
0010
0000
1000
0010
0100
0010
1000
0001
0100
0000
0001
0000
,  // measure 54
0011
0000
0010
0000
0100
0000
1000
0100
0010
0001
0010
0100
1000
0000
0010
0000
,  // measure 55
1010
0000
0001
0000
0100
0000
0010
1000
0001
0100
0010
1000
0001
0000
0010
0000
,  // measure 56
0101
0000
0100
0000
0010
0000
1000
0001
0100
0010
1000
0100
0010
0000
0100
0000
,  // measure 57
1100
0000
1000
0000
0010
0000
1000
0001
0100
0010
0100
0001
1000
0000
0100
0000
,  // measure 58
0110
0000
0010
0000
0001
0000
1000
0100
0010
0100
1000
0001
0100
0000
0001
0000
,  // measure 59
1001
0000
0100
0000
0010
0000
1000
0001
0100
0010
1000
0100
0010
0000
0100
0000
,  // measure 60
0110
0000
0010
0000
0001
0000
1000
0100
1000
0100
1000
0000
0001
0000
0101
0000
,  // measure 61
1000
0010
0100
0010
1000
0000
0001
0100
0010
0100
0001
1000
0010
0000
1000
0100
,  // measure 62
0010
0100
1000
0001
0010
0000
0001
0010
0100
1000
0100
0010
0001
0000
0010
0100
,  // measure 63
0010
0100
1000
0001
0100
0000
0001
0100
0010
1000
0010
0100
0001
0000
1000
0001
,  // measure 64
0100
0010
1000
0100
0010
0000
0100
0010
0001
0010
0100
1000
0001
0000
1000
0100
,  // measure 65
0010
0100
0001
0100
1000
0000
0100
0010
0001
0010
1000
0010
0100
0000
0010
0100
,  // measure 66
0010
0001
0100
0010
0100
0000
0001
0100
1000
0100
0010
1000
0010
0000
0100
0010
,  // measure 67
0001
0010
1000
0100
0010
0000
0001
0010
0100
0010
1000
0010
0001
0000
0010
0100
,  // measure 68
1000
0100
0001
0100
1000
0010
0001
0010
1000
0100
0001
0100
1000
0010
0100
0000
,  // measure 69
0202
0000
0000
0000
0000
0000
0000
0000
0000
0000
0000
0000
0000
0000
0000
0000
0000
0000
0000
2020
0000
0000
0000
0000
,  // measure 70
0000
0000
0000
0000
,  // measure 71
0000
0000
0000
0000
,  // measure 72
0000
0000
0000
3333
,  // measure 73
MMMM
0000
0000
0000
;

//---------------dance-single - C. Picardy----------------
#NOTES:
     dance-single:
     :
     Hard:
     8:
     0.588737,0.616902,0.135676,0.050879,0.144156,486.000000,470.000000,16.000000,6.000000,0.000000,1.000000,0.588737,0.616902,0.135676,0.050879,0.144156,486.000000,470.000000,16.000000,6.000000,0.000000,1.000000:
0000
0000
0000
0000
,
0000
0000
0000
0000
,
0010
0100
1000
0001
,
0000
0000
0000
0000
0000
0000
0100
0000
0010
0000
1000
0001
0000
0001
1000
0000
,
0010
0100
0001
0100
0010
0000
0101
0000
,
1000
0100
0010
0100
1000
0000
1010
0000
,
1000
0010
0001
0010
1000
0000
0101
0000
,
1000
0100
0010
0002
0000
0000
1003
0100
,
0010
0001
0010
0100
1000
0000
0101
0000
,
1000
0010
0100
0010
1000
0000
0110
0000
,
0001
0010
0100
0010
0001
0000
1100
0000
,
0010
0100
1000
0002
0000
0000
0103
0100
,
0001
0100
0010
1000
0000
1000
0010
0100
,
0010
1000
0001
0100
0000
0100
0010
1000
,
0100
0010
0100
1000
0000
1000
0100
0010
,
0001
0100
0010
2000
0000
0000
3001
0001
,
0100
0001
0100
0000
0010
0000
1000
0000
0001
0000
0000
0000
0110
0000
0000
0000
,
0010
1000
0010
0000
1000
0000
0100
0000
0010
0000
0000
0000
1100
0000
0000
0000
,
1000
0001
1000
0000
0100
0000
0010
0000
0001
0000
0000
0000
1100
0000
0000
0000
,
0010
0001
0010
0000
0100
0000
1000
0000
0001
0000
0100
0010
0000
0010
0100
0000
,
0001
0000
0100
0000
0010
0000
0100
0000
0001
0100
0000
0001
0100
0000
0000
0000
,
0010
0000
1000
0000
0100
0000
1000
0000
0010
1000
0000
0010
1000
0000
0000
0000
,
0100
0000
0010
0000
0001
0000
0010
0000
0100
1000
0000
0100
1000
0000
0000
0000
,
0100
0000
0010
0000
0001
0000
0100
0000
0010
1000
0000
1000
0001
0000
0100
0000
,
0001
0000
0100
0000
0010
0000
0100
0000
0001
0100
0000
0100
0010
0000
1000
0000
,
0100
0000
0010
0000
0100
0000
1000
0000
0010
0100
0000
0100
0001
0000
0100
0000
,
0010
0000
1000
0000
0001
0000
0100
0000
0010
1000
0000
1000
0100
0000
0010
0000
,
0100
0000
1000
0000
0001
0000
0100
0000
0010
0100
0000
0010
2000
0000
0000
0000
,
3001
0000
0010
0000
0100
0000
0010
0000
0001
0000
0010
0100
0000
0000
1000
0000
,
0100
0000
0010
0000
0100
0000
1000
0000
0100
0000
0010
0100
0000
0000
1000
0000
,
0001
0000
0100
0000
0010
0000
0100
0000
0001
0000
0100
0010
0000
0000
1000
0000
,
0001
0100
0010
1000
0100
0000
1001
0000
,
0010
0000
0100
0000
1000
0000
0100
0000
0010
0000
0100
1000
0000
0000
0100
0000
,
0010
0000
0100
0000
1000
0000
0100
0000
0010
0000
0001
0010
0000
0000
0001
0000
,
0100
0000
0001
0000
0010
0000
0001
0000
0100
0000
0010
1000
0000
0000
0001
0000
,
0100
0000
0010
0000
1000
0000
0001
0000
0100
0000
0010
1000
0000
0000
0001
0000
,
1001
0000
0000
0000
0000
0000
0100
0000
0010
0000
1000
0001
0000
0001
1000
0000
,
1100
0100
0010
0000
0100
1000
0000
1000
,
0001
0000
0001
0100
0000
0100
0010
1000
,
0001
0010
0100
0000
0100
0010
0000
0010
,
0001
0000
0001
0100
0000
0100
0010
1000
,
0001
0100
0010
0000
0010
1000
0000
1000
,
0000
0001
1000
0000
0100
1000
0000
1000
,
0000
0001
0100
0000
0100
0001
0000
0100
,
0010
0000
0000
1000
0100
0010
0001
0100
,
0101
0001
0010
0000
0100
0010
0000
0100
,
1000
0000
0001
0100
0000
0010
1000
0001
,
0100
0010
1000
0000
0100
0010
0000
0001
,
0100
0000
0010
1000
0000
0001
0010
0100
,
1000
0100
0010
0000
0001
1000
0000
0100
,
0000
0010
0001
0000
0100
0010
0000
1000
,
0000
0001
0100
0000
0001
0010
0000
0100
,
0010
0000
0000
0100
0010
0001
1000
0100
,
1001
1000
0010
1000
0100
1000
0010
1000
,
0100
0010
0001
0010
0100
0010
0001
0010
,
0100
0010
0001
0100
0010
0100
0001
0100
,
0010
1000
0010
0100
0010
1000
0010
0100
,
0001
1000
0100
1000
0001
1000
0100
1000
,
0001
0010
0100
0010
0001
0010
0100
0010
,
0001
0100
0010
1000
0010
0100
0001
0010
,
0100
1000
0010
1001
,
1000
0100
1000
0100
0010
0100
0010
0100
,
0001
0100
0001
0100
1000
0100
1000
0100
,
1000
0010
1000
0010
0100
0010
0100
0010
,
0001
0010
0001
0010
1000
0010
1000
0010
,
0100
0001
0100
0001
0010
0001
0010
0001
,
0100
0010
0100
0010
0100
1000
0100
1000
,
0100
0001
0010
0100
1000
0100
0010
0001
,
0100
0000
0010
1000
0100
0010
0001
0100
,
2002
0000
0000
0000
0000
0000
0000
0000
0000
0000
0000
0000
0000
0000
0000
0000
0000
0000
0000
0010
0000
0000
0000
0000
,
0000
0000
0000
0000
,
0000
0000
0000
0000
,
0000
0000
0000
3003
;
