#TITLE:Game Over;
#SUBTITLE:;
#ARTIST:Honey Hime & The Prophet;
#TITLETRANSLIT:;
#SUBTITLETRANSLIT:;
#ARTISTTRANSLIT:;
#GENRE:;
#CREDIT:;
#BANNER:gameoverbn.png;
#BACKGROUND:gameoverbg.png;
#LYRICSPATH:;
#CDTITLE:;
#MUSIC:gameover.ogg;
#OFFSET:-0.007907;
#SAMPLESTART:89.528519;
#SAMPLELENGTH:12.799999;
#SELECTABLE:YES;
#DISPLAYBPM:150.000000;
#BPMS:0.000000=150.000000
,254.000000=160.000000
,255.000000=150.000000
;
#STOPS:
;
#BGCHANGES:0.000=gameover.mp4=1.600=1=1=1=StretchRewind==CrossFade==,
6.500=gameover.mp4=1.000=0=0=1=====,
319.500=gameoverbg.png=1.000=0=0=1=====,
99999=-nosongbg-=1.000=0=0=0 // don't automatically add -songbackground-
;
#KEYSOUNDS:;
#ATTACKS:;

//---------------dance-single - C. Picardy----------------
#NOTES:
     dance-single:
     :
     Beginner:
     1:
     0.101424,0.184052,0.100322,0.069454,0.000000,92.000000,79.000000,13.000000,9.000000,0.000000,0.000000,0.101424,0.184052,0.100322,0.069454,0.000000,92.000000,79.000000,13.000000,9.000000,0.000000,0.000000:
0000
0000
0000
0000
,
0000
0000
0000
0000
,
0000
0000
0000
0000
,
0000
0000
0000
0000
,
0000
0000
0000
0000
,
0000
0000
0000
0000
,
0000
0000
0000
0000
,
0000
0000
0000
0000
,
1001
0000
0000
0000
,
0001
0000
0000
0000
,
1000
0000
0000
0000
,
0001
0000
0000
0000
,
1000
0000
1000
0000
,
0001
0000
0001
0000
,
1000
0000
0000
0000
,
2000
0000
3000
0000
,
0010
0000
0000
0000
,
0100
0000
0000
0000
,
0010
0000
0000
0000
,
0000
0000
0000
0000
,
0100
0000
0000
0000
,
0010
0000
0000
0000
,
0100
0000
0100
0000
,
0010
0000
0010
0000
,
1001
0000
0000
0000
,
0100
0000
0000
0000
,
0010
0000
0000
0000
,
0100
0000
0000
0000
,
1000
0000
0000
0000
,
0001
0000
0000
0000
,
0010
0000
0000
0000
,
0100
0000
0000
0000
,
1001
0000
0000
0000
,
1000
0000
0000
0000
,
0001
0000
0000
0000
,
0100
0000
0000
0000
,
0010
0000
0000
0000
,
1000
0000
0000
0000
,
0001
0000
0000
0000
,
0100
0000
0000
0000
,
0110
0000
0000
0000
,
1000
0000
0000
0000
,
0001
0000
0000
0000
,
0100
0000
0000
0000
,
0010
0000
0000
0000
,
0100
0000
0000
0000
,
0001
0000
0000
0000
,
1000
0000
0000
0000
,
1001
0000
0000
0000
,
1001
0000
0000
0000
,
1001
0000
0000
0000
,
1001
0000
0000
0000
,
0110
0000
0000
0000
,
0110
0000
0000
0000
,
0110
0000
0000
0000
,
0110
0000
0000
0000
,
1000
0000
1000
0000
,
1000
0000
0000
0000
,
0001
0000
0001
0000
,
0001
0000
0000
0000
,
0100
0000
0100
0000
,
0100
0000
0000
0000
,
0010
0000
0010
0000
,
0010
0000
0000
0000
,
1001
0000
0000
0000
,
0100
0000
0000
0000
,
0010
0000
0000
0000
,
1000
0000
0000
0000
,
0001
0000
0000
0000
,
0100
0000
0000
0000
,
0010
0000
0000
0000
,
1000
0000
0000
0000
,
0002
0000
0003
0000
,
2000
0000
3000
0000
,
0002
0000
0003
0000
,
2000
0000
3000
0000
,
0020
0000
0030
0000
,
0200
0000
0300
0000
,
0020
0000
0030
0000
,
0200
0000
0300
0000
;

//---------------dance-single - ----------------
#NOTES:
     dance-single:
     :
     Hard:
     8:
     0.496097,0.493120,0.393570,0.385853,0.223795,450.000000,399.000000,51.000000,50.000000,16.000000,0.000000,0.496097,0.493120,0.393570,0.385853,0.223795,450.000000,399.000000,51.000000,50.000000,16.000000,0.000000:
0000
0000
0000
0000
,
0000
0000
0000
0000
,
0000
0000
0000
0000
,
0000
0000
0000
0000
,
0000
0000
0000
0000
,
0000
0000
0000
0000
,
0200
0000
0000
0000
,
0020
0000
0000
0330
,
1001
0000
0100
0000
0010
0100
0010
0000
,
1000
0000
0100
0000
0010
0100
0010
0000
,
0001
1000
0001
1000
,
0010
0100
0010
0000
,
2020
3030
0022
0033
,
2200
3300
0202
0303
,
2002
0000
3003
0000
0100
0010
0100
0000
,
2001
0000
0000
0010
0010
0010
3010
0000
,
1000
0100
1000
0100
1000
0000
1000
0000
,
0001
0100
0001
0100
0001
0000
0001
0000
,
1000
0010
0010
1000
0010
0010
1000
0100
,
0000
0100
1000
0000
0110
0000
0000
0000
,
0001
0010
0001
0010
0001
0000
0001
0000
,
1000
0010
1000
0010
1000
0000
1000
0000
,
0100
0010
0100
0010
,
2002
3003
0220
0330
,
1000
0000
0000
0010
0000
0000
1000
0000
0000
0010
1000
0000
0100
0000
1000
0000
,
0100
0000
0000
0010
0000
0000
0100
0000
0000
0010
0001
0000
0010
0000
0001
0000
,
0100
0000
0000
0001
0000
0000
0100
0000
0000
0001
0100
0000
0010
0000
0100
0000
,
0010
0000
0000
1000
0000
0000
0001
0000
0010
0000
0010
0000
0100
0000
0100
0000
,
1000
0000
0000
0100
0000
0000
0010
0000
0000
0100
1000
0000
0100
0000
0010
0000
,
0100
0000
0000
1000
0000
0000
0010
0000
0000
0100
0001
0000
0100
0000
0010
0000
,
0100
0000
0000
0001
0000
0000
0010
0000
0000
0100
0010
0000
0100
0000
0010
0000
,
0001
0000
0100
0010
0110
0000
1001
0000
,
1000
0000
0000
0100
0000
0000
0010
0000
0000
0001
0010
0000
0100
0000
1000
0000
,
0010
0000
0000
0100
0000
0000
0001
0000
0000
0100
0010
0000
1000
0000
0100
0000
,
0010
0000
0000
0001
0000
0000
1000
0000
0000
0010
0100
0000
0001
0000
0100
0000
,
0010
0000
0000
1000
0000
0000
0100
0000
0010
0000
0010
0000
0001
0000
0001
0000
,
0100
0000
0000
0010
0000
0000
0100
0000
0000
0010
1000
0000
0100
0000
0010
0000
,
0100
0000
0000
0010
0000
0000
0001
0000
0000
0010
0100
0000
0010
0000
0100
0000
,
1000
0000
0000
0010
0000
0000
0100
0000
0000
0001
0100
0000
0001
0000
0010
0000
,
0100
1000
0000
1000
0020
0000
0000
0000
0000
0000
1030
0000
0100
0000
0010
0000
,
0002
0000
1003
0100
0000
1000
0100
0010
,
0002
0000
0103
0010
0000
1000
0010
0100
,
0002
0000
1003
0010
0000
1000
0010
0100
,
0002
0000
0013
0100
0000
1000
0100
1000
,
0020
0000
0130
0110
0000
0010
1000
0100
,
0020
0000
0031
0011
0000
0001
0010
0001
,
0200
0000
0310
1010
0000
0001
0010
0100
,
2000
0000
3001
2002
0000
0000
3003
0000
,
1100
0000
0000
1100
0000
0000
2200
0000
0000
0000
3300
0000
MM00
0000
0000
0000
,
0011
0000
0000
0011
0000
0000
0022
0000
0000
0000
0000
0033
00MM
0000
0000
0000
,
0101
0000
0000
0101
0000
0000
0202
0000
0000
0000
0000
0303
0M0M
0000
0000
0000
,
1010
0000
0000
1010
0000
0000
2020
0000
0000
0000
0000
3030
M0M0
0000
0000
0000
,
0110
0000
0000
0101
0000
0000
0220
0000
0000
0000
0000
0330
0MM0
0000
0000
0000
,
1010
0000
0000
1100
0000
0000
0220
0000
0000
0000
0000
0330
0MM0
0000
0000
0000
,
0011
0000
0000
0101
0000
0000
2002
0000
0000
0000
0000
3003
M00M
0000
0000
0000
,
0110
0000
0000
0110
0000
0000
2002
0000
0000
0000
0000
3003
M00M
0000
0000
0000
,
1000
0100
0010
0001
0100
0000
1001
0000
,
0001
0010
0100
1000
0010
0000
1001
0000
,
0001
0100
0010
0100
0001
0010
0100
1000
,
0000
1000
0100
0000
0022
0000
0033
0000
,
1000
1000
0010
1000
0010
0000
1010
0000
,
0001
0001
0010
0001
0010
0000
0011
0000
,
1000
1100
0001
0101
,
2002
3003
0220
0330
,
1000
0000
0000
0001
0000
0000
1000
0000
0000
0100
0010
0000
0001
0000
0010
0000
,
0100
0000
0000
1000
0000
0000
0010
0000
0000
0100
0010
0000
1000
0000
0100
0000
,
0010
0000
0000
0001
0000
0000
0100
0000
0000
0010
0100
0000
0001
0000
0010
0000
,
0100
0000
0000
1000
0000
0000
0001
0000
0100
0000
0100
0000
0010
0000
0010
0000
,
0100
0000
0000
0010
0000
0000
0100
0000
0000
0001
1000
0000
0010
0000
0100
0000
,
0001
0000
0000
0010
0000
0000
0100
0000
0000
0010
0100
0000
1000
0000
0100
0000
,
0010
0000
0000
0001
0000
0000
0100
0000
0000
0010
1000
0000
0100
0000
0010
0000
,
0001
0000
1000
0010
1010
0000
0011
0000
,
0100
0000
0000
0010
0000
0000
0100
0000
0000
0000
0010
0000
1000
0000
0100
0000
,
0010
0000
0000
0100
0000
0000
0010
0000
0000
0000
0001
0000
0010
0000
0100
0000
,
1000
0000
0000
0001
0000
0000
1000
0000
0000
0000
0100
0000
0010
0000
0001
0000
,
0100
0000
0000
0010
0000
0000
1000
0000
0100
0000
0100
0000
0010
0000
0010
0000
,
0001
0000
0000
0001
0000
0000
0001
0000
0000
0000
0010
0000
0100
0000
1000
0000
,
0010
0000
0000
0010
0000
0000
0010
0000
0000
0000
0100
0000
0001
0000
0010
0000
,
0100
0000
0000
0100
0000
0000
0100
0000
0000
0000
1000
0000
0100
0000
0010
0000
,
0001
0100
0000
0100
0010
0000
1000
0000
0001
0000
0010
0000
0100
0000
1000
0000
;

//---------------dance-single - ----------------
#NOTES:
     dance-single:
     :
     Challenge:
     10:
     0.799267,1.047881,1.003218,0.501609,0.690677,725.000000,595.000000,130.000000,65.000000,42.000000,10.000000,0.799267,1.047881,1.003218,0.501609,0.690677,725.000000,595.000000,130.000000,65.000000,42.000000,10.000000:
0000
0000
0000
0000
,
0000
0000
0000
0000
,
0000
0000
0000
0000
,
0000
0000
0000
0000
,
0000
0000
0000
0000
,
0000
0000
0000
0000
,
1000
0100
1000
0100
1000
0100
1000
0100
1000
0100
1000
0100
1000
0100
1000
0100
,
1000
0001
1000
0001
1000
0001
1000
0001
1000
0001
1000
0001
1000
0001
1000
0001
,
0100
0001
0100
0020
1000
1000
1030
0100
,
0010
0100
1000
0020
0100
0100
0130
0001
,
0011
00MM
1100
MM00
0101
0M0M
1010
M0M0
,
0101
0M0M
0110
0MM0
1001
0000
MMMM
0000
,
0011
0000
0001
0100
0010
0000
0000
0000
1010
0000
1000
0100
0010
0000
0000
0000
,
0101
0000
0010
0100
0001
0000
0000
0000
1010
0000
0100
0010
1000
0000
0000
0000
,
0110
0000
0010
1000
0001
0000
0000
0000
0001
0010
0001
0010
0001
0010
0001
0010
,
0100
1000
0100
1000
0100
1000
0100
1000
0001
1000
0001
1000
0001
1000
0001
1000
,
0002
0100
0010
0100
0103
0000
0110
0MM0
,
2000
0010
0010
0100
3010
0000
0110
0MM0
,
0002
0010
0010
2003
0100
0100
3001
0010
,
0000
0100
1000
0000
0011
00MM
0000
0000
,
0020
1000
1000
0100
1030
0000
0101
0M0M
,
0020
0001
0001
0100
0031
0000
0101
0M0M
,
2200
0000
0010
0300
0002
0000
0010
3003
,
0011
0000
0000
0000
0011
0000
0000
0000
1100
0000
0000
0000
0001
0100
0001
0100
,
0010
0000
0000
1010
0000
0000
1100
0000
0000
1100
0000
0000
0110
0000
0011
0000
,
0110
0000
0000
1100
0000
0000
0101
0000
0000
0101
0000
0000
1010
0000
0110
0000
,
1010
0000
0000
1010
0000
0000
0101
0000
0000
1100
0000
0000
0011
0000
0110
0000
,
0011
0000
0000
0101
0000
0000
1001
0000
1100
0000
0001
0000
0101
0000
0110
0000
,
1010
0000
0000
1100
0000
0000
0101
0000
0000
0011
0000
0000
1100
0000
0110
0000
,
0011
0000
0000
0101
0000
0000
0110
0000
0000
1010
0000
0000
0101
0000
0110
0000
,
1010
0000
0000
1100
0000
0000
0110
0000
0001
0010
0001
0010
0001
0010
0001
0010
,
0100
1000
0100
1000
0100
1000
0100
1000
0001
0010
0100
1000
0001
0010
0100
1000
,
0001
0000
0001
0100
0000
0100
0010
0000
0010
1000
0000
1000
0100
0010
0100
1000
,
0010
0000
0010
0100
0000
0100
0001
0000
0001
0010
0000
0010
0100
0010
0001
0100
,
0010
0000
0010
1000
0000
1000
0100
0000
0100
0010
0000
0010
0001
0010
0100
1000
,
0001
0000
0001
1000
0000
1000
0001
0000
0010
0100
0010
0000
0100
0000
0010
0000
,
0001
0000
0001
0100
0000
0100
1000
0000
1000
0100
0000
0100
0001
0010
0100
0010
,
1000
0000
1000
0001
0000
0001
0100
0000
0100
1000
0000
1000
0100
0001
0100
1000
,
0010
0000
0010
0001
0000
0001
0010
0000
0010
1000
0000
1000
0100
0010
0001
0100
,
0010
1000
0000
0100
0020
0000
0000
0000
0000
0000
0130
0000
1000
0000
0001
0000
,
0102
0000
1003
1010
M0M0
0100
0010
0001
,
0102
0000
1003
1100
MM00
0010
0001
0100
,
0120
0000
1030
1001
M00M
0100
0010
1000
,
1002
0000
0013
0110
0MM0
0100
1000
0010
,
0120
0000
1030
1001
M00M
0001
0100
0010
,
0210
0000
0310
1010
M0M0
0100
0010
0001
,
1000
0010
1000
0010
1000
0010
1000
0010
0100
0001
0100
0001
0100
0001
0100
0001
,
1000
0100
1000
0100
0010
0001
0010
0001
1000
0100
0010
0001
1000
0100
0010
0001
,
0011
0000
0000
1100
0000
0000
0202
0000
0000
0000
1000
0000
0303
0000
0000
0000
,
0110
0000
0000
1010
0000
0000
2200
0000
0000
0000
0010
0000
3300
0000
0000
0000
,
0011
0000
0000
0101
0000
0000
0220
0000
0000
0000
1000
0000
0330
0000
0000
0000
,
1010
0000
0000
0011
0000
0000
2002
0000
0000
0000
0010
0000
3003
0000
0000
0000
,
1010
0000
0000
0101
0000
0000
2200
0000
0000
0000
0011
0000
3300
0000
0000
0000
,
1001
0000
0000
1010
0000
0000
0202
0000
0000
0000
1010
0000
0303
0000
0000
0000
,
0001
0100
0001
0100
0001
0100
0001
0100
0010
1000
0010
1000
0010
1000
0010
1000
,
0001
0010
0001
0010
0100
1000
0100
1000
0001
0010
0100
1000
0001
0010
0100
1000
,
0020
0000
0000
0000
1000
0000
0000
0000
1000
0000
0000
0000
0130
0000
0000
0000
2020
0000
0000
0000
0000
0000
0000
3030
0202
0000
0000
0000
0000
0000
0000
0303
,
0020
0000
0000
0000
0001
0000
0000
0000
0001
0000
0000
0000
0130
0000
0000
0000
0022
0000
0000
0000
0000
0000
0000
0033
2200
0000
0000
0000
0000
0000
0000
3300
,
0002
0100
0010
0103
0020
1000
0100
1030
,
0000
0001
0101
0000
2200
0000
3300
MMMM
,
2000
0000
0000
0000
0010
0000
0000
0000
0010
0000
0000
0000
3100
0000
0000
0000
2200
0000
0000
0000
0000
0000
0000
3300
0022
0000
0000
0000
0000
0000
0000
0033
,
0002
0000
0000
0000
0010
0000
0000
0000
0100
0000
0000
0000
0103
0000
0000
0000
0220
0000
0000
0000
0000
0000
0000
0330
2002
0000
0000
0000
0000
0000
0000
3003
,
2000
0000
0200
0000
0020
0000
0002
3333
,
1100
0000
0000
0000
1100
0000
0000
0000
0101
0000
0000
0000
0001
0100
0001
0100
,
0010
0000
0000
1010
0000
0000
0101
0000
0000
1000
0010
0000
1001
0000
0100
0000
,
1001
0000
0000
0011
0000
0000
1100
0000
0000
0010
0001
0000
0101
0000
0100
0000
,
0110
0000
0000
1010
0000
0000
1100
0000
0000
0100
0010
0000
0011
0000
1000
0000
,
1001
0000
0000
0011
0000
0000
1000
0000
1010
0000
0100
0000
1001
0000
0010
0000
,
1001
0000
0000
1100
0000
0000
0011
0000
0000
1000
0010
0000
1001
0000
0100
0000
,
1010
0000
0000
0110
0000
0000
1001
0000
0000
0100
0010
0000
0011
0000
1000
0000
,
1100
0000
0000
0011
0000
0000
0101
0000
0100
0010
0100
0010
0100
0010
0100
0010
,
1000
0001
1000
0001
1000
0001
1000
0001
1000
0100
0010
0001
1000
0100
0010
0001
,
0200
0000
0000
0010
0000
0000
0001
0000
0300
0100
0010
0000
1000
0000
0100
0000
,
0020
0000
0000
0001
0000
0000
0100
0000
0030
0001
0100
0000
0010
0000
1000
0000
,
0200
0000
0000
0010
0000
0000
1000
0000
0300
0100
0010
0000
0001
0000
0100
0000
,
0020
0000
0000
1000
0000
0000
0130
0000
0001
0000
0001
0000
1000
0000
1000
0000
,
0002
0000
0000
0010
0000
0000
1000
0000
0003
0010
0001
0000
0010
0000
0100
0000
,
2000
0000
0000
0010
0000
0000
0001
0000
3000
0100
0010
0000
0100
0000
0010
0000
,
0002
0000
0000
1000
0000
0000
0100
0000
0003
0010
0100
0000
0010
0000
0001
0000
,
1000
0100
0000
0100
1000
0000
0001
0000
0010
0000
0010
0000
0100
0000
1000
0000
;

//---------------dance-single - C. Picardy----------------
#NOTES:
     dance-single:
     :
     Medium:
     6:
     0.399082,0.431480,0.216078,0.254663,0.057878,362.000000,334.000000,28.000000,33.000000,0.000000,0.000000,0.399082,0.431480,0.216078,0.254663,0.057878,362.000000,334.000000,28.000000,33.000000,0.000000,0.000000:
0000
0000
0000
0000
,
0000
0000
0000
0000
,
0000
0000
0000
0000
,
0000
0000
0000
0000
,
0000
0000
0000
0000
,
0000
0000
0000
0000
,
2000
0000
0000
0000
,
0002
0000
0000
3003
,
1001
0000
0100
0000
0010
0100
0010
0000
,
1000
0000
0100
0000
0010
0100
0010
0000
,
0001
1000
0001
1000
,
0010
0100
0010
0000
,
2002
3003
0220
0330
,
2020
3030
0022
0033
,
2200
3300
0202
0303
,
2002
0000
0000
3003
,
1000
1000
1000
0000
0001
0000
0001
0000
,
0100
0100
0100
0000
0010
0000
0010
0000
,
1000
0000
0001
0000
0100
0000
0100
0010
,
0000
0010
0100
0000
1001
0000
0000
0000
,
0001
0001
0001
0000
0100
0000
0100
0000
,
0010
0010
0010
0000
1000
0000
1000
0000
,
0002
0023
0230
2300
,
3001
0001
2002
3003
,
0100
0000
0010
0000
0100
0000
0010
0100
,
0010
0000
1000
0000
0001
0000
1000
0001
,
1000
0000
0100
0000
0010
0000
0100
0010
,
0100
0000
1000
0000
0010
0010
0010
1000
,
0010
0000
1000
0000
0100
0000
0010
0100
,
0010
0000
0001
0000
0100
0000
0010
1000
,
0010
0000
0100
0000
0001
0000
1000
0100
,
1000
0000
0001
0010
0001
0000
0011
0000
,
0100
0000
0010
0000
0100
0000
0010
1000
,
0100
0000
0010
0000
0001
0000
0010
0001
,
0100
0000
0010
0000
1000
0000
0100
0010
,
0001
0000
0100
0000
0001
0001
0001
0100
,
0001
0000
0010
0000
0100
0000
0010
0100
,
1000
0000
0010
0000
0100
0000
0001
0100
,
0010
0000
1000
0000
0100
0000
0010
0100
,
1000
0002
0200
0000
0303
0000
0100
0010
,
0100
0000
0010
0010
0000
0000
1000
0001
,
1000
0000
0100
0100
0000
0000
0010
0001
,
0010
0000
0100
0100
0000
0000
1000
0010
,
1000
0000
0001
0001
0000
0000
1000
0100
,
0010
0000
0001
1000
0000
0000
0010
0100
,
0001
0000
1000
0100
0000
0000
0010
0100
,
1000
0000
0001
0100
0000
0000
0001
0100
,
0010
0000
1000
0001
0200
0000
0300
0000
,
0010
0000
0000
0010
0000
0000
1000
0000
0000
0000
1001
0000
0000
0000
0000
0000
,
0010
0000
0000
0010
0000
0000
0001
0000
0000
0000
1001
0000
0000
0000
0000
0000
,
0010
0000
0000
0100
0000
0000
0010
0000
0000
0000
1010
0000
0000
0000
0000
0000
,
0100
0000
0000
0010
0000
0000
0100
0000
0000
0000
0011
0000
0000
0000
0000
0000
,
1000
0000
0000
0100
0000
0000
0010
0000
0000
0000
0101
0000
0000
0000
0000
0000
,
0010
0000
0000
1000
0000
0000
0100
0000
0000
0000
0011
0000
0000
0000
0000
0000
,
0100
0000
0000
0010
0000
0000
1000
0000
0000
0000
0101
0000
0000
0000
0000
0000
,
0010
0000
0000
0100
0000
0000
0001
0000
0000
0000
1100
0000
0000
0000
0000
0000
,
1000
0100
1000
0000
0010
0000
0110
0000
,
0001
0010
0001
0000
0100
0000
0110
0000
,
1000
0100
1000
0000
0001
0100
0001
0100
,
0000
0100
0010
0000
2002
0000
3003
0000
,
0010
0100
0010
0000
1000
0000
1001
0000
,
0100
0010
0100
0000
0001
0000
1001
0000
,
2000
3200
0320
0032
,
0103
0100
2002
3003
,
1000
0000
0100
0000
0010
0000
0001
0100
,
0010
0000
1000
0000
0001
0000
0010
0100
,
1000
0000
0010
0000
0100
0000
0010
1000
,
0100
0000
0010
0000
0001
0001
0001
0010
,
0001
0000
0100
0000
0010
0000
1000
0100
,
0010
0000
0001
0000
1000
0000
0010
0100
,
0001
0000
0010
0000
0100
0000
1000
0100
,
0010
0000
0001
0100
0010
0000
1001
0000
,
0010
0000
0000
0010
0000
0000
0010
0000
0000
0000
0100
0000
1000
0000
0000
0000
,
0001
0000
0000
0001
0000
0000
0001
0000
0000
0000
0100
0000
0010
0000
0000
0000
,
1000
0000
0000
1000
0000
0000
1000
0000
0000
0000
0001
0000
0010
0000
0000
0000
,
0100
0000
0000
0100
0000
0000
0100
0000
0000
0000
1000
0000
0100
0000
0010
0000
,
0001
0000
0000
0010
0000
0000
0001
0000
0000
0000
1000
0000
0100
0000
0000
0000
,
1000
0000
0000
0100
0000
0000
1000
0000
0000
0000
0001
0000
0100
0000
0000
0000
,
0001
0000
0000
0100
0000
0000
0001
0000
0000
0000
0010
0000
0100
0000
0000
0000
,
1100
0000
0101
0000
0001
0010
0100
1000
;

//---------------dance-single - C. Picardy----------------
#NOTES:
     dance-single:
     :
     Easy:
     4:
     0.295453,0.400033,0.300965,0.339551,0.000000,268.000000,229.000000,39.000000,44.000000,0.000000,0.000000,0.295453,0.400033,0.300965,0.339551,0.000000,268.000000,229.000000,39.000000,44.000000,0.000000,0.000000:
// measure 0
0000
0000
0000
0000
,  // measure 1
0000
0000
0000
0000
,  // measure 2
0000
0000
0000
0000
,  // measure 3
0000
0000
0000
0000
,  // measure 4
0000
0000
0000
0000
,  // measure 5
0000
0000
0000
0000
,  // measure 6
0000
0000
0100
0000
,  // measure 7
0200
0000
0300
0000
,  // measure 8
1001
0000
0100
0100
,  // measure 9
0100
0000
0010
0010
,  // measure 10
1000
1000
0001
0001
,  // measure 11
0100
0100
0010
0000
,  // measure 12
1001
0000
0110
0000
,  // measure 13
1010
0000
0011
0000
,  // measure 14
1100
0000
0101
0000
,  // measure 15
2002
0000
0000
3003
,  // measure 16
0100
0000
0100
0000
,  // measure 17
0010
0000
0010
0000
,  // measure 18
1000
0000
0001
0000
,  // measure 19
0100
0000
0010
0000
,  // measure 20
1000
0000
1000
0000
,  // measure 21
0001
0000
0001
0000
,  // measure 22
1000
0100
0010
0001
,  // measure 23
0200
0300
2002
3003
,  // measure 24
0100
0010
0010
1000
,  // measure 25
0100
0010
0010
0001
,  // measure 26
0010
0100
0100
1000
,  // measure 27
0010
0100
0010
0010
,  // measure 28
1000
0001
0001
0010
,  // measure 29
0100
1000
1000
0100
,  // measure 30
0010
0001
0001
1000
,  // measure 31
0010
0100
0110
1001
,  // measure 32
0100
0110
1000
0100
,  // measure 33
0010
0110
0001
0010
,  // measure 34
0100
1001
1000
0010
,  // measure 35
0100
0010
1000
0100
,  // measure 36
0010
0011
0010
0100
,  // measure 37
1000
1010
0100
1000
,  // measure 38
0010
0101
1000
0100
,  // measure 39
0101
2200
0000
3300
,  // measure 40
1000
1000
1000
0000
,  // measure 41
0001
0001
0001
0000
,  // measure 42
0100
0100
0100
0000
,  // measure 43
0010
0010
0010
0000
,  // measure 44
1000
0001
0100
0000
,  // measure 45
0010
1000
0001
0000
,  // measure 46
0010
0100
1000
0000
,  // measure 47
0010
0100
0001
0000
,  // measure 48
0010
0010
2002
3003
,  // measure 49
0100
0100
2002
3003
,  // measure 50
1000
0100
0220
0330
,  // measure 51
0001
0100
0220
0330
,  // measure 52
1000
0100
0022
0033
,  // measure 53
0001
0100
2020
3030
,  // measure 54
1000
0010
0202
0303
,  // measure 55
0001
0010
2200
3300
,  // measure 56
0001
0010
0100
0100
,  // measure 57
1000
0010
0100
0100
,  // measure 58
0001
0001
0100
0100
,  // measure 59
0010
1000
0220
0330
,  // measure 60
0010
1000
0001
0001
,  // measure 61
0010
0100
1000
1000
,  // measure 62
0001
0010
0100
1000
,  // measure 63
0220
0330
2002
3003
,  // measure 64
0010
0001
0100
1001
,  // measure 65
0010
1000
0100
1001
,  // measure 66
0001
0010
0100
0110
,  // measure 67
1000
0010
0100
0100
,  // measure 68
0001
0110
1000
0100
,  // measure 69
0010
0110
0001
0010
,  // measure 70
0100
0110
1000
0010
,  // measure 71
0100
0010
1010
0011
,  // measure 72
0200
0000
0320
0000
,  // measure 73
2030
0000
3002
0000
,  // measure 74
0023
0000
0230
0000
,  // measure 75
2300
0000
3020
0000
,  // measure 76
0230
0000
0302
0000
,  // measure 77
0023
0000
0230
0000
,  // measure 78
0320
0000
0032
0000
,  // measure 79
1003
1000
0010
1001
;
