#VERSION:0.81;
#TITLE:Fuze;
#SUBTITLE:;
#ARTIST:Yuzo Koshiro feat. BGM1401;
#TITLETRANSLIT:;
#SUBTITLETRANSLIT:;
#ARTISTTRANSLIT:;
#GENRE:;
#ORIGIN:;
#CREDIT:;
#BANNER:fuzebn.jpg;
#BACKGROUND:fuzebg.jpg;
#PREVIEWVID:;
#JACKET:;
#CDIMAGE:;
#DISCIMAGE:;
#LYRICSPATH:;
#CDTITLE:;
#MUSIC:Fuze.ogg;
#OFFSET:-0.047000;
#SAMPLESTART:44.769012;
#SAMPLELENGTH:12.000000;
#SELECTABLE:YES;
#BPMS:0.000=150.010;
#STOPS:;
#DELAYS:;
#WARPS:;
#TIMESIGNATURES:0.000=4=4;
#TICKCOUNTS:0.000=4;
#COMBOS:0.000=1;
#SPEEDS:0.000=1.000=0.000=0;
#SCROLLS:0.000=1.000;
#FAKES:;
#LABELS:0.000=Song Start;
#BGCHANGES:;
#KEYSOUNDS:;
#ATTACKS:
;

//---------------dance-single - C. Picardy----------------
#NOTEDATA:;
#CHARTNAME:;
#STEPSTYPE:dance-single;
#DESCRIPTION:C. Picardy;
#CHARTSTYLE:;
#DIFFICULTY:Beginner;
#METER:1;
#RADARVALUES:0.078853,0.123193,0.055997,0.000000,0.000000,62.000000,7.000000,0.000000,0.000000,0.000000,0.000000,0.000000,0.000000,0.078853,0.123193,0.055997,0.000000,0.000000,62.000000,7.000000,0.000000,0.000000,0.000000,0.000000,0.000000,0.000000;
#CREDIT:C. Picardy;
#NOTES:
0000
0000
0000
0000
,
0000
0000
0000
0000
,
0000
0000
0000
0000
,
0000
0000
0000
0000
,
0000
0000
0000
0000
,
0000
0000
0000
0000
,
0000
0000
0000
0000
,
0000
0000
0000
0000
,
0010
0000
0000
0000
,
0010
0000
0000
0000
,
0100
0000
0000
0000
,
0100
0000
0000
0000
,
0001
0000
0000
0000
,
0000
0000
0000
0000
,
0001
0000
0000
0000
,
0000
0000
0000
0000
,
1000
0000
0000
0000
,
0000
0000
0000
0000
,
1000
0000
0000
0000
,
0000
0000
0000
0000
,
1001
0000
0000
0000
,
0100
0000
0000
0000
,
0010
0000
0000
0000
,
1000
0000
0000
0000
,
0001
0000
0000
0000
,
0001
0000
0000
0000
,
1000
0000
0000
0000
,
1000
0000
0000
0000
,
0010
0000
0000
0000
,
1001
0000
0000
0000
,
0100
0000
0000
0000
,
1001
0000
0000
0000
,
0001
0000
0000
0000
,
1000
0000
0000
0000
,
0010
0000
0000
0000
,
1001
0000
0000
0000
,
0010
0000
0000
0000
,
0000
0000
0000
0000
,
1000
0000
0000
0000
,
0000
0000
0000
0000
,
0001
0000
0000
0000
,
0001
0000
0000
0000
,
0100
0000
0000
0000
,
0100
0000
0000
0000
,
1001
0000
0000
0000
,
1000
0000
0000
0000
,
0010
0000
0000
0000
,
0100
0000
0000
0000
,
0001
0000
0000
0000
,
0100
0000
0000
0000
,
0010
0000
0000
0000
,
1000
0000
0000
0000
,
1001
0000
0000
0000
,
0001
0000
0000
0000
,
0100
0000
0000
0000
,
0010
0000
0000
0000
,
1000
0000
0000
0000
,
0001
0000
0000
0000
,
0100
0000
0000
0000
,
0010
0000
0000
0000
,
1000
0000
0000
0000
,
1000
0000
0000
0000
,
0001
0000
0000
0000
,
0001
0000
0000
0000
,
0100
0000
0000
0000
,
0100
0000
0000
0000
,
0010
0000
0000
0000
,
0010
0000
0000
0000
,
0001
0000
0000
0000
,
0000
0000
0000
0000
,
1000
0000
0000
0000
,
0000
0000
0000
0000
,
0010
0000
0000
0000
,
0000
0000
0000
0000
,
1000
0000
0000
0000
,
0001
0000
0000
0000
,
1000
0000
0001
0000
,
1001
0000
0000
0000
;

//---------------dance-single - C. Picardy----------------
#NOTEDATA:;
#CHARTNAME:;
#STEPSTYPE:dance-single;
#DESCRIPTION:C. Picardy;
#CHARTSTYLE:;
#DIFFICULTY:Challenge;
#METER:11;
#RADARVALUES:1.000000,0.923948,0.527970,0.031998,1.000000,839.000000,66.000000,4.000000,22.000000,0.000000,2.000000,0.000000,0.000000,1.000000,0.923948,0.527970,0.031998,1.000000,839.000000,66.000000,4.000000,22.000000,0.000000,2.000000,0.000000,0.000000;
#CREDIT:C. Picardy;
#NOTES:
0000
0000
0000
0000
,
0000
0000
0000
0000
,
0000
0000
0000
0000
,
0000
0000
0000
0000
,
1001
0000
0100
0010
0000
1000
0001
0000
0010
0100
0000
0000
0010
0000
0000
0000
,
0110
0000
0001
1000
0000
0010
0100
0000
0001
1000
0000
0000
0010
0000
0000
0000
,
1100
0000
0010
0001
0000
1000
0100
0000
0010
0001
0000
0000
1000
0000
0000
0000
,
0101
0000
0100
0010
0000
0000
0000
0001
0100
0001
0100
0010
0100
0001
0100
0010
,
1000
0001
1000
0001
0100
0001
0000
1000
0100
0010
0001
0010
0100
1000
0100
1000
,
0100
1000
0001
0100
0001
1000
0000
0001
1000
0001
0100
0001
1000
0001
1000
0001
,
0100
0010
1000
0010
1000
0100
0000
0010
0001
0010
0100
0010
0001
0010
0001
1000
,
0001
1000
0100
1000
0001
0010
0000
0010
0100
1000
0100
0010
0001
0010
0100
1000
,
0100
0010
0100
0010
0100
0010
0100
0020
0000
0000
0000
0000
0031
0000
0000
0000
,
0001
0000
0000
1000
0000
0000
0000
0000
M000
0010
0000
0000
1000
0000
0000
0000
00M0
0000
0001
0000
M000
0010
0000
0000
000M
0000
0000
0100
00M0
0000
1000
0000
0000
0000
0000
0000
MM01
0000
0000
0010
0000
0000
000M
0000
0000
0000
0000
0000
,
0001
1000
0001
0100
0001
1000
0001
2000
0000
0000
0000
0000
3100
0000
0000
0000
,
1000
0000
0000
0010
0000
0000
0000
0000
M0M0
0001
0000
0000
0010
0000
0000
0000
00MM
0000
0100
0000
0000
0010
0000
0000
0M00
0000
00M0
0001
0000
0000
0010
0000
000M
0000
0000
0000
1000
0000
00M0
0100
0000
0000
0000
0000
MM00
0000
0000
0000
,
1000
0100
0010
0001
0010
0100
1000
0100
1000
0000
0000
0000
1001
0000
0000
0000
,
0100
0001
0000
1000
0010
0000
0100
0010
0000
1000
0001
1000
0010
0100
0000
0000
,
0100
0001
0100
0001
1000
0001
1000
0001
0200
0000
0000
0000
0002
0000
0303
0000
,
0001
0000
1001
0000
1010
0000
1001
0000
0100
0010
0100
0010
1000
0010
1000
0010
,
0100
0000
0010
0100
0000
0001
1000
0000
0100
0000
0100
0010
0000
0001
0010
0000
,
0100
0000
0010
0001
0000
1000
0010
0000
0100
0000
0010
1000
0000
0001
1000
0100
,
0010
0000
0001
0010
0000
0001
0010
0001
1000
0000
0010
1000
0000
1000
0001
0100
,
0010
0000
1000
0010
0000
0100
0010
1000
0010
0000
0100
0010
0000
0100
0001
0100
,
0001
0000
1000
0100
0000
0010
0001
0000
1000
0000
0010
0100
0000
0001
0010
0001
,
1000
0000
0001
0010
0000
0100
1000
0000
0010
0000
0010
0100
0000
0010
1000
0010
,
0100
0000
0001
0010
0000
0100
0010
0000
0001
0000
0001
0010
0000
0000
0000
0000
,
1100
0000
0110
0000
0011
0000
1001
0000
0001
0100
0010
1000
0001
0100
0010
0100
,
0010
0000
0000
1010
0000
0000
1100
0000
0000
0000
0010
0000
0001
0010
0001
0010
,
0001
0000
0100
0010
0000
0010
1000
0000
0101
0000
1010
0000
1000
0100
0010
0100
,
1000
0000
0001
0100
0000
0100
0010
0000
0101
0000
1100
0000
0010
0100
0010
0001
,
0010
0000
0100
1000
0000
1000
0010
0000
0101
0000
0011
0000
1000
0100
0010
0001
,
1000
0000
0001
0100
0000
0010
1000
0000
0110
0000
1010
0000
0100
0010
0100
0010
,
0100
0000
0001
0010
0000
0001
1000
0000
0011
0000
1001
0000
0100
0001
0100
0001
,
0100
0000
0001
1000
0000
0001
0010
0000
0110
0000
1100
0000
1000
0100
1000
0100
,
0010
0100
0010
0100
1000
0001
1000
0001
1000
0100
1000
0001
1000
0100
0010
0001
,
1000
0100
0001
0000
0100
0010
0000
0001
0000
0100
1000
0000
0100
0000
0010
1000
,
0010
0001
0010
0000
0100
1000
0100
0010
0000
1000
0000
0010
0000
0100
0010
1000
,
0100
0001
0100
0000
1000
0001
0000
0100
0000
0001
0010
0000
0100
0000
0010
0001
,
1000
0000
0001
0000
0010
0000
0000
0000
0001
0000
1000
0000
0000
0000
0004
0400
0000
0000
0000
0000
0000
0000
0000
0000
0000
0000
0000
0000
0000
0000
0303
0000
,
0010
1000
0010
0000
1001
0000
0001
0100
0010
1000
0100
0000
0110
0000
0001
0010
,
0100
0010
0001
0000
1100
0000
0010
0100
1000
0100
0010
0000
1100
0000
0001
0100
,
0001
0100
0010
0000
0101
0000
0100
0010
1000
0001
0100
0010
1000
0100
0010
0000
,
1100
0000
0011
0000
0101
0000
1001
0000
1000
0001
0100
0010
1000
0100
0010
0001
,
0100
0001
0100
0001
1000
0001
1000
0001
1000
0000
0100
1000
0000
0100
0000
0010
,
0001
0010
0001
0010
0100
1000
0100
1000
0001
0000
0100
0010
0000
1000
0000
0001
,
0100
0001
0100
0001
1000
0001
1000
0100
1000
0000
0100
0010
0000
0001
0000
1000
,
0010
1000
0010
1000
0001
0100
0001
0100
0010
0000
1000
0001
0000
1000
0000
0100
,
0010
0100
0010
0100
1000
0100
1000
0000
0000
0100
0010
0100
0000
0010
0001
1000
,
0001
0100
0001
0100
0010
1000
0010
0000
0000
1000
0001
0100
0000
0010
1000
0100
,
0010
0100
0010
0100
0010
0001
0010
0000
0000
0100
1000
0100
0000
0010
0100
0000
,
1001
0000
0011
0000
0101
0000
1100
0000
1000
0100
1000
0100
0010
0001
0010
0001
,
1000
0001
1000
0000
0100
0000
0000
0010
0000
0001
0000
1000
0000
0010
0100
0000
,
0001
0100
0001
0000
0100
0000
0000
0010
0000
1000
0000
0100
0000
1000
0001
0000
,
1000
0001
0100
0010
1000
0100
0010
0001
1000
0010
0100
0001
1000
0010
1000
0001
,
0100
0010
0100
0000
0001
0000
0000
1000
0000
0100
1000
0100
0000
0010
0100
0010
,
0001
0010
0001
0000
1000
0000
0000
0010
0000
0100
0000
0001
0000
1000
0010
0000
,
1000
0001
1000
0000
0100
0000
0000
0010
0000
0100
0000
1000
0000
0100
0010
0000
,
0001
1000
0100
0010
0001
1000
0010
0100
0001
1000
0100
0010
0001
1000
0010
0100
,
0001
1000
0001
0000
0100
0000
0000
0010
0100
0010
1000
0010
0100
0010
0100
0001
,
0100
0001
1000
0000
0101
0000
1000
0001
0100
0010
1000
0000
0110
0000
0001
1000
,
0010
0100
0001
1000
0010
0100
0001
1000
0100
0010
0001
1000
0010
0100
0001
1000
,
0010
1000
0100
0000
0110
0000
0001
0010
0100
0010
0001
0000
1100
0000
0010
0001
,
1000
0100
1000
0100
0010
0100
0010
0100
0010
0001
0010
0001
1000
0001
1000
0001
,
0010
0001
0100
0000
1010
0000
1000
0001
0100
0010
1000
0000
1001
0000
0001
0100
,
0010
1000
0010
1000
0001
1000
0001
1000
0100
1000
0100
1000
0010
1000
0010
1000
,
0010
1000
0010
0000
0101
0000
1000
0001
0100
0000
0010
0100
0000
0000
0000
0000
,
1010
0000
1100
0000
0011
0000
1001
0000
0001
0100
0001
0100
0010
1000
0010
1000
,
0001
0000
0000
0000
1100
0000
0001
0100
0001
0000
1000
0000
0101
0000
1000
0000
,
1100
0000
0000
0000
0011
0000
1000
0010
1000
0000
0001
0000
1010
0000
0001
0000
,
0011
0000
0000
0000
0101
0000
1000
0100
1000
0000
0001
0000
0101
0000
1000
0000
,
1100
0000
0000
0000
1010
0000
0001
0010
0001
0000
1000
0000
1010
0000
0001
0000
,
0011
0000
0000
0000
1100
0000
0001
0100
0001
0000
1000
0100
0010
0000
0100
0000
,
1100
0000
0000
0000
0101
0000
1000
0010
0100
0000
0001
0100
0010
0000
1000
0000
,
0000
0100
1000
0001
0010
0001
1000
0010
0100
0001
1000
0010
1000
0001
0100
0010
,
MM00
0010
0100
0001
1000
0100
0010
0001
1000
0010
1000
0100
0010
0100
1000
0001
,
MM00
0001
0100
0001
1000
0010
0100
0010
1000
0001
0100
0001
0100
0001
1000
0100
,
1001
0000
0000
0000
;

//---------------dance-single - C. Picardy----------------
#NOTEDATA:;
#CHARTNAME:;
#STEPSTYPE:dance-single;
#DESCRIPTION:C. Picardy;
#CHARTSTYLE:;
#DIFFICULTY:Easy;
#METER:4;
#RADARVALUES:0.313125,0.369579,0.207988,0.239987,0.000000,218.000000,26.000000,30.000000,0.000000,0.000000,0.000000,0.000000,0.000000,0.313125,0.369579,0.207988,0.239987,0.000000,218.000000,26.000000,30.000000,0.000000,0.000000,0.000000,0.000000,0.000000;
#CREDIT:C. Picardy;
#NOTES:
0000
0000
0000
0000
,
0000
0000
0000
0000
,
0000
0000
0000
0000
,
0000
0000
0000
0000
,
1001
0000
0000
0000
,
1001
0000
0000
0000
,
0110
0000
0000
0000
,
0110
0000
0000
0000
,
0100
0001
0100
0001
,
1000
0001
1000
0001
,
1000
0100
1000
0100
,
0010
0100
0010
0100
,
1000
1000
0002
0003
,
1000
0000
0010
0000
,
0100
0100
0020
0030
,
1000
0000
0001
0000
,
0010
0001
2000
3000
,
0010
0010
1000
0001
,
0100
0100
0002
0003
,
1000
0001
0100
0010
,
1001
0000
1001
0000
,
0110
0000
0110
0000
,
1100
0000
1100
0000
,
0011
0000
0011
0000
,
1000
0001
0100
0000
,
0100
0010
1000
0000
,
0100
0010
0001
0000
,
0100
0010
0100
0010
,
2000
3000
0100
0000
,
0020
0030
0001
0000
,
0200
0300
0010
0000
,
2000
3000
0001
0000
,
0200
0000
0320
0000
,
2030
0000
3200
0000
,
0320
0000
0032
0000
,
0203
0000
0320
0000
,
1030
0000
0001
0000
,
0100
0000
0010
0000
,
1000
0000
0001
0000
,
1000
0000
0100
0100
,
1001
0100
0010
1000
,
0100
0010
0001
0001
,
0100
0010
1000
0010
,
0100
0001
1000
0010
,
1000
0001
2200
3300
,
0010
0001
0202
0303
,
1000
0001
0220
0330
,
1000
0010
2002
3003
,
1000
0100
0001
0000
,
0001
0100
1000
0000
,
1000
0010
0001
0000
,
0010
1000
0100
0010
,
0001
0010
0001
1000
,
0010
0100
0010
1000
,
0100
0001
0100
0010
,
0001
0100
1000
0100
,
0001
0010
1000
0010
,
0001
1000
0100
0001
,
0100
1000
0010
0001
,
0010
1000
0100
0010
,
0001
0100
0010
1001
,
1000
0100
0010
1001
,
0100
0010
1000
1001
,
0010
0001
0100
1001
,
0010
1000
0100
0110
,
0001
1000
0100
0110
,
0001
1000
0010
0110
,
1000
0001
0100
0110
,
2000
0000
3100
0000
,
0020
0000
0130
0000
,
2000
0000
3010
0000
,
0200
0000
0310
0000
,
0002
0000
0013
0000
,
2000
0000
3100
0000
,
0000
0010
0001
1000
,
0000
0010
1000
0001
,
1000
0100
0010
0001
,
0011
0000
0000
0000
;

//---------------dance-single - C. Picardy----------------
#NOTEDATA:;
#CHARTNAME:;
#STEPSTYPE:dance-single;
#DESCRIPTION:C. Picardy;
#CHARTSTYLE:;
#DIFFICULTY:Medium;
#METER:6;
#RADARVALUES:0.434261,0.431176,0.239987,0.207988,0.063996,324.000000,30.000000,26.000000,0.000000,0.000000,1.000000,0.000000,0.000000,0.434261,0.431176,0.239987,0.207988,0.063996,324.000000,30.000000,26.000000,0.000000,0.000000,1.000000,0.000000,0.000000;
#CREDIT:C. Picardy;
#NOTES:
0000
0000
0000
0000
,
0000
0000
0000
0000
,
0000
0000
0000
0000
,
0000
0000
0000
0000
,
1010
0000
0000
0100
,
0011
0000
0000
1000
,
0101
0000
0000
0010
,
1100
0000
0000
0000
0100
0010
0100
0010
,
0200
0000
1300
0000
0001
0010
0001
0000
,
0200
0000
0310
0000
1000
0010
1000
0000
,
0200
0000
0310
0000
0100
1000
0100
0000
,
0020
0000
0031
0000
1000
0001
0100
0000
,
0010
1000
0100
1000
0010
0000
0110
0000
,
1000
0000
0000
1000
0000
0000
1000
0000
0000
0000
0001
0000
1000
0000
0000
0000
,
0100
0010
0001
0010
0100
0000
0011
0000
,
0100
0000
0000
0100
0000
0000
0100
0000
0000
0000
0001
0000
0100
0000
0000
0000
,
1000
0001
0100
0010
2000
0000
3000
0000
,
0001
0000
0000
0001
0000
0000
0100
0000
0000
0100
0000
0000
0010
0000
0000
0000
,
1000
0100
0010
0001
0200
0000
0000
0300
,
0010
0010
0100
0100
0010
0000
0110
0000
,
1000
0000
0000
0010
0100
0000
0000
0001
,
1000
0000
0000
0100
1000
0000
0000
0000
,
0001
0000
0000
0010
0010
0000
0000
0100
,
0100
0000
0000
1000
1000
0000
0000
0000
,
0001
0001
0000
0100
0001
0000
0000
0000
,
1000
1000
0000
0100
1000
0000
0000
0000
,
0010
0010
0000
0100
0010
0000
0000
0000
,
1000
1000
0000
0001
1000
0000
0000
0000
,
0001
0000
0000
1000
0000
0000
0100
0000
0000
0000
0000
0000
0010
0000
0000
0000
,
0001
0000
0000
0010
0000
0000
0001
0000
0000
0000
0000
0000
0100
0000
0000
0000
,
0010
0000
0000
0010
0000
0000
1000
0000
0000
0000
0000
0000
0001
0000
0000
0000
,
0100
0000
0000
0010
0000
0000
1000
0000
0000
0000
0100
0000
1000
0000
0000
0000
,
0100
0000
0010
0000
0001
0000
1000
0100
,
0010
0000
0100
0000
1000
0000
0010
1000
,
0100
0000
0010
0000
0001
0000
1000
0001
,
0400
0000
0000
0300
,
0002
0000
0200
0000
0003
0020
0300
2000
,
0000
0030
0200
3000
2000
0000
0000
0300
,
3200
0000
0020
0000
0300
0002
0000
0000
,
0030
2000
0003
0002
0000
0000
3003
0000
,
0010
1001
0100
1001
,
1000
0011
1000
0011
,
0001
1010
0001
1010
,
0001
1000
0001
2000
0200
0000
3300
0000
,
0000
0000
0010
0000
0000
0100
0000
0000
1000
0000
0000
0100
0000
0000
0000
0000
,
0000
0000
1000
0000
0000
0010
0000
0000
1000
0000
0000
0001
0000
0000
0000
0000
,
0000
0000
1000
0000
0000
0001
0000
0000
0001
0000
0000
0100
0000
0000
0000
0000
,
0000
0000
0010
0000
0000
1000
0000
0000
0001
0000
0000
1000
0000
0000
0000
0000
,
0000
0001
0100
0020
0000
0030
1000
0000
,
0000
0100
0010
0200
0000
0300
0010
0000
,
0000
0001
1000
0020
0000
0030
0100
0000
,
0001
1000
0010
0100
2002
0000
3003
0000
,
0001
0000
0100
0000
0010
1000
0010
0000
,
1000
0000
0100
0000
0010
0001
0010
0000
,
0100
0000
1000
0000
0100
0010
0100
0000
,
0010
0001
0010
0100
1000
0000
1001
0000
,
1000
0001
0100
0000
0010
0000
1000
0000
,
0100
0010
0001
0000
1000
0000
0010
0000
,
0100
0001
1000
0000
0010
0000
1000
0000
,
0100
1000
0010
0100
0001
0000
1100
0000
,
0010
0001
0100
0000
1010
0000
1001
0000
,
0001
0100
1000
0000
0101
0000
0110
0000
,
1000
0100
0010
0000
1100
0000
0011
0000
,
1000
0100
0001
0100
1000
0000
1001
0000
,
0010
0001
0100
0000
0110
0000
1010
0000
,
1000
0100
0001
0000
1100
0000
0110
0000
,
0010
0001
0100
0000
1010
0000
0101
0000
,
1000
0001
1000
0002
0200
0000
0303
0000
,
0001
0100
1000
0010
,
0001
0100
1000
0100
,
0001
0010
1000
0100
,
0001
0010
1000
0100
,
0001
1000
0010
0100
,
1000
0010
0100
0001
,
0000
0001
1000
0001
1000
0001
1000
0000
,
0000
0010
0100
0010
0100
0010
0100
0000
,
0000
0001
1000
0010
0100
0001
1000
0000
,
0110
0000
0000
0000
;

//---------------dance-single - C. Picardy----------------
#NOTEDATA:;
#CHARTNAME:;
#STEPSTYPE:dance-single;
#DESCRIPTION:C. Picardy;
#CHARTSTYLE:;
#DIFFICULTY:Hard;
#METER:9;
#RADARVALUES:0.615965,0.646764,0.183990,0.063996,0.603966,508.000000,23.000000,8.000000,14.000000,0.000000,10.000000,0.000000,0.000000,0.615965,0.646764,0.183990,0.063996,0.603966,508.000000,23.000000,8.000000,14.000000,0.000000,10.000000,0.000000,0.000000;
#CREDIT:C. Picardy;
#NOTES:
// measure 0
0000
0000
0000
0000
,  // measure 1
0000
0000
0000
0000
,  // measure 2
0000
0000
0000
0000
,  // measure 3
0000
0000
0000
0000
,  // measure 4
1000
0000
0000
0001
0000
0000
1000
0000
0000
0001
0000
0000
1000
0000
0000
0000
,  // measure 5
0100
0000
0000
1000
0000
0000
0100
0000
0000
1000
0000
0000
0100
0000
0000
0000
,  // measure 6
0010
0000
0000
0100
0000
0000
0010
0000
0000
0001
0000
0000
1000
0000
0000
0000
,  // measure 7
0101
0000
0000
0000
0000
0000
0001
0100
0000
0100
0001
0000
1001
0000
0000
0000
,  // measure 8
1000
0000
0000
0000
1100
0000
0000
0001
0100
0000
0010
0000
1000
0000
0001
0000
,  // measure 9
0100
0000
0000
0000
1010
0000
0000
0100
0010
0000
1000
0000
0100
0000
0010
0000
,  // measure 10
0100
0000
0000
0000
0011
0000
0000
1000
0001
0000
0010
0000
0001
0000
1000
0000
,  // measure 11
0010
0000
0000
0000
0101
0000
0000
1000
0010
0000
1000
0000
0001
0000
0000
0000
,  // measure 12
1000
0010
1000
0000
0100
0000
0010
0000
0002
0000
0000
0000
0103
0000
0000
0000
,  // measure 13
0010
0100
0000
0010
0100
0000
0010
0100
0000
0010
0100
0000
0010
0000
0000
0000
,  // measure 14
1000
0100
1000
0000
0001
0000
0010
0000
0200
0000
0000
0000
1300
0000
0000
0000
,  // measure 15
0001
0010
0000
0001
0010
0000
0001
0010
0000
0001
0010
0000
0001
0000
0000
0000
,  // measure 16
0100
0010
0100
0010
0100
0000
0010
0000
2000
0000
0000
0000
3001
0000
0000
0000
,  // measure 17
0100
0001
0000
1000
0001
0000
0100
0001
0000
0010
0001
0000
0010
0000
0000
0000
,  // measure 18
0001
1000
0001
1000
0001
0000
0100
0000
0020
0000
0000
0000
0000
0000
0030
0000
,  // measure 19
1000
0000
1010
0000
0001
0000
1001
0000
1000
0001
1000
0001
1000
0000
0000
0000
,  // measure 20
0100
0000
0000
1000
0000
0000
0100
0000
0010
0000
0000
0001
0000
0000
0010
0000
,  // measure 21
0100
0000
0000
1000
0000
0000
0001
0000
1000
0000
0000
1000
0000
0000
0010
0000
,  // measure 22
0100
0000
0000
0001
0000
0000
0010
0000
0001
0000
0000
1000
0000
0000
0010
0000
,  // measure 23
1000
0000
0000
0100
0000
0000
1000
0000
0010
0000
0000
0100
0000
0000
0000
0000
,  // measure 24
0010
0000
0100
0000
0000
0010
0000
0000
1000
0000
1000
0010
0000
0000
0000
0000
,  // measure 25
0100
0000
0001
0000
0000
0100
0000
0000
0010
0000
0010
0100
0000
0000
0000
0000
,  // measure 26
0001
0000
1000
0000
0000
0100
0000
0000
0010
0000
0010
0001
0000
0000
0000
0000
,  // measure 27
1000
0000
0001
0000
0100
0000
0001
0000
0010
0001
0010
0001
0010
0000
0000
0000
,  // measure 28
0001
0000
0000
1000
0000
0000
1100
0000
0000
0000
0010
0000
0100
0010
0100
0010
,  // measure 29
0100
0000
0000
0010
0000
0000
0011
0000
0000
0000
1000
0000
0010
1000
0010
1000
,  // measure 30
0010
0000
0000
1000
0000
0000
0110
0000
0000
0000
0001
0000
1000
0010
1000
0010
,  // measure 31
1000
0000
0000
0100
0000
0000
0011
0000
0000
0000
1000
0000
0001
0100
0001
0100
,  // measure 32
0001
0000
0100
0000
1000
0000
0100
0000
0010
0000
1000
0000
0100
1000
0100
0000
,  // measure 33
1000
0000
0100
0000
0001
0000
0100
0000
0010
0000
0100
0000
1000
0100
1000
0000
,  // measure 34
0001
0000
0010
0000
1000
0000
0010
0000
0001
0000
0100
0000
0010
0100
0010
0000
,  // measure 35
4000
0004
0000
0000
0000
0000
0000
0000
0000
0000
0000
0000
3003
0000
0000
0000
,  // measure 36
1000
0001
1000
0000
0001
0100
0000
0001
0000
1000
0001
0000
1000
0000
0100
0000
,  // measure 37
1000
0100
1000
0000
0001
1000
0000
0001
0000
0100
0000
0001
0000
1000
0000
0000
,  // measure 38
0001
0100
0001
0000
1000
0001
0000
1000
0000
0100
1000
0000
0001
0000
1000
0000
,  // measure 39
0100
1000
0100
0000
1000
0001
0000
2000
0002
0000
0000
0000
0000
0000
3003
0000
,  // measure 40
0100
0011
1000
1010
,  // measure 41
0100
1100
0011
0100
,  // measure 42
0010
1010
0001
1001
,  // measure 43
1000
0000
0001
0000
1000
0000
0001
0000
1000
0001
1000
0001
1000
0000
0000
0000
,  // measure 44
0000
0000
0100
0000
0000
0010
0000
0000
0001
0000
0000
0010
0000
0100
0000
0100
,  // measure 45
0010
0000
0001
0000
0000
1000
0000
0000
0010
0000
0000
1000
0000
0001
0000
0001
,  // measure 46
0100
0000
0010
0000
0000
1000
0000
0000
0100
0000
0000
0010
0000
0100
0000
0100
,  // measure 47
1000
0000
0100
0000
0000
0010
0000
0000
0100
0000
0000
0010
0000
0001
0000
0001
,  // measure 48
1000
0000
0001
0000
0100
0000
0010
0000
0000
0100
0010
0100
0000
0010
0000
1000
,  // measure 49
0001
0000
1000
0000
0100
0000
0010
0000
0000
0001
0010
0001
0000
0100
0000
0010
,  // measure 50
1000
0000
0010
0000
0100
0000
0010
0000
0000
1000
0001
1000
0000
0100
0000
0000
,  // measure 51
1000
0010
1010
0001
2002
0000
0000
3003
,  // measure 52
1000
0000
0100
0000
0010
0000
0000
0001
0000
1000
0000
0100
0000
1000
0010
0000
,  // measure 53
0100
0000
0010
0000
1000
0000
0000
0001
0000
0100
0000
0010
0000
1000
0010
0000
,  // measure 54
1000
0100
0010
0100
0001
0100
1000
0010
,  // measure 55
0001
0000
0010
0000
0100
0000
0000
0001
0000
0100
0010
0100
0000
0000
0000
0000
,  // measure 56
0001
0000
0100
0000
1000
0000
0000
0100
0000
0001
0000
1000
0000
0100
0001
0000
,  // measure 57
0100
0000
1000
0000
0010
0000
0000
0001
0000
0010
0000
1000
0000
0010
0001
0000
,  // measure 58
1000
0100
0010
0100
1000
0100
0001
0100
,  // measure 59
0010
0000
1000
0000
0001
0000
0000
0000
0100
0010
0000
0010
0100
0000
0000
0000
,  // measure 60
0001
0100
1000
0100
0010
0100
1000
0100
,  // measure 61
0001
0100
0010
0100
0001
0100
0010
0100
,  // measure 62
1000
0100
0010
0100
1000
0100
0001
0100
,  // measure 63
1000
0100
1000
0100
0001
0100
0010
1000
,  // measure 64
0100
0010
0001
0010
0100
0010
1000
0010
,  // measure 65
0100
0010
1000
0010
0001
0010
0100
1000
,  // measure 66
0100
0001
0100
0010
1000
0010
0001
0000
,  // measure 67
1000
0000
1010
0000
0001
0000
1001
0000
0100
0010
0100
0010
0100
0010
0100
0010
,  // measure 68
0100
0000
0010
0000
1000
0000
0100
1000
,  // measure 69
0100
0000
0010
0000
0001
0000
0001
0010
,  // measure 70
0001
0000
1000
0000
0010
0000
1000
0010
,  // measure 71
1000
0000
0001
0000
0100
0000
0001
0100
,  // measure 72
1000
0000
0100
0000
0001
0000
0010
1000
,  // measure 73
0010
0000
1000
0000
0001
1000
0100
0110
,  // measure 74
0000
M040
0004
0M00
0000
M000
0000
0M00
0000
M000
0000
0M00
0000
M000
0033
0000
,  // measure 75
0000
04M0
4000
000M
0000
00M0
0000
000M
0000
00M0
0000
000M
0000
00M0
3300
0000
,  // measure 76
0000
0004
4000
0000
0000
0000
0000
3003
0400
0040
0000
0000
0000
0000
0000
0330
,  // measure 77
0001
0000
0000
0000
;
