#TITLE:Future Fuckballs 2010;
#SUBTITLE:;
#ARTIST:Distant/AVGN Adventures;
#TITLETRANSLIT:;
#SUBTITLETRANSLIT:;
#ARTISTTRANSLIT:;
#GENRE:;
#CREDIT:;
#BANNER:futurefuckballsbn.png;
#BACKGROUND:futurefuckballsbg.png;
#LYRICSPATH:;
#CDTITLE:;
#MUSIC:futurefuckballs2010.ogg;
#OFFSET:-0.061521;
#SAMPLESTART:39.616009;
#SAMPLELENGTH:16.720003;
#SELECTABLE:YES;
#BPMS:0.000000=144.009995
;
#STOPS:
;
#BGCHANGES:;
#KEYSOUNDS:;
#ATTACKS:;

//---------------dance-single - C. Picardy----------------
#NOTES:
     dance-single:
     :
     Beginner:
     1:
     0.080365,0.087150,0.064555,0.073778,0.000000,46.000000,7.000000,8.000000,0.000000,0.000000,0.000000,0.080365,0.087150,0.064555,0.073778,0.000000,46.000000,7.000000,8.000000,0.000000,0.000000,0.000000:
0000
0000
0000
0000
,
0000
0000
0000
0000
,
0000
0000
0000
0000
,
0000
0000
0000
0000
,
0010
0000
0000
0000
,
0000
0000
0000
0000
,
0100
0000
0000
0000
,
0000
0000
0000
0000
,
1000
0000
0000
0000
,
0100
0000
0000
0000
,
0010
0000
0000
0000
,
0001
0000
0000
0000
,
0100
0000
0000
0000
,
1000
0000
0000
0000
,
0010
0000
0000
0000
,
0100
0000
0000
0000
,
1001
0000
0000
0000
,
0010
0000
0000
0000
,
1001
0000
0000
0000
,
0100
0000
0000
0000
,
1001
0000
0000
0000
,
0001
0000
0000
0000
,
1000
0000
0000
0000
,
0100
0000
0000
0000
,
0020
0000
0000
0000
,
0030
0000
0000
0000
,
0002
0000
0000
0000
,
0003
0000
0000
0000
,
2000
0000
0000
0000
,
3000
0000
0000
0000
,
0020
0000
0000
0000
,
0030
0000
0000
0000
,
1000
0000
0000
0000
,
0000
0000
0000
0000
,
0010
0000
0000
0000
,
0000
0000
0000
0000
,
0100
0000
0000
0000
,
0000
0000
0000
0000
,
0001
0000
0000
0000
,
0000
0000
0000
0000
,
1000
0000
0000
0000
,
1000
0000
0000
0000
,
0100
0000
0000
0000
,
0100
0000
0000
0000
,
0001
0000
0000
0000
,
0001
0000
0000
0000
,
0010
0000
0000
0000
,
0010
0000
0000
0000
,
1000
0000
0000
0000
,
1001
0000
0000
0000
,
0010
0000
0000
0000
,
1001
0000
0000
0000
,
0010
0000
0000
0000
,
1001
0000
0000
0000
,
0100
0000
0000
0000
,
1001
0000
0000
0000
,
0002
0000
0000
0000
,
0003
0000
0000
0000
,
2000
0000
0000
0000
,
3000
0000
0000
0000
,
0020
0000
0000
0000
,
0030
0000
0000
0000
,
0200
0000
0000
0000
,
0300
0000
0000
0000
;

//---------------dance-single - C. Picardy----------------
#NOTES:
     dance-single:
     :
     Easy:
     4:
     0.283253,0.324621,0.147555,0.414999,0.000000,154.000000,16.000000,45.000000,0.000000,0.000000,0.000000,0.283253,0.324621,0.147555,0.414999,0.000000,154.000000,16.000000,45.000000,0.000000,0.000000,0.000000:
0000
0000
0000
0000
,
0000
0000
0000
0000
,
0000
0000
0000
0000
,
0000
0000
0000
0000
,
0001
0000
0001
0000
,
0100
0000
0100
0000
,
0010
0000
1000
0000
,
0001
1000
0001
0100
,
0001
0000
0100
0000
,
0010
1000
0010
0000
,
1000
0000
0100
0000
,
0100
0010
0001
0000
,
0010
0000
0100
0000
,
1000
0000
0010
0000
,
0100
0000
0001
0000
,
1000
0001
0000
1000
,
0200
0300
0200
0300
,
0010
0002
0003
0000
,
0200
0300
0002
0003
,
0100
0020
0030
0000
,
2000
3000
0020
0030
,
1000
0002
0003
0000
,
0002
0003
0020
0030
,
0002
2003
3000
0100
,
2000
3010
0200
0310
,
0200
0302
0000
0003
,
2000
3001
0020
0031
,
0100
0020
0000
0030
,
2000
3001
2000
3100
,
2000
3020
0000
0030
,
0200
0310
2000
3100
,
0020
0002
0033
0000
,
0001
0000
1001
0000
,
1000
0000
1001
0000
,
0010
0000
0110
0000
,
1000
0000
0110
0000
,
0001
0100
0100
0000
,
0001
0010
0010
0000
,
0100
1000
1000
0000
,
1000
0100
1000
0001
,
0100
0000
0101
0000
,
0010
0000
0110
0000
,
1000
0010
1000
0001
,
1000
0100
0010
0000
,
0001
0000
1100
0000
,
0010
0001
1000
1000
,
0010
0000
0110
0000
,
0001
0001
0000
1000
,
0002
0003
2000
3000
,
0020
0030
1000
0000
,
0020
0030
0200
0300
,
0002
0003
0010
0000
,
0200
0300
2000
3000
,
0020
0030
1000
0000
,
0020
0030
0200
0300
,
0002
0003
0000
1000
,
1001
0001
0100
0010
,
1000
0200
0300
0000
,
0110
0001
1000
0010
,
0100
0020
0030
0000
,
0110
1000
0110
0001
,
0100
0002
0003
0000
,
0110
0001
0110
1000
,
0001
2002
0000
3003
,
1001
0000
0000
0000
;

//---------------dance-single - C. Picardy----------------
#NOTES:
     dance-single:
     :
     Medium:
     6:
     0.457158,0.472177,0.331999,0.295110,0.000000,279.000000,36.000000,32.000000,0.000000,0.000000,0.000000,0.457158,0.472177,0.331999,0.295110,0.000000,279.000000,36.000000,32.000000,0.000000,0.000000,0.000000:
0000
0000
0000
0000
,
0000
0000
0000
0000
,
0000
0000
0000
0000
,
0000
0000
0000
0000
,
1000
0100
0000
1000
0001
1000
0000
0001
,
0100
0001
0000
0020
0000
0000
0031
0000
,
0100
0001
0000
0100
0001
0100
0000
0100
,
0010
0100
0000
0020
0000
0000
1030
0010
,
0100
0000
0001
0100
0010
0000
0010
1000
,
0100
0000
0000
1000
0010
0000
0000
0010
,
0100
0000
0001
0000
0110
0000
0000
1000
,
0100
0000
1000
0001
0010
0000
0000
0000
,
0001
0001
0001
0000
0010
0010
0010
0000
,
0100
0000
0000
0100
0010
0100
1000
0000
,
0010
0000
0000
0100
0010
0000
0000
0100
,
0010
0000
1010
0000
0000
0000
0001
1000
,
0100
1100
0010
1010
,
0100
0001
0020
0000
0001
0000
0031
0000
,
0001
0101
0010
0101
,
0001
0100
0020
0000
1000
0000
1030
0000
,
0100
1010
0100
1001
,
0001
2000
0100
0000
0100
0000
3010
0000
,
0202
0303
0220
0330
,
0100
0001
0020
0000
0030
0000
0001
0100
,
0010
0100
0010
0000
0010
1000
0010
0000
,
0010
0100
0020
0000
1000
0000
0130
0000
,
1000
0100
1000
0000
1000
0001
1000
0000
,
1000
0001
0020
0000
0001
0000
0130
0000
,
0001
0101
0010
0110
,
0001
0100
2000
0000
3100
0000
0110
0000
,
0001
0011
1000
1010
,
1000
0100
0002
0000
0003
0000
0110
0000
,
1000
1000
1000
0000
0001
0001
0001
0000
,
0010
0010
0010
0000
0100
0100
0100
0000
,
0010
0010
0002
0000
0103
0100
0020
0000
,
1030
1000
0020
0000
1030
1000
0200
0000
,
1300
0001
0000
0001
1000
0001
0000
0001
,
0100
0001
0000
0020
0000
0000
0130
0000
,
1000
0010
0000
1000
0100
1000
0000
0010
,
1000
0010
0000
0020
0000
0000
0030
0000
,
0100
0100
0000
0001
0010
0000
0000
0100
,
0100
0000
0000
1000
0010
0000
0000
0100
,
0001
0000
0100
0000
0010
0100
0000
0100
,
0010
0000
0010
1000
0001
0000
0000
0000
,
1000
0010
0000
0010
1000
0000
0001
0100
,
0010
0000
0000
0100
0001
0000
1000
0000
,
0020
0230
0302
2003
,
0010
0010
3010
0000
0000
0000
0100
0001
,
0100
0101
0100
0110
,
0010
1000
0200
0000
0000
0000
0310
0000
,
0100
1100
0100
0110
,
0001
0100
0020
0000
0000
0000
0130
0000
,
0010
1010
0010
0011
,
1000
0100
0002
0000
0000
0000
0103
0000
,
1000
1100
0001
0101
,
0001
0100
2000
0000
0000
0000
3100
0010
,
1000
0110
0001
0110
,
1000
0100
0020
0000
0001
0000
1030
0000
,
0001
0011
1000
1010
,
0010
1000
0200
0000
0010
0000
0301
0000
,
1100
0001
0101
0110
,
1000
0001
0100
0000
0101
0000
0110
0000
,
1000
0110
0001
1100
,
1000
0002
2000
0000
0000
0000
3003
0000
,
1001
0000
0000
0000
;

//---------------dance-single - C. Picardy----------------
#NOTES:
     dance-single:
     :
     Hard:
     8:
     0.537522,0.472177,0.341221,0.138333,0.133722,356.000000,37.000000,15.000000,14.000000,0.000000,0.000000,0.537522,0.472177,0.341221,0.138333,0.133722,356.000000,37.000000,15.000000,14.000000,0.000000,0.000000:
0000
0000
0000
0000
,
0000
0000
0000
0000
,
0000
0000
0000
0000
,
0000
0000
0000
0000
,
0100
0001
M001
0100
M001
0001
M100
0100
,
0001
0100
0010
0110
0000
0010
1000
0100
,
100M
0100
010M
1000
010M
0100
1000
1000
,
0010
0010
0100
0110
0000
0000
0001
0100
,
0010
0100
1000
0100
0010
0100
0001
0010
,
0100
0000
0000
0100
0000
0000
1000
0000
0001
0000
0000
0000
0000
0000
1000
0000
,
0100
0000
0000
0000
1100
0000
0000
0000
0100
0000
0000
0010
0000
0000
0100
0000
,
0010
0001
0010
0100
2000
0000
3M10
0000
,
0100
0100
0010
0100
0010
0010
1000
0010
,
0100
0000
0000
0001
0000
0000
1000
0000
0100
0000
0010
0000
0001
0000
0000
0000
,
1000
0000
0000
0100
0000
0000
1000
0000
0001
0000
0000
1000
0000
0000
0001
0000
,
1000
0100
0010
0000
M00M
0000
0001
0010
,
0001
0000
0000
1000
0000
0000
0001
0000
0010
0000
0000
0100
0000
0000
1000
0000
,
0100
0000
0010
0000
0100
0000
1000
0000
0010
0000
0000
0010
0000
0000
0100
0000
,
0001
0000
0000
1000
0000
0000
0001
0000
0010
0000
0000
0100
0000
0000
1000
0000
,
0010
0000
1000
0000
0100
0000
1000
0000
0001
0000
0000
0001
0000
0000
1000
0000
,
0010
0000
0000
1000
0000
0000
0010
0000
1000
0000
0000
0010
0000
0000
1000
0000
,
0010
0000
1000
0000
0010
0000
1000
0000
0100
0000
0000
0100
0000
0000
0100
0000
,
0010
0000
0000
0100
0000
0000
1000
0000
0100
0000
0000
0010
0000
0000
0100
0000
,
1000
0100
0020
0000
0030
0000
0001
0100
,
0010
0101
0010
0101
,
1000
0100
0020
0000
0001
0000
1030
0000
,
0100
1010
0100
1010
,
0001
0200
1000
0000
0010
0000
1300
0000
,
0110
1000
0110
0001
,
1000
0200
0010
0000
0001
0000
1300
0000
,
1100
0001
0101
1000
,
0001
0100
0220
0000
0000
0330
0110
0000
,
0001
0100
0010
0100
0001
0001
0010
0010
,
0001
0100
0001
0010
0000
0100
1000
0010
,
1000
0010
0010
1000
0010
0010
1000
1000
,
0010
0100
0010
1000
0000
0000
1MM1
0000
,
0001
0001
1000
1000
0100
0100
1000
1000
,
0010
0010
0100
0001
0000
0010
0010
0001
,
0100
0100
0010
0010
1000
1000
0010
0010
,
1000
0010
1000
0001
0000
0000
1000
0001
,
0100
0010
0001
0010
0100
0010
0001
0010
,
1000
0000
0000
1000
0000
0000
0010
0000
0100
0000
0000
0000
0000
0000
0001
0000
,
0010
0000
0000
0000
0011
0000
0000
0000
0001
0000
0000
1000
0000
0000
0100
0000
,
1000
0010
1000
0100
0010
0000
1001
0000
,
0001
0100
0010
0100
0001
0100
0010
1000
,
0001
0000
0000
0010
0000
0000
0001
0000
1000
0000
0001
0000
0100
0000
0000
0000
,
0010
0000
0000
0110
0000
0000
1000
0000
0010
0000
0000
0110
0000
0000
0100
0000
,
0001
0010
0100
0000
0010
0010
0010
0100
,
0010
0000
0000
0110
0000
0000
0001
0000
1000
0000
0000
1001
0000
0000
1000
0000
,
0100
0000
0000
1100
0000
0000
1000
0000
0010
0000
0000
1010
0000
0000
0001
0000
,
0010
0000
0000
0011
0000
0000
1000
0000
0001
0000
0000
0101
0000
0000
0001
0000
,
1000
0000
0000
1010
0000
0000
1000
0000
0100
0000
0000
1100
0000
0000
0100
0000
,
0020
0030
M002
0003
,
0001
0100
0020
0000
0000
0000
M030
0000
,
2000
3000
0202
0303
,
0001
0100
2000
0000
0M00
0000
3100
0001
,
0010
0001
1000
0001
0100
0001
0010
0001
,
0100
0001
1000
0001
0100
0000
0011
0000
,
0001
0010
0100
0010
0001
0010
0100
0010
,
1000
0010
0100
0010
0001
0000
0110
0000
,
1010
0001
0101
0110
,
1000
0010
1010
0000
1100
0000
0010
0000
,
0011
0001
0100
0000
1010
1000
0100
0000
,
0001
0100
0020
0000
0000
0100
0130
0000
,
1001
0000
0000
0000
;

//---------------dance-single - C. Picardy----------------
#NOTES:
     dance-single:
     :
     Challenge:
     9:
     0.649506,0.651779,0.258222,0.276666,0.331999,435.000000,28.000000,30.000000,2.000000,9.000000,0.000000,0.649506,0.651779,0.258222,0.276666,0.331999,435.000000,28.000000,30.000000,2.000000,9.000000,0.000000:
// measure 0
0000
0000
0000
0000
,  // measure 1
0000
0000
0000
0000
,  // measure 2
0000
0000
0000
0000
,  // measure 3
0000
0000
0000
0000
,  // measure 4
1000
0010
1000
0000
0100
0000
0010
0000
0001
0010
0001
0000
0100
0000
0010
0000
,  // measure 5
1000
0010
0010
2010
0000
3100
0010
0001
,  // measure 6
0100
0001
0100
0000
0010
0000
1000
0000
0100
1000
0100
0000
0010
0000
0001
0000
,  // measure 7
0100
0000
0100
0000
0010
0000
0120
0000
0000
0000
0000
0030
0100
0000
0001
0000
,  // measure 8
0010
0001
0010
0000
0100
0000
1000
0000
0010
1000
0010
0000
0100
0000
0001
0000
,  // measure 9
1000
0000
0000
0001
0000
0000
0100
0000
0010
0000
0000
0000
0000
0000
0100
0000
,  // measure 10
0010
0000
0000
0000
1001
0000
0000
0000
1000
0000
0000
0001
0000
0000
0100
0000
,  // measure 11
0010
1000
0100
0010
2200
0000
0010
3300
,  // measure 12
1000
1000
0001
0001
0100
0100
0010
0010
,  // measure 13
1000
0000
0000
0001
0000
0000
0100
0000
0010
0000
1000
0000
0001
0000
0000
0000
,  // measure 14
1000
0000
0000
0110
0000
0000
0001
0000
1000
0000
0000
0110
0000
0000
1000
0000
,  // measure 15
0100
0010
0001
0000
2000
0010
0010
3010
,  // measure 16
0100
0000
0000
0010
0000
0000
1000
0000
0100
0000
0000
0010
0000
0000
0100
0000
,  // measure 17
1000
0000
0010
0000
0001
0000
0010
0000
1000
0000
0000
0001
0000
0000
0100
0000
,  // measure 18
1000
0000
0000
0100
0000
0000
0001
0000
0010
0000
0000
0100
0000
0000
1000
0000
,  // measure 19
0010
0000
0001
0000
0010
0000
1000
0000
0100
0000
0000
0010
0000
0000
0001
0000
,  // measure 20
1000
0000
0000
1010
0000
0000
0001
0000
0010
0000
0000
1100
0000
0000
0010
0000
,  // measure 21
0001
0000
0010
0000
0100
0000
1000
0000
0010
0000
0000
0010
0000
0000
0100
0000
,  // measure 22
0001
0000
0000
0011
0000
0000
0100
0000
1000
0000
0000
1001
0000
0000
1000
0000
,  // measure 23
0001
0200
0020
0000
0000
0330
1000
0001
,  // measure 24
0100
0001
1000
0000
0100
0000
0010
0000
0001
0010
0100
0000
1000
0000
0100
0000
,  // measure 25
0010
0001
0010
0001
0010
0000
0100
0000
1000
0000
0100
0000
0001
0000
0100
0000
,  // measure 26
1000
0001
0010
0000
0100
0000
1000
0000
0010
1000
0100
0000
1000
0000
0100
0000
,  // measure 27
1000
0010
1000
0010
1000
0000
0001
0000
0100
0000
0010
0000
1000
0000
0001
0000
,  // measure 28
1000
0001
0100
0000
0010
0000
1000
0000
0001
0010
0100
0000
1000
0000
0100
0000
,  // measure 29
0010
0100
1000
0010
0100
0000
0001
0000
0100
0000
1000
0000
0100
0000
0001
0000
,  // measure 30
0010
0001
0100
0000
0010
0000
1000
0000
0100
1000
0010
0000
0100
0000
0001
0000
,  // measure 31
1000
0100
1000
0200
2000
0000
0000
0000
0000
3300
1001
0000
1001
0000
M00M
0000
,  // measure 32
0001
0010
0001
0000
0100
0000
0010
0000
1000
0100
1000
0000
0010
0000
0100
0000
,  // measure 33
0001
0010
0001
0010
0001
0000
2000
0000
0000
0000
0001
0000
0100
0000
3100
0000
,  // measure 34
1000
0010
1000
0000
0001
0000
0100
0000
0010
1000
0010
0000
0100
0000
0001
0000
,  // measure 35
1000
0010
1000
0010
1000
0000
0002
0000
0000
0000
0010
0000
1000
0000
1003
0000
,  // measure 36
0001
0100
0010
0000
1000
0000
0001
0000
0010
0100
1000
0000
0001
0000
0100
0000
,  // measure 37
0010
1000
0001
0100
0001
0000
0200
0000
0000
0000
0010
0000
0001
0000
0310
0000
,  // measure 38
1000
0100
1000
0100
1000
0000
0001
0000
0010
0001
0010
0001
0010
0000
0100
0000
,  // measure 39
1000
0001
1000
0001
0200
0000
0020
0000
0000
0000
0000
0330
1000
0000
0100
0000
,  // measure 40
0001
1000
0010
0001
1000
0010
0001
1000
,  // measure 41
0100
0000
0000
0010
0000
0000
1000
0000
1001
0000
0000
0000
0000
0000
0100
0000
,  // measure 42
0110
0000
0000
0000
1010
0000
0000
0000
0001
0000
0000
1000
0000
0000
0100
0000
,  // measure 43
0010
0001
0100
0010
2002
0000
0010
3003
,  // measure 44
0100
1000
0001
0010
1000
0001
0100
1000
,  // measure 45
1100
0000
0000
0001
0000
0000
1000
0000
0100
0000
1000
0000
1001
0000
0000
0000
,  // measure 46
0100
0000
0000
0011
0000
0000
0100
0000
0010
0000
0000
1100
0000
0000
0001
0000
,  // measure 47
0010
0100
1000
0000
0010
0100
0010
0100
,  // measure 48
0001
0000
0000
1010
0000
0000
0001
0000
1000
0000
0000
0011
0000
0000
1000
0000
,  // measure 49
0100
0000
0010
0000
0001
0000
0010
0000
0100
0000
0000
1001
0000
0000
0100
0000
,  // measure 50
0010
0000
0000
0101
0000
0000
1000
0000
0010
0000
0000
0110
0000
0000
0001
0000
,  // measure 51
0010
0000
0100
0000
1000
0000
0100
0000
0010
0000
0000
0010
0000
0000
0000
0000
,  // measure 52
1000
0000
0000
0001
0000
0000
0100
0000
0010
0000
0000
1000
0000
0000
0100
0000
,  // measure 53
0010
0000
0001
0000
0010
0000
0100
0000
1000
0000
0000
1000
0000
0000
0100
0000
,  // measure 54
0020
0000
0032
0000
,  // measure 55
0103
0000
0002
0000
0020
0000
0000
0000
0033
0000
0000
0000
0100
0010
0100
0010
,  // measure 56
0100
1000
0010
0100
1000
0100
0010
0001
,  // measure 57
1000
0100
0001
0010
0100
1000
0100
0001
,  // measure 58
1000
0010
0001
1000
0100
0001
1000
0010
,  // measure 59
0001
0100
1000
0100
0010
0000
1000
0000
,  // measure 60
2002
0000
0010
0003
0002
0000
0010
3003
,  // measure 61
0001
2000
0200
0000
0010
0000
0001
3300
,  // measure 62
0202
0000
0010
0003
0002
0000
1000
0303
,  // measure 63
0010
0200
0002
0000
0000
0000
0000
0000
,  // measure 64
1010
0303
0000
0000
;
