#TITLE:Flying High (Speed Mix);
#SUBTITLE:;
#ARTIST:DJ Splash;
#TITLETRANSLIT:;
#SUBTITLETRANSLIT:;
#ARTISTTRANSLIT:;
#GENRE:;
#CREDIT:;
#BANNER:flyinghighbn.png;
#BACKGROUND:flyinghighbg.png;
#LYRICSPATH:;
#CDTITLE:;
#MUSIC:flyinghigh.ogg;
#OFFSET:-1.203703;
#SAMPLESTART:80.239998;
#SAMPLELENGTH:10.899999;
#SELECTABLE:YES;
#BPMS:0.000000=176.100006
;
#STOPS:
;
#BGCHANGES:;
#KEYSOUNDS:;
#ATTACKS:;

//---------------dance-single - C. Picardy----------------
#NOTES:
     dance-single:
     :
     Beginner:
     1:
     0.094030,0.173956,0.028209,0.000000,0.000000,70.000000,67.000000,3.000000,0.000000,0.000000,0.000000,0.094030,0.173956,0.028209,0.000000,0.000000,70.000000,67.000000,3.000000,0.000000,0.000000,0.000000:
0000
0000
0000
0000
,
0000
0000
0000
0000
,
0000
0000
0000
0000
,
0000
0000
0000
0000
,
1000
0000
0000
0000
,
0000
0000
0000
0000
,
0001
0000
0000
0000
,
0000
0000
0000
0000
,
0100
0000
0000
0000
,
0000
0000
0000
0000
,
0010
0000
0000
0000
,
0000
0000
0000
0000
,
1000
0000
0000
0000
,
0000
0000
0000
0000
,
0001
0000
0000
0000
,
0000
0000
0000
0000
,
0100
0000
0000
0000
,
1001
0000
0000
0000
,
0010
0000
0000
0000
,
0100
0000
0000
0000
,
0001
0000
0000
0000
,
1000
0000
0000
0000
,
0100
0000
0000
0000
,
0010
0000
0000
0000
,
0001
0000
0000
0000
,
1001
0000
0000
0000
,
1000
0000
1000
0000
,
1000
0000
0000
0000
,
0001
0000
0001
0000
,
0001
0000
0000
0000
,
0100
0000
0100
0000
,
0100
0000
0000
0000
,
0010
0000
0000
0000
,
0100
0000
0000
0000
,
0000
0000
0000
0000
,
0001
0000
0000
0000
,
0000
0000
0000
0000
,
1000
0000
0000
0000
,
0000
0000
0000
0000
,
0010
0000
0000
0000
,
0000
0000
0000
0000
,
1000
0000
0000
0000
,
1000
0000
0000
0000
,
0001
0000
0000
0000
,
0001
0000
0000
0000
,
0100
0000
0000
0000
,
0100
0000
0000
0000
,
0010
0000
0010
0000
,
0010
0000
0000
0000
,
0000
0000
0000
0000
,
1000
0000
0000
0000
,
0100
0000
0000
0000
,
0010
0000
0000
0000
,
0001
0000
0000
0000
,
0010
0000
0000
0000
,
0100
0000
0000
0000
,
1000
0000
0000
0000
,
0100
0000
0000
0000
,
0110
0000
0000
0000
,
0001
0000
0001
0000
,
0001
0000
0000
0000
,
0100
0000
0000
0000
,
0010
0000
0010
0000
,
0010
0000
0000
0000
,
1000
0000
0000
0000
,
0100
0000
0100
0000
,
0100
0000
0000
0000
,
0010
0000
0000
0000
,
0100
0000
0000
0000
,
0001
0000
0000
0000
,
1000
0000
0000
0000
,
0010
0000
0000
0000
,
0100
0000
0000
0000
,
0010
0000
0000
0000
,
1000
0000
0000
0000
;

//---------------dance-single - C. Picardy----------------
#NOTES:
     dance-single:
     :
     Easy:
     4:
     0.304926,0.417493,0.169254,0.065821,0.000000,227.000000,209.000000,18.000000,7.000000,0.000000,0.000000,0.304926,0.417493,0.169254,0.065821,0.000000,227.000000,209.000000,18.000000,7.000000,0.000000,0.000000:
0000
0000
0000
0000
,
0000
0000
0000
0000
,
0000
0000
0000
0000
,
0000
0000
0000
0000
,
1000
0000
0000
0000
,
0100
0000
0000
0000
,
0010
0000
0000
0000
,
0001
0000
0000
0000
,
0100
0000
0010
0000
,
1000
0000
0001
0000
,
0010
0000
0100
0000
,
1000
0000
0001
0000
,
0100
0000
0001
0000
,
1000
0000
0010
0000
,
0100
0000
0001
0000
,
2000
0000
0000
0000
,
3001
0000
0000
0000
,
0110
0000
1000
0001
,
0200
0000
0320
0000
,
1030
0000
0001
0100
,
0001
0100
0010
1000
,
0010
0000
1000
1000
,
0200
0000
0320
0000
,
0031
0000
1000
0001
,
0100
0001
0010
0000
,
1001
0000
0100
0010
,
0100
0001
0100
0001
,
1000
0001
1000
0001
,
1000
0100
1000
0100
,
0010
0100
1000
0100
,
0010
0001
0010
0100
,
0010
0001
0100
0001
,
0010
0100
1000
0001
,
0100
0000
0010
0000
,
1000
0000
0001
0000
,
0010
0000
0100
0100
,
1000
0000
0100
0000
,
0010
0000
0001
0000
,
1000
0000
0010
0000
,
0100
0000
0001
0001
,
0200
0000
0000
0000
,
0310
0000
1000
0000
,
0001
1000
0100
0000
,
0010
0000
0001
0000
,
0100
0001
1000
0000
,
0110
0000
0001
0000
,
1001
0000
0010
0000
,
0110
0000
1010
0000
,
0101
1100
0101
1000
,
0000
0001
0002
0003
,
1000
0100
1000
0100
,
0010
0100
0010
0100
,
0010
0001
0010
0001
,
1000
0001
1000
0001
,
0100
0010
1000
0010
,
0100
0001
0010
0001
,
1000
0100
0010
0001
,
1000
0100
0010
0000
,
1001
0100
0010
1000
,
0100
0100
0010
0010
,
0001
1000
0100
0010
,
0100
1000
1000
0001
,
0100
0010
1000
0001
,
0010
0010
0100
0100
,
1000
0100
0001
0100
,
1000
0001
0100
0010
,
1001
0100
0010
0100
,
1001
0010
1000
0001
,
0110
1000
0100
0010
,
1001
0010
0001
0100
,
0110
1000
0001
0100
,
1001
0010
1000
0100
,
0110
0001
1000
0100
,
1001
0010
0001
1000
,
0100
0000
0000
0000
;

//---------------dance-single - C. Picardy----------------
#NOTES:
     dance-single:
     :
     Medium:
     6:
     0.381493,0.487076,0.141045,0.253881,0.000000,284.000000,269.000000,15.000000,27.000000,0.000000,0.000000,0.381493,0.487076,0.141045,0.253881,0.000000,284.000000,269.000000,15.000000,27.000000,0.000000,0.000000:
0000
0000
0000
0000
,
0000
0000
0000
0000
,
0000
0000
0000
0000
,
0000
0000
0000
0000
,
1000
0000
0001
0000
,
0100
0000
0010
0000
,
1000
0000
0100
0100
,
0010
0000
0001
1000
,
0100
0100
0010
0010
,
0001
0001
1000
1000
,
0020
0000
0130
0001
,
1000
0000
0100
0100
,
0010
0001
1000
0001
,
0010
0001
1000
0010
,
0100
0001
1000
0100
,
0020
0000
0000
0100
,
0230
0000
0000
0000
,
0310
0001
1000
0100
,
0020
0031
0200
0310
,
1000
0001
0010
0100
,
1000
0000
0100
1000
0100
0000
0010
0000
,
0001
1000
0010
0100
,
0002
0013
0200
0310
,
0001
1000
0010
0100
,
0001
0000
0010
0001
0010
0000
0000
0000
,
1001
0100
0010
1000
,
0200
0010
2300
0010
,
3001
0100
0010
1000
,
0100
0000
1000
0010
1000
0000
0010
0000
,
0101
1000
0010
0100
,
0002
0010
0203
1000
,
0301
1000
0100
0010
,
1001
0000
0100
0010
0100
0000
0001
0000
,
2000
0000
3200
0000
,
0302
0000
0203
0000
,
0320
0000
0032
0000
,
0103
0000
0010
0010
,
1000
0000
0000
0001
0001
0000
1000
0000
,
1000
0000
0000
0100
0100
0000
0010
0000
,
0001
0000
0000
0010
0010
0000
0100
0000
,
2000
0000
0000
3000
,
0001
0100
0010
0000
,
1000
0000
0001
1000
0100
0000
0010
0000
,
0001
0000
1000
1000
,
0100
0000
0010
0001
0100
0000
0000
0000
,
0110
0000
1000
0100
,
0011
0000
1000
0010
,
0101
0010
0110
1000
,
0101
1100
0101
0001
,
0000
0000
1000
1000
0002
0000
0003
0000
,
1000
0000
0001
0010
0001
0000
1000
0000
,
0100
0000
0010
0001
0010
0000
1000
0000
,
0100
0000
0010
0000
0100
0000
1000
0100
,
0010
0000
0100
0010
0001
0000
0001
0000
,
1000
0000
0010
0100
0010
0000
1000
0000
,
0100
0000
0010
0100
0010
0000
0001
1000
,
0001
0000
1000
0000
0100
0000
0010
0001
,
0100
0000
0010
1000
0100
0000
0000
0000
,
1001
0100
0010
1000
,
0200
0010
0001
1000
,
0310
0001
0100
0010
,
1000
0000
0100
0010
0100
0000
1000
0000
,
0101
0010
1000
0001
,
0200
0010
1000
1000
,
0301
0010
0100
0010
,
0001
0000
1000
0100
0010
0000
0001
0000
,
1100
0010
0002
1003
,
0200
0010
2300
0010
,
3100
0010
0001
1000
,
0010
0000
0100
0001
0010
0000
0100
0000
,
1001
0100
0020
1030
,
0002
0010
2003
0001
,
3010
0100
0001
0010
,
1001
0000
0100
0010
0100
0000
0001
0000
,
1000
0000
0000
0000
;

//---------------dance-single - C. Picardy----------------
#NOTES:
     dance-single:
     :
     Hard:
     7:
     0.498359,0.521867,0.329105,0.009403,0.000000,371.000000,336.000000,35.000000,1.000000,0.000000,0.000000,0.498359,0.521867,0.329105,0.009403,0.000000,371.000000,336.000000,35.000000,1.000000,0.000000,0.000000:
// measure 0
0000
0000
0000
0000
,  // measure 1
0000
0000
0000
0000
,  // measure 2
0000
0000
0000
0000
,  // measure 3
0000
0000
0000
0000
,  // measure 4
1000
0000
0000
0000
0001
0000
0000
0100
,  // measure 5
0100
0000
0010
0010
,  // measure 6
1000
0000
0010
1000
,  // measure 7
0100
0000
0010
0100
0010
0000
0001
0000
,  // measure 8
0100
0000
0001
0000
0010
0000
0001
0100
,  // measure 9
1000
0000
0100
0000
0001
0000
1000
0100
,  // measure 10
0001
0000
0100
0100
,  // measure 11
1000
0000
0010
0100
,  // measure 12
0001
0000
1000
0100
0010
0000
0001
0000
,  // measure 13
1000
0000
0100
0010
0001
0000
1000
0000
,  // measure 14
0010
0000
0100
0010
1000
0000
0001
0000
,  // measure 15
0002
0000
0000
1000
,  // measure 16
1003
0000
0000
0000
,  // measure 17
0110
1000
0100
0010
,  // measure 18
0011
0100
1010
0100
,  // measure 19
1001
0100
0010
1000
,  // measure 20
0100
0000
0010
0100
1000
0000
0001
0000
,  // measure 21
0101
1000
0100
0010
,  // measure 22
1100
0010
0101
1000
,  // measure 23
0110
1000
0100
0010
,  // measure 24
0001
0000
1000
0100
0001
0000
0100
0000
,  // measure 25
0011
0000
0100
0000
0001
0100
1000
0000
,  // measure 26
1000
0100
0001
0000
0001
0010
1000
0000
,  // measure 27
1000
0010
0001
0000
0100
0000
0010
0000
,  // measure 28
1010
0000
1000
0010
0001
0000
0010
0000
,  // measure 29
0110
0000
1000
0000
0100
0010
0001
0000
,  // measure 30
0001
0010
1000
0000
1000
0010
0001
0000
,  // measure 31
0001
0100
1000
0000
0100
0000
0001
0000
,  // measure 32
1100
0000
0010
0001
0100
0000
0100
0000
,  // measure 33
0001
0000
0100
0000
0010
0000
1000
0010
,  // measure 34
0100
0000
0001
0000
1000
0100
0010
0001
,  // measure 35
0010
0000
0100
1000
0010
0000
1000
0000
,  // measure 36
0001
0000
1000
0100
,  // measure 37
0010
0000
0100
1000
0100
0000
0010
0000
,  // measure 38
0001
0010
0100
1000
0001
0000
0100
0001
,  // measure 39
0010
0000
0100
0010
0001
0000
0001
0000
,  // measure 40
1000
0000
0000
0000
0000
0000
0010
0100
,  // measure 41
0010
0000
1000
0001
1000
0000
0100
0000
,  // measure 42
0010
0000
0001
0010
0001
0000
0100
0001
,  // measure 43
0100
0000
0010
0000
0100
0000
0010
1000
,  // measure 44
0100
0000
1000
0100
0010
0001
0010
0100
,  // measure 45
1000
0000
0001
0100
0010
0000
1000
0000
,  // measure 46
0110
0000
1000
0001
0100
0000
0001
1000
,  // measure 47
1001
0000
0100
0000
0110
0000
1000
0001
,  // measure 48
0100
0000
0001
0100
0010
1000
0100
0010
,  // measure 49
0000
0000
0100
0100
0100
0000
0010
0000
,  // measure 50
1001
0000
1000
0100
0001
0000
0100
0000
,  // measure 51
0011
0000
0001
0100
1000
0000
1000
0100
,  // measure 52
0010
0000
1000
0000
0101
0000
0010
1000
,  // measure 53
0100
0000
0010
0001
0010
0100
1000
0100
,  // measure 54
0010
0000
0001
0100
0010
0000
1000
0000
,  // measure 55
0110
0000
1000
0100
0010
0000
0001
1000
,  // measure 56
0100
0000
1001
0000
0110
0000
0001
0100
,  // measure 57
0010
0000
1000
0100
0001
0100
1000
0001
,  // measure 58
0010
0100
0011
0100
,  // measure 59
1010
0100
0101
1000
,  // measure 60
1100
0010
0001
0100
,  // measure 61
0010
0000
1000
0100
0010
0000
0001
0000
,  // measure 62
0101
0010
1000
0001
,  // measure 63
1010
0100
1010
0001
,  // measure 64
1100
0010
0001
1000
,  // measure 65
0100
0000
0010
0001
0100
0000
0010
0000
,  // measure 66
1000
0100
0010
0000
0001
0010
0100
0000
,  // measure 67
1000
0100
0010
0001
0010
0000
0100
0000
,  // measure 68
1001
0010
0100
0010
,  // measure 69
0011
0000
1000
0001
0100
0000
0110
0000
,  // measure 70
1000
0010
0100
0000
0010
0100
0001
0000
,  // measure 71
0010
0100
1000
0001
0100
0000
0010
0000
,  // measure 72
1100
0010
0101
0001
,  // measure 73
1100
0000
0010
0100
1000
0000
0001
0000
,  // measure 74
0010
0000
0000
0000
;

//---------------dance-single - C. Picardy----------------
#NOTES:
     dance-single:
     :
     Challenge:
     9:
     0.709255,0.765404,0.592389,0.874479,0.239777,528.000000,465.000000,63.000000,93.000000,0.000000,0.000000,0.709255,0.765404,0.592389,0.874479,0.239777,528.000000,465.000000,63.000000,93.000000,0.000000,0.000000:
0000
0000
0000
0000
,
0000
0000
0000
0000
,
0000
0000
0000
0000
,
0000
0000
0000
0000
,
2000
0000
0000
0000
3002
0000
0000
0100
,
0103
0000
0020
1000
,
0130
0000
0001
1000
,
0100
0000
0000
1000
0100
0000
1000
0000
0001
0100
0000
0000
0001
0000
0000
0000
,
1000
0001
0100
0001
1000
0001
0100
0001
,
1000
0000
0001
0000
0010
0000
0001
0000
1000
0000
0001
0000
0010
0000
0100
1000
,
0002
0000
0103
0100
0020
0000
2030
0000
,
3001
0000
0000
0100
0001
0000
1000
0000
0010
1000
0000
0000
0010
0000
0000
0000
,
0001
1000
0100
1000
0010
1000
0001
1000
,
0100
0000
1000
0000
0010
0000
1000
0000
0100
0000
1000
0000
0001
0000
1000
0001
,
0200
0000
0310
0010
1000
1000
0001
0001
,
0100
0000
0000
0100
0010
0000
0000
0000
1000
0000
0000
0001
1000
0000
0001
0000
,
0202
0000
0000
0303
,
0001
1000
0000
0000
1100
0000
0000
0000
1000
0001
0000
0000
0101
0000
0000
0000
,
1000
0010
0000
0000
0110
0000
0000
0000
1000
0010
0000
0000
0110
0000
0000
0000
,
0001
0010
0000
0000
0110
0000
0000
0000
0001
0010
0000
0000
0110
0000
0000
0000
,
1000
0100
0000
0000
1001
0000
0000
0000
0001
0100
0000
0000
1001
0000
0000
0000
,
1000
0010
0000
0000
0101
0000
0000
0000
0001
0010
0000
0000
1100
0000
0000
0000
,
0010
0001
0000
0000
1100
0000
0000
0000
0001
0100
0000
0000
1010
0000
0000
0000
,
0100
0001
0000
0000
0110
0000
0000
0000
1000
0100
0000
0000
0110
0000
0000
0000
,
0001
0010
0000
0000
0110
0000
0000
0000
0002
0000
0000
0000
1003
0000
0000
0000
,
0010
0000
0000
0010
0100
0000
0001
0000
1000
0000
0000
1000
0100
0000
0010
0000
,
0001
0000
0000
0001
0010
0000
0100
0000
1000
0000
0000
1000
0010
0000
0100
0000
,
0001
0000
0000
0001
0100
0000
1000
0000
0100
0000
0000
0100
0010
0000
0001
0000
,
0010
0000
0000
0010
1000
0000
0100
0000
0001
0000
0000
0000
0110
0000
0000
0000
,
1100
0000
0000
0001
1000
0000
0100
0000
0010
0000
0000
0100
0010
0000
0001
0000
,
0100
0000
0000
0010
1000
0000
0001
0000
0100
0000
0000
0010
1000
0000
0100
0000
,
0010
0000
0000
0001
1000
0000
0100
0000
0010
0000
0000
0000
1001
0000
0000
0000
,
1100
0000
0000
0000
0010
0000
0100
0000
0010
0001
0010
0001
0010
0000
0000
0000
,
0100
1000
0010
1000
0100
1000
0010
1000
,
0100
0010
0001
0100
0001
0010
0001
0100
,
0020
0000
1030
1000
0002
0000
0010
0000
,
1003
0000
0100
0010
,
0001
0010
0100
0010
0001
0010
0100
0010
,
0100
1000
0100
0010
0001
0010
0100
1000
,
0002
0000
0103
0100
0010
0010
1000
1000
,
0100
0000
0100
0000
0100
0000
0100
1000
,
0020
0000
0000
0000
0230
0000
0002
0300
2000
0003
0000
0000
3200
0000
0000
0000
,
0302
0000
0000
0000
0203
0000
0020
0300
0002
0030
0000
0000
2003
0000
0200
3000
,
0002
0300
0000
0000
2003
0000
0000
0000
3020
0000
0000
0000
0032
0000
0200
0003
,
2000
0300
0000
0000
3200
0000
0020
0300
2000
0030
0200
3000
0020
0300
0001
0030
,
0011
0000
1000
0010
0200
0000
0301
0000
,
0110
0000
1000
0100
0020
0000
0031
1000
,
1001
0000
0100
0000
1100
0000
0010
0100
,
0110
0000
0001
0010
0110
0100
1000
0002
,
0000
0000
0100
0100
0100
0000
0103
0000
,
2020
0000
0000
3030
1000
0000
0001
0000
0202
0000
0000
0303
2002
0000
0000
3003
,
2200
0000
0000
3300
1000
0000
0001
0000
0022
0000
0000
0033
1000
0000
0010
0000
,
2020
0000
0000
3030
2002
0000
0000
3003
0220
0000
0000
0330
0001
0000
1000
0000
,
0202
0000
0000
0303
1000
0000
0100
0000
0110
0000
0010
0000
0001
0000
0010
0000
,
0220
0000
0000
0330
1000
0000
0100
0000
2200
0000
0000
3300
0220
0000
0000
0330
,
0022
0000
0000
0033
0100
0000
0001
0000
2002
0000
0000
3003
1000
0000
0001
0000
,
0202
0000
0000
0303
2200
0000
0000
3300
0202
0000
0000
0303
1000
0000
0010
0000
,
2020
0000
0000
3030
0001
0000
0010
0000
0110
0000
0100
0000
1000
0000
0001
0000
,
0100
0010
0100
0001
0010
0100
0010
0001
,
0101
1000
0010
0100
0110
0001
1000
0100
,
1100
1000
0010
0100
0101
0010
1000
0001
,
2200
0000
0000
3300
0010
0000
0001
0000
2002
0000
0000
3003
0202
0000
0000
0303
,
0110
1000
0001
0100
0010
1000
0100
0010
,
0011
1000
0010
0100
0101
1000
0100
0010
,
0110
0001
1000
0010
0100
0001
0010
0100
,
0220
0000
0000
0330
0010
0000
0001
0000
0202
0000
0000
0303
2002
0000
0000
3003
,
1000
0000
0010
0000
0100
0000
0001
0000
1000
0100
1000
0000
0100
0000
0010
0000
,
0001
0010
0001
0000
1000
0000
0010
0000
0100
0010
0100
0000
0001
0000
0010
0000
,
0001
1000
0001
0000
1000
0000
0100
0000
0010
0001
0010
0000
0100
0000
1000
0000
,
0001
0100
0001
0000
1000
0000
0010
0000
1000
0100
1000
0000
0001
0000
0100
0000
,
0010
1000
0001
0000
1000
0000
0001
0000
0010
0100
1000
0000
0001
0000
1000
0000
,
0100
0010
0001
0000
1000
0000
0010
0000
0100
0001
1000
0000
0100
0000
0010
0000
,
0001
1000
0010
0000
0100
0000
0001
0000
2002
0000
0000
3003
0202
0000
0000
0303
,
0220
0000
0000
0330
0010
0000
1000
0000
0001
0100
0001
0100
0002
0000
0000
0000
,
1003
0000
0000
0000
;
