#TITLE:Expander;
#SUBTITLE:;
#ARTIST:Yuzo Koshiro feat. BGM1401;
#TITLETRANSLIT:;
#SUBTITLETRANSLIT:;
#ARTISTTRANSLIT:;
#GENRE:;
#CREDIT:;
#BANNER:expanderbn.png;
#BACKGROUND:expanderbg.png;
#LYRICSPATH:;
#CDTITLE:;
#MUSIC:expander.ogg;
#OFFSET:-0.051975;
#SAMPLESTART:32.029957;
#SAMPLELENGTH:14.000001;
#SELECTABLE:YES;
#BPMS:0.000000=150.009995
;
#STOPS:
;
#BGCHANGES:;
#KEYSOUNDS:;
#ATTACKS:;

//---------------dance-single - C. Picardy----------------
#NOTES:
     dance-single:
     :
     Beginner:
     1:
     0.105298,0.183794,0.105298,0.000000,0.000000,77.000000,66.000000,11.000000,0.000000,0.000000,0.000000,0.105298,0.183794,0.105298,0.000000,0.000000,77.000000,66.000000,11.000000,0.000000,0.000000,0.000000:
0000
0000
0000
0000
,
0000
0000
0000
0000
,
0000
0000
0000
0000
,
0000
0000
0000
0000
,
1001
0000
0000
0000
,
0000
0000
0000
0000
,
1001
0000
0000
0000
,
0100
0000
0100
0000
,
0100
0000
0000
0000
,
0001
0000
0000
0000
,
1000
0000
0000
0000
,
0100
0000
0000
0000
,
0010
0000
0000
0000
,
0001
0000
0000
0000
,
1000
0000
0000
0000
,
0000
0000
0000
0000
,
1001
0000
0000
0000
,
1001
0000
0000
0000
,
0110
0000
0000
0000
,
0110
0000
0000
0000
,
0100
0000
0100
0000
,
0100
0000
0000
0000
,
0010
0000
0010
0000
,
0010
0000
0000
0000
,
1000
0000
0000
0000
,
0001
0000
0000
0000
,
0100
0000
0000
0000
,
0010
0000
0000
0000
,
0010
0000
0000
0000
,
0100
0000
0000
0000
,
0001
0000
0000
0000
,
1000
0000
0000
0000
,
0100
0000
0100
0000
,
0100
0000
0000
0000
,
0010
0000
0010
0000
,
0010
0000
0000
0000
,
0001
0000
0001
0000
,
0001
0000
0000
0000
,
1000
0000
1000
0000
,
1000
0000
0000
0000
,
0010
0000
0000
0000
,
0100
0000
0000
0000
,
0001
0000
0000
0000
,
1000
0000
0000
0000
,
0100
0000
0000
0000
,
0010
0000
0000
0000
,
0001
0000
0000
0000
,
0100
0000
0000
0000
,
1001
0000
0000
0000
,
1001
0000
0000
0000
,
0110
0000
0000
0000
,
0110
0000
0000
0000
,
0010
0000
0000
0000
,
0100
0000
0000
0000
,
0010
0000
0000
0000
,
0100
0000
0000
0000
,
0001
0000
0000
0000
,
1000
0000
0000
0000
,
0001
0000
0000
0000
,
1000
0000
0000
0000
,
0100
0000
0000
0000
,
0010
0000
0000
0000
,
0100
0000
0000
0000
,
0010
0000
0000
0000
,
1001
0000
0000
0000
;

//---------------dance-single - C. Picardy----------------
#NOTES:
     dance-single:
     :
     Easy:
     4:
     0.274870,0.339587,0.124444,0.172307,0.000000,201.000000,188.000000,13.000000,18.000000,0.000000,0.000000,0.274870,0.339587,0.124444,0.172307,0.000000,201.000000,188.000000,13.000000,18.000000,0.000000,0.000000:
0000
0000
0000
0000
,
0000
0000
0000
0000
,
0000
0000
0000
0000
,
0000
0000
0000
0000
,
1001
0000
0000
0000
,
0100
0000
0000
0000
,
0110
0000
0000
0000
,
1001
0000
0110
1001
,
0100
0010
0100
0010
,
1000
0002
0000
0003
,
1000
0100
1000
0100
,
1000
0020
0000
0030
,
0100
0001
1000
0010
,
1000
0200
0000
0300
,
0010
0001
0100
0010
,
2000
0000
0000
3000
,
0001
0100
0001
0100
,
0010
0100
0010
0100
,
0001
1000
0001
1000
,
0100
0010
0100
0010
,
0001
0010
0100
1000
,
0001
0010
0100
1000
,
0010
0100
0001
1000
,
0220
0000
0000
0330
,
1000
0000
0010
0100
,
0001
0000
1000
0100
,
0010
0000
0100
1000
,
0010
0000
0100
0001
,
0011
0000
0100
0010
,
1100
0000
0010
0001
,
1001
0000
0010
0100
,
0202
0000
0000
0303
,
0001
0100
1000
0100
,
0001
0100
1000
0100
,
0001
0010
1000
0010
,
0001
0010
1000
0010
,
0002
0010
1000
0103
,
2000
0010
0100
3001
,
0200
0010
0001
0301
,
0020
1000
0100
1030
,
0001
0001
0100
0000
,
0010
1000
0010
0000
,
0100
0100
0001
0000
,
0010
0001
0010
0000
,
1000
1000
0010
0000
,
0100
1000
0100
0000
,
0001
0001
0010
0000
,
2002
0000
0000
3003
,
1000
0100
0001
0100
,
1000
0100
0001
0100
,
1000
0010
0001
0010
,
1000
0010
0001
0010
,
0100
0001
0010
0100
,
0001
0100
0010
0001
,
0100
0010
0001
0010
,
0220
0000
0000
0330
,
0001
0000
0100
0000
,
0001
0000
1000
0000
,
0010
0000
1000
0000
,
0100
0000
0010
0000
,
0001
1000
0001
1000
,
0100
0010
0100
0010
,
0001
0100
0010
1000
,
0100
0010
0001
0100
,
2002
0000
3003
0000
;

//---------------dance-single - C. Picardy----------------
#NOTES:
     dance-single:
     :
     Medium:
     6:
     0.362391,0.370459,0.134016,0.162734,0.033504,265.000000,251.000000,14.000000,17.000000,0.000000,0.000000,0.362391,0.370459,0.134016,0.162734,0.033504,265.000000,251.000000,14.000000,17.000000,0.000000,0.000000:
0000
0000
0000
0000
,
0000
0000
0000
0000
,
0000
0000
0000
0000
,
0000
0000
0000
0000
,
1001
0000
0100
0000
,
0010
0000
1000
0000
,
0110
0000
0001
0000
,
0110
0000
1001
0110
,
1000
0001
0010
0100
,
2000
0010
0100
0100
,
3001
0100
1000
0100
,
0020
1000
0100
0100
,
1030
0100
0010
0001
,
0200
0010
0001
0001
,
0310
1000
0100
0010
,
0001
0000
0000
0001
0000
0000
0002
0000
0000
0000
0000
0000
1003
0000
0000
0000
,
0100
0000
0010
0000
0001
0010
0001
0000
,
0100
0000
0010
0000
1000
0010
1000
0000
,
0001
0000
1000
0000
0010
1000
0010
0000
,
0100
0000
0001
0000
0010
0001
0010
0000
,
0100
0000
0010
0000
0001
0100
0010
0000
,
1000
0000
0100
0000
0010
0001
0100
0000
,
0010
0000
1000
0000
0100
1000
0001
0000
,
0100
0000
0000
0100
0000
0000
0100
0000
0000
0000
0000
0000
1001
0000
0000
0000
,
0100
0000
0010
0000
1000
1000
1000
0000
,
0100
0000
0010
0000
0001
0001
0001
0000
,
0100
0000
0001
0000
0010
0010
0010
0000
,
0001
0000
1000
0000
0100
0100
0100
0000
,
0010
0000
0001
0001
0000
1000
1000
0000
,
0100
0000
0010
0010
0000
0001
0001
0000
,
0100
0000
0010
0010
0000
1000
1000
0000
,
0010
0000
0000
0010
0000
0000
0010
0000
0000
0000
0000
0000
0110
0000
0000
0000
,
0001
0000
1000
0000
0100
0010
0001
0000
,
0010
0000
0100
0000
1000
0100
0010
0000
,
0001
0000
0100
0000
0010
1000
0001
0000
,
0010
0000
0001
0000
0100
0010
1000
0000
,
0000
0001
0000
1000
0000
0100
0000
0010
,
0000
0001
0000
0010
0000
0100
0000
1000
,
0000
0010
0000
0100
0000
0001
0000
1000
,
0100
0000
0000
0100
0000
0000
0100
0000
0000
0000
0000
0000
1001
0000
0000
0000
,
0100
0010
0100
0010
,
1000
0100
0001
0100
,
1100
0001
0100
0010
,
1000
0100
0010
0001
,
0101
1000
0010
0100
,
0001
1000
0100
0010
,
0101
0010
1000
0100
,
0010
0000
0000
0010
0000
0000
0010
0000
0000
0000
0000
0000
1001
0000
0000
0000
,
0010
0000
0100
0000
1000
0100
1000
0000
,
0001
0000
0100
0000
0010
1000
0010
0000
,
1000
0000
0100
0000
0010
0001
0010
0000
,
0100
0000
1000
0000
0001
0100
0001
0000
,
2000
0010
0100
0001
,
3020
1000
0100
0001
,
0230
0010
1000
0001
,
0310
0000
0000
0010
0000
0000
0010
0000
0000
0000
0000
0000
1001
0000
0000
0000
,
0200
0000
0320
0000
,
2030
0000
3002
0000
,
0023
0000
0230
0000
,
2300
0000
3020
0000
,
0130
0000
0001
0000
0100
0000
0001
0100
,
0001
0000
0100
0000
0010
0000
0100
0010
,
0100
0000
1000
0000
0100
0000
0100
0001
,
0100
0000
0000
0100
0000
0000
0100
0000
0000
0000
0000
0000
0010
0000
0000
0000
,
2200
0000
3300
0000
;

//---------------dance-single - C. Picardy----------------
#NOTES:
     dance-single:
     :
     Hard:
     9:
     0.609910,0.650816,0.306323,0.277605,0.593500,446.000000,414.000000,32.000000,29.000000,0.000000,0.000000,0.609910,0.650816,0.306323,0.277605,0.593500,446.000000,414.000000,32.000000,29.000000,0.000000,0.000000:
// measure 0
0000
0000
0000
0000
,  // measure 1
0000
0000
0000
0000
,  // measure 2
0000
0000
0000
0000
,  // measure 3
0000
0000
0000
0000
,  // measure 4
1001
0000
0000
1000
0000
0000
0001
0000
0000
1000
0000
0000
0001
0000
0000
0000
,  // measure 5
0001
0000
0000
1000
0000
0000
0001
0000
0000
1000
0000
0000
0001
0000
0000
0000
,  // measure 6
0110
0000
0000
0010
0000
0000
1000
0000
0000
0001
0000
0000
0100
0000
0000
0000
,  // measure 7
0110
0000
1001
0110
,  // measure 8
1000
0100
0000
0000
1000
0000
0100
0000
0001
0000
0100
0000
1000
0000
0010
0000
,  // measure 9
0002
0010
1000
0013
,  // measure 10
0010
1000
0000
0000
0001
0000
0100
0000
1000
0000
0100
0000
0001
0000
0100
0000
,  // measure 11
0020
1000
0001
0130
,  // measure 12
0010
0100
0000
0000
0001
0000
0100
0000
0010
0000
1000
0000
0100
0000
0010
0000
,  // measure 13
0002
1000
0100
0013
,  // measure 14
0100
1000
0000
0000
0001
0000
0010
0000
0100
0000
1000
0000
0010
0000
0000
0000
,  // measure 15
2002
0000
0000
3003
,  // measure 16
1000
0100
0000
1000
0100
0000
1000
0100
0000
1000
0100
0000
0010
0000
0010
0000
,  // measure 17
0001
0010
0000
0001
0010
0000
0001
0010
0000
0001
0010
0000
0001
0000
0001
0000
,  // measure 18
1000
0001
0000
1000
0001
0000
1000
0001
0000
1000
0001
0000
1000
0000
1000
0000
,  // measure 19
0010
0100
0000
0010
0100
0000
0010
0100
0000
0010
0100
0000
0001
0000
0001
0000
,  // measure 20
1000
0100
0000
1000
0001
0000
1000
0010
0000
1000
0001
0000
0100
0000
0001
0000
,  // measure 21
1000
0001
0000
0100
0001
0000
0010
0001
0000
1000
0001
0000
0100
0000
0010
0000
,  // measure 22
1000
0010
0000
0100
0010
0000
1000
0010
0000
0100
0010
0000
1000
0000
0100
0000
,  // measure 23
0010
0000
0000
0001
0000
0000
1000
0000
0000
0100
0000
1000
0001
0000
0100
0000
,  // measure 24
0010
0100
0000
0000
0101
0000
0000
0100
0010
0000
0100
0000
0101
0000
0000
0000
,  // measure 25
1000
0100
0000
0000
1010
0000
0000
1000
0100
0000
1000
0000
1010
0000
0000
0000
,  // measure 26
0001
0100
0000
0000
0011
0000
0000
0100
0001
0000
0010
0000
0011
0000
0000
0000
,  // measure 27
0001
1000
0000
0000
1100
0000
0000
0001
1000
0000
0100
0000
1100
0000
0000
0000
,  // measure 28
0001
0000
0000
0100
0000
0000
0001
0000
0000
0100
0000
0000
0101
0000
0000
0000
,  // measure 29
0010
0000
0000
1000
0000
0000
0010
0000
0000
0100
0000
0000
1010
0000
0000
0000
,  // measure 30
0100
0000
0000
0010
0000
0000
0001
0000
0000
1000
0000
0000
1001
0000
0000
0000
,  // measure 31
0100
0000
0000
0010
0000
0000
0100
0000
0000
0001
0000
1000
0100
0000
0010
0000
,  // measure 32
0001
0010
0100
0010
0001
0100
0010
0010
,  // measure 33
1000
0100
0010
0100
1000
0010
0100
0100
,  // measure 34
0001
0010
0100
0010
1000
0010
0100
0100
,  // measure 35
1000
0100
0001
0100
0010
0100
1000
1000
,  // measure 36
0001
0000
0100
0000
1000
0000
0100
0000
0010
0000
0100
0001
0000
0100
0001
0000
,  // measure 37
1000
0000
0001
0000
0010
0000
0100
0000
1000
0000
0100
0010
0000
0100
0010
0000
,  // measure 38
0001
0000
1000
0000
0100
0000
0010
0000
0001
0000
0100
0010
0000
0100
0010
0000
,  // measure 39
1000
0000
0000
0001
0000
0000
0100
0000
0000
0010
0000
1000
0010
0000
1001
0000
,  // measure 40
0001
0100
0010
0100
,  // measure 41
0001
1000
0100
0010
,  // measure 42
0001
0000
0000
0000
1000
0100
1000
0100
1000
0000
0000
0000
0010
0000
0000
0000
,  // measure 43
0100
0001
1000
0100
,  // measure 44
0001
0000
0000
0000
0100
0001
0100
0001
0100
0000
0000
0000
0010
0000
0000
0000
,  // measure 45
1000
0001
1000
0010
,  // measure 46
0100
0000
0000
0000
0010
1000
0010
1000
0010
0000
0000
0000
0100
0000
0000
0000
,  // measure 47
1001
0000
0000
1001
0000
0000
1001
0000
0000
0100
0000
0100
0010
0000
0001
0000
,  // measure 48
0100
0001
0000
0001
0100
0000
0100
0010
0000
0010
0100
0000
0001
0000
1000
0000
,  // measure 49
0100
0010
0000
0010
0100
0000
0100
1000
0000
1000
0100
0000
0010
0000
0001
0000
,  // measure 50
1000
0100
0000
0100
0010
0000
0010
0001
0000
0001
0100
0000
0010
0000
1000
0000
,  // measure 51
0010
0100
0000
0100
0001
0000
0001
1000
0000
1000
0001
0000
1000
0000
0100
0000
,  // measure 52
0000
0000
0000
1000
0000
0100
0000
0010
0000
0001
0000
0010
0000
0100
1000
0000
,  // measure 53
0000
0000
0000
0001
0000
0010
0000
0100
0000
1000
0000
0100
0000
0010
0001
0000
,  // measure 54
0000
0000
0000
1000
0000
0010
0000
0100
0000
0001
0000
0100
0000
0010
1000
0000
,  // measure 55
0001
0000
0000
0001
0000
0000
0110
0000
0000
1000
0000
1000
0001
0000
0100
0000
,  // measure 56
0020
0000
0000
0200
0030
0000
2000
0300
0000
0200
3000
0000
0002
0300
0200
0003
,  // measure 57
2000
0000
0300
0200
3000
0000
0020
0300
0000
0200
0030
0000
0002
0300
0020
0003
,  // measure 58
0200
0000
0030
0002
0300
0000
0200
0003
0000
2000
0300
0000
0020
3000
0200
0030
,  // measure 59
0002
0000
0300
0020
0003
0000
0200
0030
0000
2000
0300
0000
0001
3000
0100
0000
,  // measure 60
0010
0000
1010
0000
1001
0000
0100
0010
,  // measure 61
0110
0000
1010
0000
1100
0000
0010
0100
,  // measure 62
0110
0000
0011
0000
0101
0000
1000
0001
,  // measure 63
1001
0000
0000
0100
0000
0000
0010
0000
0000
1000
0000
0001
1000
0000
0001
0000
,  // measure 64
0202
0000
0000
0303
;

//---------------dance-single - C. Picardy----------------
#NOTES:
     dance-single:
     :
     Challenge:
     11:
     0.910763,0.918968,0.861533,0.038290,0.976404,666.000000,576.000000,90.000000,4.000000,67.000000,0.000000,0.910763,0.918968,0.861533,0.038290,0.976404,666.000000,576.000000,90.000000,4.000000,67.000000,0.000000:
0000
0000
0000
0000
,
0000
0000
0000
0000
,
1000
0000
0000
0100
0000
0000
0010
0000
0000
0001
0000
0000
1000
0000
0000
0000
,
0001
0000
0000
0001
0000
0000
0100
0010
0000
0010
0100
0000
MMMM
0000
0000
0000
,
1001
1000
0000
0100
0010
0000
0010
0001
0000
0001
0100
0000
0100
0000
0010
0000
,
1000
0010
0000
0010
0100
0000
0100
0001
0000
0001
0010
0000
0100
0000
0010
0000
,
1001
0001
0000
0010
0100
0000
0100
1000
0000
1000
0010
0000
0100
0000
0010
0000
,
1001
M00M
M11M
1MM1
,
1000
0100
0010
0000
0001
0010
0100
1000
0100
0010
0001
0000
0010
0000
0100
0000
,
1000
0100
0040
0000
0001
0000
0000
0000
M10M
0000
0000
0000
0M01
0000
0030
0000
,
0001
0100
0010
0000
1000
0010
0100
0001
0100
0010
1000
0000
0100
0000
0010
0000
,
0001
0100
0040
0000
1M00
0000
0000
0000
010M
0000
0000
0000
0M01
0000
0030
0000
,
1000
0001
0100
0000
0010
1000
0001
0100
0010
1000
0001
0000
0010
0000
0001
0000
,
0100
0010
4000
0000
01M0
0000
0000
0000
001M
0000
0000
0000
0M01
0000
3000
0000
,
0100
0010
0001
0000
0010
0100
1000
0001
0010
0100
1000
0000
0100
0000
0010
0000
,
0002
0000
0000
0200
0003
0000
002M
0300
0000
2M00
0030
3000
1010
M0M0
1010
0000
,
0100
0010
0000
0010
0001
0000
0001
0010
0000
0010
1000
0000
1100
0000
0101
0000
,
0100
0010
0000
0010
1000
0000
1000
0010
0000
0010
0001
0000
0101
0000
1100
0000
,
1000
0100
0000
0100
0001
0000
0001
0100
0000
0100
1000
0000
1010
0000
0011
0000
,
0100
0010
0000
0010
1000
0000
1000
0100
0000
0100
0010
0000
0011
0000
1100
0000
,
0001
0010
0100
1000
0001
0010
0100
1000
0000
0100
0010
0000
0011
0000
1001
0000
,
0100
0010
0000
0010
0001
0000
0001
0010
0000
0010
0100
0000
0101
0000
1100
0000
,
1000
0100
0010
0001
1000
0100
0010
0001
0000
0100
0010
0000
1010
0000
0110
0000
,
0001
0000
0000
1100
00MM
0000
MM11
0000
0000
M1M1
0000
0001
1001
0000
1MM0
0000
,
0001
0100
0000
0010
0000
0000
1000
0001
0000
0001
0100
0000
0101
0000
0000
0000
,
1000
0100
0000
0010
0000
0000
0001
1000
0000
0100
0010
0000
0110
0000
0000
0000
,
0010
0001
0000
0100
0000
0000
0010
1000
0000
0001
0100
0000
1001
0000
0000
0000
,
0010
0100
0000
1000
0000
0000
0001
0010
0000
0010
0100
0000
1100
0000
0000
0000
,
0001
0100
0001
0000
1000
0000
0001
0100
0001
0000
1000
0000
1100
0000
0000
0000
,
0001
0010
0001
0000
1000
0000
0001
0100
0001
0000
1000
0000
1100
0000
0000
0000
,
1000
0100
1000
0000
0001
0000
1000
0100
1000
0000
0001
0000
0101
0000
0000
0000
,
M11M
0000
0000
0101
M0M0
0000
1100
0000
0M0M
0010
0000
0100
M1M1
0000
0010
0000
,
1000
0100
0000
0100
0010
0000
0010
0001
0000
0001
0100
0000
1010
0000
0101
0000
,
1000
0010
0000
0010
0100
0000
0100
0001
0000
0001
0010
0000
1100
0000
0011
0000
,
1000
0100
0000
0100
0001
0000
0001
0100
0000
0100
1000
0000
1010
0000
0011
0000
,
1000
0010
0000
0010
0001
0000
0001
0010
0000
0010
1000
0000
1100
0000
0101
0000
,
0001
0000
0000
4000
0010
0000
0100
0000
0001
0000
0010
0000
0100
0000
0010
0000
,
3001
0000
0000
0400
0010
0000
1000
0000
0010
0000
0001
0000
1000
0000
0010
0000
,
0301
0000
0000
0040
0100
0000
1000
0000
0001
0000
0100
0000
1000
0000
0001
0000
,
0130
0000
0000
1100
00MM
0000
MM11
0000
0000
0101
0000
1000
1MM1
0000
0001
0000
,
0100
0010
0100
0010
0100
0000
0001
0100
0010
0100
0001
0100
0010
0000
1000
0000
,
0100
0000
0000
0000
0011
0000
0000
0000
1000
0100
0000
0000
1001
0000
0000
0000
,
0010
0100
0010
0100
0010
0000
0100
1000
0010
1000
0100
1000
0010
0000
0100
0000
,
0001
0000
0000
0000
1100
0000
0000
0000
0001
0010
0000
0000
1001
0000
0000
0000
,
1000
0100
1000
0100
1000
0000
0001
0010
0100
0010
0001
0010
0100
0000
1000
0000
,
0010
0000
0000
0000
0110
0000
0000
0000
1000
0001
0000
0000
1010
0000
0000
0000
,
0001
0100
0001
0100
0001
0000
1000
0010
0100
0010
1000
0010
0100
0000
0001
0000
,
0101
0000
0000
11MM
0000
0000
M1M1
0000
0000
1MM0
0000
0001
0101
0000
0110
0000
,
1000
0010
1000
0010
1000
0000
0001
0100
0000
0100
0010
0000
1010
0000
0110
0000
,
0001
0010
0001
0010
0001
0000
1000
0100
0000
0100
0010
0000
0011
0000
0101
0000
,
1000
0100
1000
0100
1000
0000
0001
0010
0000
0010
0001
0000
1100
0000
0101
0000
,
0010
1000
0010
1000
0010
0000
1000
0100
0000
0100
0010
0000
0011
0000
1001
0000
,
1000
0000
0100
0010
0001
0010
0100
1000
0100
0010
0001
1000
0010
0100
0001
0000
,
1000
0000
0010
0100
0001
1000
0010
0100
0001
0010
0001
0010
0100
1000
0001
0000
,
0010
0000
0100
1000
0010
0100
0001
1000
0100
0010
0001
0010
0100
1000
0001
0000
,
1MM1
0000
0000
M1M1
0000
0000
11MM
0000
0000
0101
0000
1000
1MM1
0000
0110
0000
,
1000
0001
0000
0100
1000
0000
0001
0010
0000
1000
0100
0000
0010
0000
0MM1
0000
,
1000
0100
0000
0100
0001
0000
0001
1000
0000
1000
0010
0000
0001
0000
01MM
0000
,
1000
0100
0000
0010
0001
0000
1000
0100
0000
0001
0010
0000
0100
0000
1MM0
0000
,
0010
0100
0000
0100
0001
0000
0001
1000
0000
1000
0010
0000
0100
0000
0MM1
0000
,
0110
0000
0100
0000
0101
0000
0001
0000
1001
0000
1000
0000
1100
0000
0100
0010
,
0110
0000
0100
0000
1100
0000
1000
0000
1001
0000
0001
0000
0101
0000
0001
0010
,
0011
0000
0001
0000
0101
0000
0100
0000
0110
0000
0100
0000
0101
0000
1000
0001
,
1001
0000
0000
1010
0000
0000
0011
0000
0000
0100
0000
0010
1010
0000
1001
0000
,
0100
0000
0000
0000
;
