#TITLE:Escape;
#SUBTITLE:(feat. Summer Haze);
#ARTIST:Jaroslav Beck/Beat Saber Soundtrack;
#TITLETRANSLIT:;
#SUBTITLETRANSLIT:;
#ARTISTTRANSLIT:;
#GENRE:;
#CREDIT:;
#BANNER:escapebn.png;
#BACKGROUND:escapebg.png;
#LYRICSPATH:;
#CDTITLE:;
#MUSIC:escape.ogg;
#OFFSET:-1.038079;
#SAMPLESTART:25.713013;
#SAMPLELENGTH:10.820000;
#SELECTABLE:YES;
#BPMS:0.000000=174.985001
,64.000000=87.492996
,68.000000=174.985001
,194.000000=175.080002
;
#STOPS:
;
#BGCHANGES:32.000=dustygrunge.mp4=1.000=1=0=1=SongBgWithMovieViz==CrossFade==,
64.000=dustygrunge.mp4=1.000=0=0=1===CrossFade_Fastest==,
67.500=escapebg.png=1.000=0=0=1=====,
68.000=flash=1.600=0=0=1=====,
68.250=hyperspacetravel.mp4=1.000=0=1=1=StretchRewind====,
132.000=particlegalaxy.mp4=1.000=0=1=1=StretchRewind==CrossFade_Fastest==,
196.000=flash=1.600=0=0=1=====,
196.250=redstars.mp4=1.000=0=1=1=StretchRewind===#FF0000=,
228.000=hyperspacetravel.mp4=1.000=0=0=1===CrossFade_Fastest==,
260.000=dustygrunge.mp4=1.000=0=1=1=StretchRewind==CrossFade_Fastest==,
284.000=dustygrunge.mp4=1.000=0=0=1=SongBgWithMovieViz==CrossFade_Fastest==,
288.000=escapebg.png=1.000=0=0=1===CrossFade_Fastest==,
290.000=flash=1.600=0=0=1=====,
290.250=escapebg.png=1.000=0=0=1=====,
99999=-nosongbg-=1.000=0=0=0 // don't automatically add -songbackground-
;
#KEYSOUNDS:;
#ATTACKS:;

//---------------dance-single - C. Picardy----------------
#NOTES:
     dance-single:
     :
     Beginner:
     1:
     0.105360,0.171379,0.085098,0.000000,0.000000,78.000000,69.000000,9.000000,0.000000,0.000000,0.000000,0.105360,0.171379,0.085098,0.000000,0.000000,78.000000,69.000000,9.000000,0.000000,0.000000,0.000000:
// measure 0
0000
0000
0000
0000
,  // measure 1
0000
0000
0000
0000
,  // measure 2
0000
0000
0000
0000
,  // measure 3
0000
0000
0000
0000
,  // measure 4
1000
0000
0000
0000
,  // measure 5
0000
0000
0000
0000
,  // measure 6
0001
0000
0000
0000
,  // measure 7
0000
0000
0000
0000
,  // measure 8
0100
0000
0000
0000
,  // measure 9
0000
0000
0000
0000
,  // measure 10
0010
0000
0000
0000
,  // measure 11
0000
0000
0000
0000
,  // measure 12
1000
0000
0000
0000
,  // measure 13
0000
0000
0000
0000
,  // measure 14
0001
0000
0000
0000
,  // measure 15
0000
0000
0000
0000
,  // measure 16
0100
0000
0000
0000
,  // measure 17
0010
0000
0000
0000
,  // measure 18
0010
0000
0000
0000
,  // measure 19
0100
0000
0000
0000
,  // measure 20
0100
0000
0000
0000
,  // measure 21
0001
0000
0000
0000
,  // measure 22
0001
0000
0000
0000
,  // measure 23
1000
0000
0000
0000
,  // measure 24
1000
0000
0000
0000
,  // measure 25
1001
0000
0000
0000
,  // measure 26
0100
0000
0000
0000
,  // measure 27
0010
0000
0000
0000
,  // measure 28
1000
0000
0000
0000
,  // measure 29
0001
0000
0000
0000
,  // measure 30
0010
0000
0000
0000
,  // measure 31
0100
0000
0000
0000
,  // measure 32
1000
0000
0000
0000
,  // measure 33
0001
0000
0001
0000
,  // measure 34
0001
0000
0000
0000
,  // measure 35
0100
0000
0000
0000
,  // measure 36
0010
0000
0010
0000
,  // measure 37
0010
0000
0000
0000
,  // measure 38
0100
0000
0000
0000
,  // measure 39
1000
0000
1000
0000
,  // measure 40
1000
0000
0000
0000
,  // measure 41
0001
0000
0000
0000
,  // measure 42
1001
0000
0000
0000
,  // measure 43
1000
0000
0000
0000
,  // measure 44
1001
0000
0000
0000
,  // measure 45
0010
0000
0000
0000
,  // measure 46
0110
0000
0000
0000
,  // measure 47
0100
0000
0000
0000
,  // measure 48
0110
0000
0000
0000
,  // measure 49
1000
0000
0000
0000
,  // measure 50
0001
0000
0000
0000
,  // measure 51
0100
0000
0000
0000
,  // measure 52
0010
0000
0000
0000
,  // measure 53
1000
0000
0000
0000
,  // measure 54
0001
0000
0000
0000
,  // measure 55
0010
0000
0000
0000
,  // measure 56
0100
0000
0000
0000
,  // measure 57
1000
0000
1000
0000
,  // measure 58
1000
0000
0000
0000
,  // measure 59
0001
0000
0000
0000
,  // measure 60
0100
0000
0000
0000
,  // measure 61
0010
0000
0010
0000
,  // measure 62
0010
0000
0000
0000
,  // measure 63
1000
0000
0000
0000
,  // measure 64
0001
0000
0000
0000
,  // measure 65
0110
0000
0000
0000
,  // measure 66
0010
0000
0000
0000
,  // measure 67
1001
0000
0000
0000
,  // measure 68
0001
0000
0000
0000
,  // measure 69
0110
0000
0000
0000
,  // measure 70
0010
0000
0000
0000
,  // measure 71
1000
0000
0000
0000
,  // measure 72
0001
0000
1001
0000
;

//---------------dance-single - C. Picardy----------------
#NOTES:
     dance-single:
     :
     Hard:
     7:
     0.487627,0.555976,0.208018,0.236384,0.000000,361.000000,339.000000,22.000000,25.000000,0.000000,0.000000,0.487627,0.555976,0.208018,0.236384,0.000000,361.000000,339.000000,22.000000,25.000000,0.000000,0.000000:
0000
0000
0000
0000
,
0000
0000
0000
0000
,
0000
0000
0000
0000
,
0000
0000
0000
0000
,
0001
0000
1000
0100
0000
0100
1000
0000
,
0000
0000
0001
0100
0010
0100
0001
0000
,
2000
0000
0000
3000
,
0000
0000
0010
0100
0010
1000
0001
0000
,
0010
0000
0000
0100
0000
0000
0010
0000
,
0000
0001
0100
0100
,
0202
0000
0000
0303
,
0000
0000
0001
1000
0100
1000
0010
0000
,
0100
0000
0000
0001
0000
0000
1000
0000
,
0000
0000
0010
0100
0001
0000
0001
0000
,
2200
0000
3300
0010
,
0001
0000
1000
0001
0000
0000
0100
0000
,
0020
0000
1000
0000
0001
0000
0100
0030
,
1000
0100
0010
0100
1000
0000
0001
0100
,
0010
0100
0001
0100
0010
0000
1010
0000
,
0100
0010
1000
0010
0100
0000
0001
0010
,
0100
1000
0100
0010
0001
0000
1100
0000
,
0001
0100
0010
0100
0001
0000
1000
0100
,
0010
0100
1000
0100
0010
0000
0011
0000
,
1000
0000
0001
0100
0010
0010
1000
0000
,
0002
0203
0320
0230
,
0301
0010
0100
0010
0001
0000
1000
0100
,
0010
0100
1000
0001
0100
0000
1001
0000
,
0010
1000
0100
1000
0010
0000
0100
0001
,
0010
0001
0100
0010
1000
0000
0101
0000
,
1000
1000
0010
0100
0010
0000
1000
1000
,
0001
1000
0100
1000
0010
0000
0110
0000
,
0100
0000
0001
0001
1000
0100
0010
0000
,
0200
2300
3002
0023
,
0030
0000
0100
0000
1000
0100
1000
0000
,
0010
0000
0010
0100
0000
0100
0001
0000
,
0010
0000
0100
0000
0010
0001
0100
0000
,
0010
1000
2002
0000
,
3003
0000
0001
0000
1000
0100
0001
0000
,
0100
0000
0100
0010
0000
0001
0010
0000
,
0001
0000
0100
0000
0100
0010
0100
0000
,
0001
0000
1000
0000
0000
0010
0100
0000
,
1001
0000
1000
0000
0100
0010
0001
0000
,
1000
0000
0001
0100
0000
0100
0001
0000
,
1000
0000
0001
0000
0010
0100
1000
0000
,
0001
0101
0220
0000
,
0330
0000
1000
0000
0001
1000
0100
0000
,
0010
0000
0001
1000
0000
0100
0010
0000
,
0010
0000
0001
0100
0010
0100
0001
0000
,
0200
0320
2030
3001
,
1010
0000
0001
0000
0001
0100
1000
0000
,
0100
0000
0001
0000
0100
0010
1000
0010
,
0100
0000
0101
0000
1000
0100
1000
0000
,
0020
0000
0230
0000
0301
0010
0100
0010
,
0001
0000
0100
0010
0000
0010
0100
0000
,
1001
0000
1000
0000
0001
0100
0010
0000
,
1001
0000
0100
0000
0010
1000
0100
0000
,
0010
0000
0001
0010
0100
0010
0001
0000
,
1100
0000
1000
0010
0000
0010
0100
0000
,
0100
0001
0010
0000
0100
1000
0010
0000
,
1001
0000
0100
0000
0010
1000
1000
0000
,
0001
0000
1000
0100
0010
0001
0100
0000
,
1001
0000
0001
1000
0000
0001
0100
0000
,
0110
0000
1000
0010
0100
0000
0001
0000
,
1010
0000
0100
0000
0010
1000
0100
0000
,
1001
0000
0100
0100
0010
1000
0001
0000
,
0010
0000
0010
0100
0000
0100
1000
0000
,
0001
0000
0100
0010
1000
0000
0001
0000
,
0100
0000
0001
0000
0000
1000
0001
0000
,
1000
0000
0100
0010
0100
0100
1000
0000
,
0001
0000
0001
0100
0000
0100
0010
0000
,
1000
0000
0001
0010
1000
0000
0010
0000
,
0001
0000
1000
0000
0000
0001
0100
0000
,
0010
0000
1000
0002
0000
0000
2000
0000
,
0000
0000
3003
0000
;

//---------------dance-single - C. Picardy----------------
#NOTES:
     dance-single:
     :
     Challenge:
     9:
     0.537605,0.625473,0.397126,0.888805,0.000000,398.000000,356.000000,42.000000,94.000000,24.000000,22.000000,0.537605,0.625473,0.397126,0.888805,0.000000,398.000000,356.000000,42.000000,94.000000,24.000000,22.000000:
0000
0000
0000
0000
,
0000
0000
0000
0000
,
0000
0000
0000
0000
,
0000
0000
0000
0000
0001
0100
0020
0000
,
2000
0030
0100
0200
3000
0010
0020
0300
,
0001
0000
0130
0010
0001
0010
0100
0000
,
2000
0000
0020
0000
0000
3000
0100
0000
,
0000
0000
0031
0010
1000
0001
0100
0000
,
0002
0000
0000
0200
0000
0000
0010
0000
,
0303
0001
1000
0100
,
2200
0010
0000
0001
,
3300
0000
1000
0100
0001
0100
1000
0000
,
0002
0000
0000
2000
0000
0000
0010
0000
,
3003
0000
0001
0100
0010
0000
0010
0000
,
2MM2
0000
3MM3
2000
,
3002
0000
0103
0020
0000
0000
2000
0030
,
0400
0000
0000
0000
0000
0000
0300
3M1M
,
0100
0001
0010
0100
0110
0000
1000
0001
,
0100
0000
0010
0000
1000
0000
0100
0000
0010
0000
0010
0000
0022
0000
0000
0033
,
1000
0001
0100
0010
1010
0000
0100
0001
,
0010
0000
0001
0000
0100
0000
0001
0000
0010
0000
0010
0000
0220
0000
0000
0330
,
1000
0100
0001
0100
1100
0000
0001
0100
,
1000
0000
0100
0000
0001
0000
0100
0000
0010
0000
0010
0000
2020
0000
0000
3030
,
1001
0000
0100
0001
0001
0010
0100
0100
,
0010
0002
0200
0000
0010
0000
1000
0303
,
0001
0100
0010
1000
1001
M00M
0010
1000
,
0100
0000
0010
0000
0001
0000
0100
0000
0010
0000
0010
0000
2002
0000
0000
3003
,
0100
0010
1000
0100
1100
MM00
1000
0100
,
0010
0000
0100
0000
1000
0000
0010
0000
0100
0000
0100
0000
0202
0000
0000
0303
,
0010
0001
0100
0010
0110
0MM0
0010
1000
,
0001
0000
0100
0000
1000
0000
0100
0000
0001
0000
0010
0000
0022
0000
0000
0033
,
1100
MM00
0001
0100
1000
0100
0001
0010
,
0100
0200
2000
0000
0001
0000
0010
3300
,
1100
0000
0001
0000
1000
0001
0200
0000
,
0002
0000
0010
1000
0000
1000
0010
0303
,
0101
0000
1000
0000
0100
0200
2000
0000
,
0001
0010
0001
3300
,
1001
0000
0100
0000
0001
0002
2000
0000
,
0010
0000
0010
0010
0000
3003
1001
0000
,
0002
0000
0200
0000
0010
0300
2000
0000
,
0010
0003
0200
0000
0001
0000
3300
0000
,
0110
0000
2000
0000
0004
0000
0000
3003
,
0402
0000
0003
0020
0000
0000
0000
0330
,
0104
0000
0020
0003
0400
0000
0000
0330
,
2000
3004
0400
0000
,
0303
0000
0020
0000
4000
0000
0000
3030
,
0200
4000
0000
3300
,
0200
0000
0040
0000
0000
0000
0000
0300
,
0004
0000
0000
0000
0000
0000
0000
0033
,
1001
0000
1000
0100
0010
0100
1000
0001
,
0100
0010
1000
1000
0001
0100
0010
0010
,
1010
M0M0
0001
0100
0010
0100
0001
0010
,
0100
0010
0001
0100
0010
1000
0100
0010
,
0022
0000
0000
0033
1000
0000
2002
0000
0000
3003
0100
0000
2200
0000
0000
3300
,
0110
0000
1000
0100
0001
0100
1000
0001
,
0101
0M0M
0001
0100
1000
0100
0001
0100
,
0010
1000
0100
0010
0001
0100
0010
1000
,
2002
0000
0000
0000
3003
0000
0202
0000
0000
0000
0303
0000
0220
0000
0000
0330
,
1000
0000
1100
0000
0001
0100
0010
1000
,
2002
0000
0000
3003
0001
0000
0100
0000
1000
0000
0100
0000
0001
0000
0100
0000
,
0010
1000
0100
0010
0100
1000
0001
0100
,
0202
0000
0000
0303
1000
0000
2020
0000
0000
3030
0001
0000
0022
0000
0000
0033
,
1100
0000
0010
0100
1000
0001
0100
0000
,
2002
0000
0000
3003
0001
0000
0100
0000
0010
0000
1000
0000
0001
0000
0010
0000
,
0100
1000
0001
0100
0010
1000
0100
0010
,
0002
0000
0100
0200
0003
1000
2000
0300
,
0002
3000
0013
1000
0200
0001
0002
0300
,
2000
0003
0020
3000
0000
0100
0100
0000
,
0032
0000
0103
1000
0100
0001
0020
0000
,
0200
0030
0002
2300
0003
0010
3002
0000
,
2003
0000
3100
0010
0001
0000
0100
0000
,
2020
0000
0000
0000
3030
0001
0100
0000
,
1001
0000
0000
0000
0000
0000
2000
0000
0000
0200
0000
0000
00MM
0000
0000
0000
0000
3000
2000
0000
0000
0000
0000
0000
,
00MM
0000
33MM
0000
;

//---------------dance-single - C. Picardy----------------
#NOTES:
     dance-single:
     :
     Medium:
     5:
     0.370110,0.451730,0.255295,0.132375,0.000000,274.000000,247.000000,27.000000,14.000000,0.000000,0.000000,0.370110,0.451730,0.255295,0.132375,0.000000,274.000000,247.000000,27.000000,14.000000,0.000000,0.000000:
0000
0000
0000
0000
,
0000
0000
0000
0000
,
0000
0000
0000
0000
,
0000
0000
0000
0000
,
0001
0000
0000
1000
0000
0000
0001
0000
,
0000
0100
0010
0010
,
2000
0000
0000
3000
,
0000
0001
0100
0001
,
1000
0000
0000
0100
0000
0000
0100
0000
,
0000
0010
0001
0100
,
0200
0000
0000
0300
,
0000
0001
1000
0100
,
0010
0000
0000
0010
0000
0000
0010
0000
,
0000
0100
0010
0001
,
0002
0000
0000
0003
,
0100
0000
0000
0010
0000
0000
0100
0000
,
0020
0000
0000
0000
2000
0000
0000
3030
,
0001
0100
0010
0100
,
0001
0000
0010
0000
0100
0010
0100
0000
,
1000
0100
1000
0010
,
0100
0000
0001
0000
0010
0100
0010
0000
,
0001
0010
0100
0010
,
0001
0000
0100
0000
0010
1000
0010
0000
,
0000
0000
0100
0100
0100
0000
0001
0000
,
1000
1000
1000
0000
0100
0000
0010
0000
,
0001
0010
1000
0010
,
0001
0000
0100
0000
0010
1000
0100
0000
,
1000
0100
0001
0100
,
1000
0000
0010
0000
0100
0001
0010
0000
,
0001
0100
1000
0100
,
0001
0000
0010
0000
0100
1000
0010
0000
,
0000
0000
0010
0010
0010
0000
1000
0000
,
0001
0001
0001
0000
0001
0000
1000
0000
,
0000
0010
0100
0001
,
0010
0000
0100
0010
0000
0010
0010
0000
,
0000
0100
0010
0001
,
0100
0010
2000
0000
,
3000
0100
1000
0010
,
0100
0000
0001
0200
0000
0000
0301
0000
,
0010
0100
1000
0002
,
0000
0010
0000
1003
,
1001
0100
0010
1000
,
0001
0000
0000
0101
0000
0000
1001
0000
,
0000
1000
0100
0010
,
0110
0100
2002
0000
,
3003
0100
0110
0100
,
0000
0000
0001
0001
0000
0000
0110
0000
,
1000
0000
0001
0001
0100
0000
0010
0000
,
1010
1100
2002
3003
,
1000
0001
0100
1000
,
0100
0000
0010
0000
0100
0001
0100
0000
,
0010
1000
0001
0010
,
0100
0000
0010
0000
0001
0010
0001
0000
,
1000
0000
0000
1100
0000
0000
0101
0000
,
0000
0001
1000
0100
,
0010
0100
1000
0100
,
0010
0000
0100
0010
0001
0000
0100
0000
,
1001
0000
0000
0110
0000
0000
1001
0000
,
0000
1000
0001
0100
,
0110
1000
0001
0100
,
0010
0000
1000
0100
0010
0000
0100
0000
,
1100
0000
0000
1001
0000
0000
0101
0000
,
0000
0000
0010
1000
0001
0000
0001
0000
,
1000
0100
1000
0010
,
0100
0000
0001
0100
0010
0000
1000
0000
,
0101
0000
0000
0010
0000
0000
0101
0000
,
0000
1000
0100
0010
,
1001
0000
0100
0000
0000
0010
0100
0000
,
0000
0000
0100
0010
0100
0000
0001
0000
,
1001
0000
0000
0010
0000
0000
1001
0000
,
0000
0000
0010
0100
0010
0000
1000
0000
,
1001
0000
0000
0100
,
0110
0000
0000
2002
0000
0000
0000
0000
,
0000
0000
3003
0000
;

//---------------dance-single - C. Picardy----------------
#NOTES:
     dance-single:
     :
     Easy:
     3:
     0.289064,0.411309,0.264750,0.463313,0.000000,214.000000,186.000000,28.000000,49.000000,0.000000,0.000000,0.289064,0.411309,0.264750,0.463313,0.000000,214.000000,186.000000,28.000000,49.000000,0.000000,0.000000:
0000
0000
0000
0000
,
0000
0000
0000
0000
,
0000
0000
0000
0000
,
0000
0000
0000
0000
,
0000
0000
0000
0000
,
0000
0000
0000
0000
,
0000
0000
0000
0000
,
0000
0000
0000
0000
,
1001
0000
0000
0000
,
0100
0000
0000
0000
,
0220
0000
0000
0330
,
0000
0000
0010
0000
,
1001
0000
0000
0000
,
0001
0000
1000
0000
,
0220
0000
0000
0330
,
0100
0000
0010
0000
,
2002
0000
0000
3003
,
0001
1000
0001
1000
,
0100
1000
0002
0003
,
0100
0001
0100
0001
,
0010
0001
2000
3000
,
0010
0100
0010
0100
,
0001
1000
0200
0300
,
0000
0010
0010
0000
,
0001
0100
1001
1001
,
0100
0010
0100
0001
,
1000
0100
0020
0030
,
0001
0010
0001
1000
,
0010
0100
0002
0003
,
1000
0010
1000
0100
,
0010
0100
2000
3000
,
0000
0001
0001
0000
,
1000
0001
0110
0220
,
0330
0001
1000
0001
,
0100
0010
0200
0300
,
0001
0010
0100
0010
,
0001
1000
0020
0000
,
0030
0100
0001
1000
,
0000
0010
0100
0001
,
0100
0010
0010
2002
,
0000
0000
0000
3003
,
0110
0100
0001
1000
,
0001
0100
0200
0300
,
0000
0010
1000
0001
,
0100
0010
2002
0000
,
3003
0100
0010
0001
,
0000
1000
0010
0100
,
1001
0000
0110
0000
,
1001
0010
1001
0100
,
2002
3003
0220
0330
,
2020
3030
0001
0100
,
0202
0303
0022
0033
,
2200
3300
0001
0100
,
2020
3030
2200
3300
,
0001
0010
0001
0100
,
2002
3003
0202
0303
,
1000
0001
0100
0010
,
1001
1000
0001
1000
,
0010
0100
0010
0100
,
0001
1000
0001
1000
,
0100
1000
0100
1000
,
0001
0010
0100
1000
,
0001
0010
0100
1000
,
0001
0100
0010
1000
,
0001
0100
0010
1000
,
0002
0000
0203
0000
,
0320
0000
1030
1000
,
0200
0000
1300
0000
,
0010
0000
0100
0100
,
0002
0000
2003
0000
,
3200
0000
0310
0010
,
0002
0000
0103
0000
,
0010
0000
1001
0000
;
