#TITLE:EASY BUSY;
#SUBTITLE:;
#ARTIST:KIKI & KIKA;
#TITLETRANSLIT:;
#SUBTITLETRANSLIT:;
#ARTISTTRANSLIT:;
#GENRE:;
#CREDIT:;
#BANNER:easybusybanner.png;
#BACKGROUND:easybusy.png;
#LYRICSPATH:;
#CDTITLE:;
#MUSIC:EASY BUSY.ogg;
#OFFSET:-0.513106;
#SAMPLESTART:58.000000;
#SAMPLELENGTH:12.133973;
#SELECTABLE:YES;
#BPMS:0.000000=158.000000
;
#STOPS:
;
#BGCHANGES:;
#KEYSOUNDS:;
#ATTACKS:;

//---------------dance-single - C. Picardy----------------
#NOTES:
     dance-single:
     :
     Beginner:
     1:
     0.110143,0.195655,0.168987,0.073932,0.000000,73.000000,57.000000,16.000000,7.000000,0.000000,0.000000,0.110143,0.195655,0.168987,0.073932,0.000000,73.000000,57.000000,16.000000,7.000000,0.000000,0.000000:
0000
0000
0000
0000
,
0000
0000
0000
0000
,
0010
0000
0000
0000
,
0100
0000
0000
0000
,
0001
0000
0000
0000
,
1000
0000
0000
0000
,
0110
0000
0000
0000
,
0000
0000
0000
0000
,
1001
0000
0000
0000
,
0000
0000
0000
0000
,
1100
0000
0000
0000
,
0000
0000
0000
0000
,
0020
0000
0000
0000
,
0030
0000
0000
0000
,
0001
0000
0000
0000
,
1000
0000
0000
0000
,
0010
0000
0000
0000
,
0110
0000
0000
0000
,
1000
0000
0000
0000
,
0010
0000
0000
0000
,
0100
0000
0000
0000
,
1001
0000
0000
0000
,
0001
0000
0001
0000
,
0000
0000
0000
0000
,
1000
0000
1000
0000
,
0000
0000
0000
0000
,
0010
0000
0010
0000
,
0000
0000
0000
0000
,
0100
0000
0100
0000
,
0000
0000
0000
0000
,
0020
0000
0030
0000
,
0200
0000
0300
0000
,
0010
0000
0000
0000
,
0010
0000
0000
0000
,
2000
0000
3000
0000
,
0002
0000
0003
0000
,
1000
0000
0001
0000
,
1000
0000
0000
0000
,
0110
0000
0000
0000
,
0000
0000
0000
0000
,
1001
0000
0000
0000
,
0000
0000
0000
0000
,
1001
0000
0000
0000
,
0110
0000
0000
0000
,
0010
0000
0010
0000
,
0110
0000
0000
0000
,
1000
0000
0000
0000
,
0001
0000
0000
0000
,
0010
0000
0000
0000
,
0100
0000
0000
0000
,
1000
0000
0000
0000
,
0010
0000
0000
0000
,
0100
0000
0000
0000
,
1001
0000
0000
0000
,
0010
0000
0000
0000
,
0010
0000
0000
0000
,
0100
0000
0000
0000
,
0001
0000
0000
0000
,
1001
0000
0000
0000
,
0110
0000
0000
0000
,
1100
0000
0000
0000
,
0011
0000
2002
3003
;

//---------------dance-single - C. Picardy----------------
#NOTES:
     dance-single:
     :
     Easy:
     4:
     0.271586,0.326092,0.168987,0.264042,0.000000,180.000000,164.000000,16.000000,25.000000,0.000000,0.000000,0.271586,0.326092,0.168987,0.264042,0.000000,180.000000,164.000000,16.000000,25.000000,0.000000,0.000000:
0000
0000
0000
0000
,
0000
0000
0000
0000
,
2000
0000
3000
0000
,
0002
0000
0003
0000
,
0020
0000
0030
0000
,
0200
0000
0300
0000
,
1000
0000
1000
0000
,
1000
0000
0000
0000
,
0001
0000
0001
0000
,
0001
0000
0000
0000
,
0010
0000
0010
0000
,
0010
0000
0000
0000
,
2002
0000
0000
0000
,
3003
0010
0010
0000
,
0001
0000
1000
0000
,
0010
0000
0100
0000
,
0001
0000
0010
0000
,
0100
0000
1001
0000
,
0010
0010
0010
0000
,
1000
1000
1000
0000
,
0001
0001
0001
0000
,
0001
1000
0110
0000
,
1000
0001
1000
0000
,
0001
0010
0001
0000
,
1000
0100
1000
0000
,
0010
0100
0010
0000
,
0100
0100
0110
0000
,
1000
1000
1001
0000
,
0001
1000
0100
0010
,
1001
0000
0000
0000
,
2000
3000
0020
0030
,
0200
0300
0020
0030
,
1000
0100
1000
1000
,
0001
0100
0001
0001
,
2002
3003
0220
0330
,
2200
3300
0022
0033
,
0100
0010
1000
0001
,
1000
0001
0002
0003
,
1000
0001
1001
0000
,
0010
0100
0110
0000
,
1000
0100
1100
0000
,
0001
0010
0011
0000
,
0001
0001
1000
1000
,
0010
0010
0100
0100
,
0002
0003
2000
3000
,
0020
0030
1001
0000
,
0001
1000
0100
0010
,
0100
1000
0001
0100
,
0010
1000
0001
0100
,
0010
1000
0001
0100
,
0001
0001
1000
1000
,
0010
0010
0100
0100
,
0001
1000
0100
0010
,
0001
1000
0010
0010
,
1000
1000
1000
0000
,
0001
0001
0001
0000
,
1000
0001
1000
0000
,
0010
0100
0010
1000
,
0002
1000
1003
0000
,
0020
1000
1030
0000
,
0200
0010
0310
0000
,
1000
0001
0010
1001
;

//---------------dance-single - C. Picardy----------------
#NOTES:
     dance-single:
     :
     Medium:
     6:
     0.433028,0.457452,0.221795,0.411905,0.000000,287.000000,266.000000,21.000000,39.000000,2.000000,0.000000,0.433028,0.457452,0.221795,0.411905,0.000000,287.000000,266.000000,21.000000,39.000000,2.000000,0.000000:
0000
0000
0000
0000
,
0000
0010
0010
0000
,
1001
0000
0000
0100
,
0101
0000
0000
0010
,
1100
0000
0010
0001
,
2002
0000
0000
3003
,
1000
0001
1000
1000
,
0020
0030
0200
0300
,
0001
0001
1000
1000
,
0200
0300
0002
0003
,
1000
1000
0010
0100
,
0002
0003
2000
3000
,
2002
0000
0000
0000
,
3003
0000
0010
1000
0001
0000
0000
0000
,
0010
0000
0010
0000
1000
0001
1000
0000
,
0010
0000
0010
0000
0001
1000
0001
0000
,
1000
0001
1000
0100
,
0010
0000
0001
0000
1000
0001
1000
0001
,
2000
0010
0001
3010
,
0200
0010
0001
1300
,
0200
0010
1000
0301
,
1000
0100
0010
0001
0100
0000
1001
0000
,
1000
0001
1000
0101
,
1000
0001
1000
1100
,
0010
0010
0001
0001
,
1000
0000
0010
0000
1000
0001
0100
0000
,
0010
0000
0100
0000
0220
0330
0000
0000
,
1000
0000
0001
0000
1000
0100
0010
0002
,
0000
1003
0001
0000
1000
0001
0100
0010
,
0000
0010
0100
0000
0100
0010
0100
0000
,
0202
0000
0300
1003
0000
1000
0010
0000
,
2020
0000
0030
3001
0000
1000
0001
0000
,
1000
0100
1000
0000
0001
0100
0001
0000
,
1000
0010
0100
0000
0001
0010
0100
0000
,
2200
0000
0300
3001
0000
0001
0010
0000
,
0022
0000
0030
1003
0000
0001
1000
0000
,
0001
1000
0001
1000
0010
0100
0010
0100
,
0000
00M1
1M00
0000
,
1000
0100
1000
0000
0001
0010
0001
0000
,
1000
1000
0001
0001
,
1000
0010
1000
0000
0001
0100
0001
0000
,
1000
1000
0001
0001
,
1000
0010
0100
0000
0001
0010
0100
0000
,
1000
0100
0010
0000
0001
0100
0010
0000
,
1000
1000
0001
0001
,
0100
0000
0010
0000
2002
3003
0000
0000
,
0021
0001
1000
0130
,
0120
1000
0001
0130
,
2100
0001
0010
3010
,
0201
0000
0010
0000
0001
0001
0301
0000
,
1000
0001
0100
0000
0001
1000
0100
0000
,
0010
0100
1000
0000
0010
0100
0001
0000
,
1000
0001
1000
0001
1000
0000
0020
0000
,
0230
0000
0301
0000
2002
3003
0000
0000
,
2000
0000
3010
0100
0010
0000
1000
0000
,
0002
0000
0013
0000
0100
1000
0001
0000
,
0200
0000
0310
1000
0100
0000
0100
0010
,
0001
0001
0100
0110
,
1000
0001
0100
0010
1000
0000
0001
0000
,
0100
0010
1000
0001
0100
0000
0001
0000
,
1000
0100
0001
0100
1000
0000
1000
0010
,
0001
0000
0001
0010
1000
0000
0202
0303
;

//---------------dance-single - C. Picardy----------------
#NOTES:
     dance-single:
     :
     Hard:
     9:
     0.680473,0.718854,0.295727,0.306288,0.216514,451.000000,423.000000,28.000000,29.000000,2.000000,0.000000,0.680473,0.718854,0.295727,0.306288,0.216514,451.000000,423.000000,28.000000,29.000000,2.000000,0.000000:
// measure 0
0000
0000
0000
0000
,  // measure 1
0000
0000
0010
0100
0010
0100
0000
0000
,  // measure 2
2200
3300
0000
0100
0000
0010
0001
0000
,  // measure 3
0202
0303
0000
1000
0000
0010
0100
0000
,  // measure 4
2010
0000
3000
0000
0001
0000
0100
0000
0000
0010
1000
0000
0001
0000
0000
0000
,  // measure 5
1001
0000
0000
0000
1000
0000
0000
0100
0010
0000
0001
0000
0100
0000
0000
0000
,  // measure 6
0010
1000
0010
0100
0001
0000
0001
0000
,  // measure 7
0011
0000
0010
0100
0010
1000
0010
0000
,  // measure 8
0001
0010
1000
0010
0001
0000
0001
0000
,  // measure 9
1000
0000
0010
0010
0100
0001
0010
0000
,  // measure 10
0001
1000
0100
1000
0010
0000
1000
0000
,  // measure 11
0001
0000
0000
0000
0010
0100
0000
0100
0010
0000
0001
0000
0100
0000
0000
0000
,  // measure 12
2002
0000
0000
0000
0000
0000
0000
3003
,  // measure 13
M00M
0110
1001
0000
,  // measure 14
0001
0000
0000
0010
0100
0000
1000
0000
0100
0000
0010
0000
0001
0100
0001
0100
,  // measure 15
0010
0000
0000
0010
1000
0000
0100
0000
0010
0000
0100
0000
1000
0100
1000
0100
,  // measure 16
0010
0000
0000
0010
0001
0000
0100
0000
0010
0000
1000
0000
0001
1000
0001
1000
,  // measure 17
0010
0000
0000
0010
0100
0000
0001
0000
1001
0000
0000
0000
0110
0000
0000
0000
,  // measure 18
1000
0000
0000
1000
0000
0000
1000
0000
0010
0000
0100
0000
1000
0000
0100
0000
,  // measure 19
0001
0000
0000
0001
0000
0000
0001
0000
0010
0000
0001
0000
1000
0000
0010
0000
,  // measure 20
0100
0000
0000
0100
0000
0000
0100
0000
0010
0000
1000
0000
0001
0100
0010
1000
,  // measure 21
0100
0000
0000
1000
0010
0000
0100
0000
0101
0000
0000
0000
1010
0000
0000
0000
,  // measure 22
0001
1000
0100
1000
0010
0000
1000
0001
,  // measure 23
0100
0000
0010
0000
0001
0000
0010
0000
1000
0000
0100
1000
0100
0000
0010
0000
,  // measure 24
0100
0010
1000
0010
0001
0100
0001
0010
,  // measure 25
0000
0000
0010
0000
0001
0000
1000
0000
0000
0010
0100
0000
0001
0000
1000
0000
,  // measure 26
1100
0000
0101
0000
1100
0000
0001
0100
,  // measure 27
1000
0000
0100
0000
0010
0000
0100
0000
1000
0000
0001
1000
0001
0000
0200
0000
,  // measure 28
0300
0010
1000
0100
0010
0001
0100
0100
,  // measure 29
0000
0000
0010
1000
0100
0010
0100
1000
,  // measure 30
2200
3300
0000
0220
0330
0001
0100
0010
,  // measure 31
2020
3030
0000
0202
0303
0001
0010
0100
,  // measure 32
1000
1000
0001
0001
1000
0100
0010
0001
,  // measure 33
0000
0001
0100
0010
0100
0001
0100
0010
,  // measure 34
2000
0000
0000
3010
0000
1000
0100
1000
,  // measure 35
1001
0000
0000
0000
0001
0000
1000
0000
0100
0000
0100
0000
0010
0001
0000
0000
,  // measure 36
0100
0001
0010
0100
0010
0001
1000
0010
,  // measure 37
0000
0010
0100
0000
2002
3003
0000
0001
,  // measure 38
1000
0100
1000
0001
1000
0100
1000
0010
,  // measure 39
1000
0100
1000
0001
1000
0100
1000
0001
,  // measure 40
0100
0001
0010
0001
1000
0001
0010
0001
,  // measure 41
0100
0001
0010
0001
1000
0001
0100
0001
,  // measure 42
1000
0100
0001
0100
1000
0100
0001
0100
,  // measure 43
1000
0010
0001
0010
1000
0100
0001
0100
,  // measure 44
1000
1000
0010
0010
0100
0100
0001
0001
,  // measure 45
0010
0100
1000
0001
0220
0330
0000
0000
,  // measure 46
0010
1000
0001
0100
0010
1000
0100
1000
,  // measure 47
0010
0100
0001
0010
0100
0010
0001
0100
,  // measure 48
0010
1000
0100
0010
0100
1000
0010
0100
,  // measure 49
0001
0000
0010
0000
0100
0000
0000
1000
0100
0000
0010
0000
0010
0000
0000
0000
,  // measure 50
0001
0010
1000
0001
0100
1000
0010
0001
,  // measure 51
1000
0100
0001
0010
1000
0010
0001
0100
,  // measure 52
0010
0010
0100
0100
0001
0001
1000
1000
,  // measure 53
0100
1000
0010
0100
2002
3003
0000
0000
,  // measure 54
0001
0000
0000
1000
0100
0000
0010
0000
0100
0000
1000
0000
0100
1000
0100
1000
,  // measure 55
0010
0000
0000
0010
0100
0000
0001
0000
0010
0000
0001
0000
0100
0001
0100
0001
,  // measure 56
0010
0000
0000
0100
1000
0000
0001
0000
0100
0010
0000
0000
1000
0100
0000
0000
,  // measure 57
2002
0000
3003
0001
0010
0000
0100
0000
1000
0000
0000
0000
0110
0000
0000
0000
,  // measure 58
0100
0000
1000
0000
0010
0000
0100
0000
0010
0000
1000
0000
0001
0100
0001
0000
,  // measure 59
0010
0000
0001
0000
0100
0000
0010
0000
1000
0000
0100
0000
0010
0100
0010
0000
,  // measure 60
0001
0000
0000
0001
0100
0000
0010
0000
1000
0100
0000
0000
1000
0010
0000
0000
,  // measure 61
1001
0000
0000
0100
0010
0000
1000
0000
2002
0000
3003
0000
0220
0000
0330
0000
;

//---------------dance-single - C. Picardy----------------
#NOTES:
     dance-single:
     :
     Challenge:
     10:
     0.908304,1.046661,0.887180,0.528084,0.697070,602.000000,518.000000,84.000000,50.000000,52.000000,6.000000,0.908304,1.046661,0.887180,0.528084,0.697070,602.000000,518.000000,84.000000,50.000000,52.000000,6.000000:
0000
0000
0000
0000
,
0000
0000
0011
0100
1010
1001
0000
0000
,
M2M2
0000
0000
0000
0303
0000
1010
0000
0000
0001
0100
0000
0010
0000
1000
0000
,
2M20
0000
0000
3030
110M
0000
0110
0000
0000
0001
0010
0000
0100
0000
0110
0000
,
0012
0000
0000
1000
0000
0000
M100
0000
0000
1M03
0001
0000
M100
0000
0010
2000
,
0002
0000
0000
0000
0010
0000
0010
3003
,
0001
0100
0001
0000
0010
0000
0100
1000
0001
0000
0000
0000
0001
0000
0000
0000
,
1000
0010
0000
0000
0100
0001
0000
0000
0010
0100
0000
0100
0010
0000
0000
0000
,
0001
0000
1000
0100
1000
0000
0001
0100
0020
0000
0000
0000
1000
0000
0000
0000
,
0001
0000
0100
0000
1000
0100
1030
0000
,
1000
0100
0010
0100
1000
0000
1000
0100
0010
0000
0000
0000
0110
0000
0000
0000
,
2000
3200
0302
0203
0000
0000
0000
0000
,
M02M
0000
M00M
0000
M00M
0000
M00M
0330
,
0MM0
0110
1001
0000
,
1000
0000
0001
0100
0010
0000
0100
0010
1000
0000
0100
0000
0010
0100
0010
0001
,
0010
0000
0100
1000
0100
0000
0010
0100
1000
0000
0001
0000
0100
0001
0100
0010
,
1000
0000
0000
0010
0100
0000
0001
0010
0100
0000
1000
0000
0010
1000
0001
0100
,
0010
0000
0000
0010
1000
0000
1100
0000
0220
0000
0330
0000
0022
0000
0033
0000
,
1000
0100
0010
0001
0010
0000
0100
0000
1000
0000
0010
0000
0100
0001
0010
0001
,
0100
0000
0010
1000
0001
0000
0010
0000
0100
0000
1000
0000
0010
0100
0001
0010
,
0100
0000
0001
0100
1000
0000
0010
0100
0001
0000
0010
0000
0001
0100
0010
0100
,
0001
0000
0000
0100
0010
0000
0110
0000
2020
0000
3030
0000
0202
0000
0303
0000
,
0101
0100
1100
0100
0101
0100
1100
0100
,
0101
0000
0100
0000
1100
0000
0100
0000
0101
0000
0001
1000
0100
0000
1000
0000
,
1100
0100
0110
0100
1100
0100
0110
0010
,
0011
0000
0100
0000
1001
0000
0001
0100
0010
0000
0010
1000
0100
0010
0001
0000
,
0011
0010
1010
0010
0011
0010
1010
0010
,
0011
0000
0010
0000
1010
0000
0010
0000
0011
0000
1000
0100
0010
0000
0002
0000
,
0000
0000
0103
0000
0100
0000
0100
0000
0010
1000
0001
0100
0010
0000
0220
0000
,
0000
0000
0330
0000
0001
1000
0100
0000
1100
0000
0100
0010
0001
0000
0100
0000
,
0202
0000
0000
1000
0303
1000
0100
0010
,
2200
0000
0000
0001
3300
1000
0001
0100
,
0110
1000
0110
0100
0011
0100
1010
1000
,
0000
0000
0000
0000
0100
0010
0001
0010
1000
0000
0100
0010
0001
0000
0100
0000
,
0202
0000
0010
0010
0303
0100
0001
1000
,
2200
0000
0000
3300
0100
0010
0001
0010
0100
0000
0100
0000
1000
0010
0100
0001
,
1000
0100
0010
0100
0001
0100
0010
1000
,
0000
0010
0002
0000
2000
0000
3003
MM00
,
100M
0100
1000
0000
100M
0100
1000
0000
100M
0100
1000
0000
100M
0100
1000
0000
,
0001
0100
0001
0000
M001
0100
0001
0000
M001
0100
0001
0000
M001
0100
0001
0000
,
1000
0010
1000
0000
1M00
0010
1000
0000
1M00
0010
1000
0000
1M00
0010
1000
0000
,
0001
0100
0001
0000
00M1
0100
0001
0000
00M1
0100
0001
0000
00M1
0100
0001
0000
,
0101
0001
0011
0001
0101
0001
0011
0100
,
1010
0100
1100
0100
1010
0100
1100
0100
,
1000
0010
0100
0010
1000
0000
0001
0100
0010
1000
0100
0010
0001
0000
0010
0001
,
1000
0010
0100
0001
2002
3003
0000
M00M
,
1001
0000
000M
0001
0100
0000
0M00
0100
0010
0000
00M0
0010
1000
0000
M000
1000
,
0010
0000
M0M0
0010
0001
0000
000M
0001
0010
0000
00M0
0010
1000
0000
M000
1000
,
0100
0000
0M00
0100
0010
0000
00M0
0010
0100
0000
0M00
0100
0010
0000
00M0
0010
,
0100
0000
0M00
0100
1000
0000
M000
1000
0001
0000
1000
0000
1100
0000
0000
0000
,
1000
0100
0001
0100
0010
0100
1000
0100
0010
0100
0001
0100
1000
0100
0010
0100
,
1000
0100
0010
0001
0100
0000
1000
0100
0001
0010
0100
0010
0001
0010
1000
0010
,
0001
0011
0001
1001
0100
0101
0100
0110
,
1000
1010
0100
0101
2002
0000
3003
0000
,
1100
0000
0100
0010
0001
0000
0100
0010
1000
0000
0100
0000
0010
0001
0010
0100
,
1100
0000
0100
1000
0010
0000
0100
0010
1000
0000
0100
0000
1000
0010
0100
0001
,
0101
0000
0001
1000
0100
0000
1000
0001
0100
0001
0010
0001
1000
0001
0100
0010
,
2000
0000
0000
0001
3100
0000
0110
0000
2020
0000
3030
0000
2002
0000
3003
0000
,
0101
0000
0001
0000
0011
0000
0001
0000
1001
0000
0001
0000
0100
0010
1000
0100
,
0110
0000
0010
0000
0011
0000
0010
0000
0110
0000
0010
0000
0001
0010
0100
1000
,
2002
0000
3003
0001
0100
0000
0110
0000
1000
0000
1000
0000
0001
0100
0010
0100
,
0002
0000
0000
1003
0100
0000
0110
0000
2200
0000
3300
0000
2M20
0000
3030
M0M0
;
