#TITLE:Dub in Life;
#SUBTITLE:;
#ARTIST:Eiffel 65;
#TITLETRANSLIT:;
#SUBTITLETRANSLIT:;
#ARTISTTRANSLIT:;
#GENRE:;
#CREDIT:;
#BANNER:dubinlifebn.png;
#BACKGROUND:dubinlifebg.png;
#LYRICSPATH:;
#CDTITLE:;
#MUSIC:dubinlife.ogg;
#OFFSET:-0.044945;
#SAMPLESTART:58.098221;
#SAMPLELENGTH:12.000000;
#SELECTABLE:YES;
#BPMS:0.000000=129.990005
;
#STOPS:
;
#BGCHANGES:16.000=4Kshinelasers.mp4=1.000=1=0=1=SongBgWithMovieViz==CrossFade==,
32.000=flash=1.800=0=0=1====#0000FF=,
32.250=4Kshinelasers.mp4=1.000=0=0=1=====,
64.000=flash=1.800=0=0=1====#0000FF=,
64.250=rainbowlightbeams.mp4=1.000=0=1=1=StretchRewind====,
96.000=flash=1.800=0=0=1====#0000FF=,
96.250=bluestarfield.mp4=1.000=0=1=1=StretchRewind====,
124.000=bluestarfield.mp4=1.000=1=0=1=SongBgWithMovieViz==CrossFade==,
128.000=flash=1.800=0=0=1====#0000FF=,
128.250=4Kshinelasers.mp4=1.000=0=0=1=====,
160.000=flash=1.800=0=0=1====#0000FF=,
160.250=rainbowlightbeams.mp4=1.000=0=0=1=====,
192.000=flash=1.800=0=0=1====#0000FF=,
192.250=bluestarfield.mp4=1.000=0=0=1=====,
200.000=bluestarfield.mp4=1.000=1=0=1=SongBgWithMovieViz==CrossFade==,
204.000=dubinlifebg.png=1.000=1=0=1===CrossFade==,
99999=-nosongbg-=1.000=0=0=0 // don't automatically add -songbackground-
;
#KEYSOUNDS:;
#ATTACKS:;

//---------------dance-single - C. Picardy----------------
#NOTES:
     dance-single:
     :
     Beginner:
     1:
     0.073404,0.108009,0.031459,0.041945,0.000000,49.000000,46.000000,3.000000,4.000000,0.000000,0.000000,0.073404,0.108009,0.031459,0.041945,0.000000,49.000000,46.000000,3.000000,4.000000,0.000000,0.000000:
// measure 0
0000
0000
0000
0000
,  // measure 1
0000
0000
0000
0000
,  // measure 2
0000
0000
0000
0000
,  // measure 3
0000
0000
0000
0000
,  // measure 4
0200
0000
0000
0000
,  // measure 5
0300
0000
0000
0000
,  // measure 6
0000
0000
0000
0000
,  // measure 7
0020
0000
0000
0000
,  // measure 8
0030
0000
0000
0000
,  // measure 9
1000
0000
0000
0000
,  // measure 10
0001
0000
0000
0000
,  // measure 11
1000
0000
0000
0000
,  // measure 12
0010
0000
0000
0000
,  // measure 13
0100
0000
0000
0000
,  // measure 14
0010
0000
0000
0000
,  // measure 15
0100
0000
0000
0000
,  // measure 16
1001
0000
0000
0000
,  // measure 17
0100
0000
0000
0000
,  // measure 18
0100
0000
0000
0000
,  // measure 19
0010
0000
0000
0000
,  // measure 20
0010
0000
0000
0000
,  // measure 21
0001
0000
0000
0000
,  // measure 22
0001
0000
0000
0000
,  // measure 23
1000
0000
0000
0000
,  // measure 24
1001
0000
0000
0000
,  // measure 25
0100
0000
0000
0000
,  // measure 26
0010
0000
0000
0000
,  // measure 27
0100
0000
0000
0000
,  // measure 28
0001
0000
0000
0000
,  // measure 29
1000
0000
0000
0000
,  // measure 30
0001
0000
0000
0000
,  // measure 31
2000
0000
0000
0000
,  // measure 32
3000
0000
0000
0000
,  // measure 33
0001
0000
0000
0000
,  // measure 34
0100
0000
0000
0000
,  // measure 35
0010
0000
0000
0000
,  // measure 36
1000
0000
0000
0000
,  // measure 37
0100
0000
0000
0000
,  // measure 38
0010
0000
0000
0000
,  // measure 39
0001
0000
0000
0000
,  // measure 40
1001
0000
0000
0000
,  // measure 41
0100
0000
0000
0000
,  // measure 42
0100
0000
0000
0000
,  // measure 43
0010
0000
0000
0000
,  // measure 44
0010
0000
0000
0000
,  // measure 45
0001
0000
0000
0000
,  // measure 46
1000
0000
0000
0000
,  // measure 47
0001
0000
0000
0000
,  // measure 48
0100
0000
0100
0000
,  // measure 49
0100
0000
0000
0000
,  // measure 50
0010
0000
0010
0000
,  // measure 51
0020
0000
0030
0000
;

//---------------dance-single - ----------------
#NOTES:
     dance-single:
     :
     Easy:
     3:
     0.230700,0.270024,0.115350,0.094377,0.000000,154.000000,143.000000,11.000000,9.000000,0.000000,0.000000,0.230700,0.270024,0.115350,0.094377,0.000000,154.000000,143.000000,11.000000,9.000000,0.000000,0.000000:
0000
0000
0000
0000
,
0000
0000
0000
0000
,
0000
0000
0000
0000
,
0000
0000
0000
0000
,
0001
0000
0000
0000
,
1000
0000
0000
0000
,
0010
0000
0000
0000
,
2002
0000
0000
3003
,
0100
0100
0100
0000
,
0010
0010
0010
0000
,
1000
0000
0001
0000
,
0100
0010
0100
0010
,
1000
1000
1000
0000
,
0001
0001
0001
0000
,
1000
0000
0100
0000
,
0010
0100
0010
0100
,
1001
0000
0110
0000
,
0001
0001
1000
0100
,
1000
0000
0001
0000
,
0100
0000
0010
0100
,
0100
0000
0010
0000
,
1000
0010
0001
0001
,
0001
0000
0010
0000
,
0100
0100
0100
0000
,
1001
1000
0001
0000
,
0100
0010
0100
0010
,
2000
0000
3002
0000
,
1003
0001
1000
0001
,
1100
0000
0101
0000
,
1000
0010
0100
0010
,
2000
0000
3000
0001
,
0200
0000
0020
0000
,
0330
1000
0100
1000
,
0001
0100
0001
0100
,
0001
1000
0001
1000
,
0100
0100
0010
0010
,
0011
0100
0001
0100
,
0010
1000
0010
1000
,
0100
0010
0100
0010
,
0001
0001
1000
1000
,
1010
0100
0010
1000
,
0001
0100
0010
1000
,
0001
0010
0100
1000
,
0001
0001
0100
0100
,
0110
1000
0001
0100
,
0001
1000
0100
1000
,
0010
0100
0001
0010
,
0100
1000
0010
0100
,
1001
0000
0100
0000
,
0010
0000
1000
0000
,
0100
0000
0010
0000
,
0220
0000
0330
0000
;

//---------------dance-single - C. Picardy----------------
#NOTES:
     dance-single:
     :
     Medium:
     5:
     0.340058,0.378033,0.125836,0.062918,0.010486,227.000000,215.000000,12.000000,6.000000,0.000000,0.000000,0.340058,0.378033,0.125836,0.062918,0.010486,227.000000,215.000000,12.000000,6.000000,0.000000,0.000000:
0000
0000
0000
0000
,
0000
0000
0000
0000
,
0000
0000
0000
0000
,
0000
0000
0000
0000
,
0000
0100
0000
1000
0000
1000
0000
1000
,
0000
0001
0000
0100
0000
0100
0000
0100
,
0000
0001
0000
0010
0000
0010
0000
0100
,
0000
0100
0000
1000
0000
1000
0000
0001
,
1000
0000
0100
0000
0010
0001
0010
0000
,
0100
0000
1000
0000
0010
1000
0010
0000
,
0100
0001
0100
0000
0001
0010
0001
0000
,
1000
0010
1000
0000
0100
1000
0100
0000
,
1001
0000
0100
0000
0010
1000
0100
0000
,
0010
0000
0001
0000
1000
0100
0010
0000
,
0001
0100
0010
0000
0010
0100
0001
0000
,
1000
0010
0100
0000
0100
0010
1000
0001
,
0100
0000
0100
0000
0100
0000
0000
0010
,
0100
0000
0001
0000
0010
0000
0100
0100
,
0000
1000
0100
1000
,
0010
0000
0010
0000
0010
0000
0100
0010
,
0000
0010
0000
0000
0100
0000
0000
0001
,
0100
0000
0000
0000
0010
0000
0000
0000
1000
0000
0000
1000
0000
0000
1000
0000
,
0000
0001
0001
1000
,
0100
0000
0010
0100
0000
0010
0100
0000
,
0011
0100
0010
0100
,
0001
0000
1000
0000
0100
0000
1000
0100
,
0100
1000
0010
1000
,
0001
0000
0100
0000
0010
0000
1000
0001
,
0001
0100
0010
1000
,
0001
0000
0000
0000
0010
0000
0000
0000
0100
0000
0000
0100
0000
0000
0100
0000
,
0000
0010
0001
0100
,
2002
3003
0220
0330
,
0000
0100
0000
0010
0000
0001
0000
0001
,
0000
1000
0000
0100
0000
0010
0000
0010
,
0000
0001
0000
1000
0000
1000
0000
0010
,
0000
0010
0000
0100
0000
0100
0000
0001
,
0000
1000
0000
0100
0000
0010
0000
1001
,
0000
0100
0000
0010
0000
1000
0000
1010
,
0000
0001
0000
0010
0000
0011
0000
1000
,
0000
1100
0000
0001
0000
0101
0000
0001
,
1000
0000
0100
0000
0010
0001
0010
0000
,
0100
0000
1000
0000
0010
1000
0010
0000
,
0100
0001
0010
0000
0010
0001
0100
0000
,
0010
1000
0100
0000
0100
1000
0010
0000
,
0110
0000
0100
0000
0001
0010
0100
0000
,
1000
0000
0001
0000
0100
0010
1000
0000
,
0010
1000
0001
0000
0010
0001
1000
0000
,
0010
0100
0001
0000
1000
0100
0010
0000
,
1001
0100
0010
0010
,
1000
0001
0100
0100
,
0010
1000
0100
0001
,
0202
0000
0303
0000
;

//---------------dance-single - C. Picardy----------------
#NOTES:
     dance-single:
     :
     Hard:
     6:
     0.417956,0.432038,0.262159,0.125836,0.010486,279.000000,254.000000,25.000000,12.000000,0.000000,0.000000,0.417956,0.432038,0.262159,0.125836,0.010486,279.000000,254.000000,25.000000,12.000000,0.000000,0.000000:
0000
0000
0000
0000
,
0000
0000
0000
0000
,
0000
0000
0000
0000
,
0000
0000
0000
0000
,
0000
0100
0010
0100
0000
1000
0000
0001
,
0000
0100
0010
0100
0000
0001
0000
1000
,
0000
0010
0100
0010
0000
0100
0000
0001
,
4004
0000
0000
3003
,
1000
0100
0010
0001
0000
0101
0000
0010
,
1000
0100
0010
0001
0000
1100
0000
0010
,
0100
0001
0010
0100
0000
0011
0000
1000
,
0000
1010
0000
0110
0000
0101
0000
1100
,
0000
0001
0100
0010
0000
1001
0000
0100
,
0010
1000
0100
0010
0000
1001
0000
0010
,
0100
1000
0001
0100
0000
0110
0000
1000
,
0000
1100
0000
0101
0000
0010
0001
0100
,
0010
0010
1000
1000
,
1000
0100
1000
0000
0001
0100
0001
0100
,
0001
0001
0100
0100
,
0010
0000
0010
0000
0010
1000
0100
1000
,
0010
0000
0100
0000
0010
0000
0000
1000
,
0100
0000
0010
0000
0100
0000
1000
0000
0010
0000
0000
0010
0000
0000
0020
0000
,
0000
0000
0130
0000
0100
0000
0100
0001
,
0010
0001
0100
0010
0000
1000
0100
0010
,
0001
0100
1000
0000
1000
0100
0001
0000
,
0001
0100
0010
0100
0001
0010
0100
0100
,
1000
0100
0001
0000
0001
0100
1000
0000
,
1000
0010
0100
0000
0100
0010
1000
0010
,
0100
0000
0001
0000
1000
0000
0000
0010
,
0100
0000
0001
0000
0010
0000
0100
0000
1000
0000
0000
1000
0000
0000
2000
0000
,
0000
0000
3010
0000
0100
0000
0001
0100
,
0040
0000
0000
0000
4000
0000
0000
3030
,
1000
0001
0100
0020
0000
1000
0000
0130
,
0001
0010
0100
2000
0000
0010
0000
3001
,
0100
1000
0100
0002
0000
0010
0000
2003
,
0000
0010
0000
3200
0000
0010
0000
1300
,
0010
0100
0001
0020
0000
1000
0000
0130
,
0010
0001
0100
0020
0000
0001
0000
1030
,
0010
0100
0001
0020
0000
0001
0000
0230
,
0000
0001
0000
2300
0000
0010
0000
3001
,
0100
0010
1000
0100
0000
0011
0000
1000
,
0100
0001
0100
1000
0000
1010
0000
0001
,
0100
1000
0100
0001
0000
0110
0000
1000
,
0000
0101
0000
0010
0000
1100
0000
0001
,
0010
0100
1000
0010
0000
0110
0000
1000
,
0001
0100
0010
1000
0000
1100
0000
0001
,
0010
0100
1000
0010
0000
0101
0000
1000
,
0000
1100
0000
1001
0000
0101
0000
1000
,
0001
0100
0010
1000
0000
1000
0000
1000
,
0001
0010
0100
1000
0000
1000
0000
1000
,
0100
0010
0001
0100
0000
0010
0000
1000
,
4004
0000
3003
0000
;

//---------------dance-single - C. Picardy----------------
#NOTES:
     dance-single:
     :
     Challenge:
     9:
     0.486867,0.622562,0.377509,0.325077,0.068161,325.000000,289.000000,36.000000,31.000000,56.000000,22.000000,0.486867,0.622562,0.377509,0.325077,0.068161,325.000000,289.000000,36.000000,31.000000,56.000000,22.000000:
0000
0000
0000
0000
,
0000
0000
0000
0000
,
0000
0000
0000
0000
,
0000
0000
0000
0000
,
0001
0010
0100
2000
0000
0010
0000
3100
,
0010
0001
0100
0020
0000
1000
0000
0031
,
0010
1000
0100
0002
0000
0203
0000
1300
,
0004
0400
0000
0000
0000
0000
0000
0000
0000
0000
0000
0000
0000
0000
0303
0000
,
1010
M1M0
0001
0010
0000
1100
MM00
0101
,
0M1M
1000
0100
0010
0000
0101
0M0M
0011
,
01MM
0010
0100
0001
0000
2200
0000
0010
,
0300
0002
0000
0010
3000
0200
0000
1000
,
0303
0001
0100
1000
0000
0110
0MM0
1000
,
0001
0010
0100
0010
0000
1100
MM00
0001
,
0100
0010
1000
0200
0000
2000
0000
0001
,
0000
0020
3000
0001
0330
0010
0100
1000
,
0001
0001
0100
0100
0001
0001
0001
1000
,
0100
1000
0010
1000
0100
1000
0010
0100
,
0001
0001
0011
00MM
1000
1000
1100
MM00
,
0010
0010
0110
0MM0
1000
0001
0100
0001
,
1000
1000
0100
0100
1000
1000
1000
0001
,
0100
0000
1000
0000
0100
0000
0001
0000
0011
0000
0000
0110
0000
0000
2200
0000
,
0000
0000
0010
0000
0001
3300
0010
0100
,
1000
0001
0100
0100
0000
0010
0010
0100
,
0001
0100
0001
0000
0100
0001
0100
0000
0010
0100
0010
0000
0100
0010
0100
0000
,
0010
1000
0100
0010
0100
1000
0010
0100
,
0001
0010
11MM
0000
1000
0010
M1M1
0000
,
0010
0100
1MM1
0000
0100
0010
1000
0100
,
1000
0100
1000
0000
0100
1000
0100
0000
0010
0100
0010
0000
0100
0010
0100
0000
,
0010
0000
0100
0000
1000
0000
0001
0000
0101
0000
0000
0110
0000
0000
2002
0000
,
0000
0000
0010
0000
0010
3003
0001
0100
,
0040
4000
0000
0000
0000
0000
0000
0000
0000
0000
0000
0000
0000
0000
3030
0000
,
0101
0010
0100
1000
0000
0011
00MM
1000
,
0100
0010
0100
1000
0000
0110
0MM0
0001
,
0100
1000
0100
0001
0000
1100
MM00
1010
,
M0M0
0110
0MM0
0011
00MM
1100
MM00
0001
,
0010
1000
0010
0001
0000
1100
MM00
0001
,
0100
1000
0100
0001
0000
0011
00MM
1000
,
0100
0001
0100
1000
0000
0110
0MM0
0011
,
00MM
0101
0M0M
1100
MM00
0110
0MM0
1001
,
1000
0100
0020
0200
0000
0001
0330
1000
,
0100
0010
0002
0200
0000
0010
0303
0100
,
0010
0100
0001
2000
0000
0200
0000
0010
,
0000
0001
0000
0020
0000
0002
0000
3333
,
1000
0001
0200
0020
0000
1000
0330
0100
,
0001
0010
0002
2000
0000
0010
3003
0100
,
0010
1000
0001
0002
0000
0200
0000
1000
,
0000
0010
0000
0020
0000
2000
0000
3333
,
0001
0100
0001
0100
0010
0100
0010
0100
,
1000
0100
1000
0100
0001
0010
0001
0010
,
0100
0001
0100
0001
0100
1000
0100
1000
,
0040
0400
0000
0000
0000
0000
0000
0000
0330
0000
0MM0
0000
0000
0000
0000
0000
;
