#TITLE:Disconnected;
#SUBTITLE:;
#ARTIST:Hotblade;
#TITLETRANSLIT:;
#SUBTITLETRANSLIT:;
#ARTISTTRANSLIT:;
#GENRE:;
#CREDIT:;
#BANNER:disconnectedbn.png;
#BACKGROUND:disconnectedbg.png;
#LYRICSPATH:;
#CDTITLE:;
#MUSIC:disconnected.ogg;
#OFFSET:-0.019440;
#SAMPLESTART:51.119389;
#SAMPLELENGTH:12.379999;
#SELECTABLE:YES;
#BPMS:0.000000=155.009995
,228.000000=155.169998
;
#STOPS:
;
#BGCHANGES:16.000=binarycode1.mp4=1.000=1=0=1=SongBgWithMovieViz==CrossFade==,
32.000=flash=1.600=0=0=1=====,
32.250=disconnectedbg.png=1.000=0=0=1=====,
36.000=flash=1.600=0=0=1=====,
36.250=binarycode1.mp4=1.000=0=1=1=StretchRewind====,
68.000=whiteneon.mp4=1.000=0=1=1=StretchRewind==CrossFade_Fastest==,
100.000=fast.mp4=1.000=0=1=1=StretchRewind==CrossFade_Fastest==,
130.000=flash=1.600=0=0=1=====,
130.250=disconnectedbg.png=1.000=0=0=1=====,
132.000=flash=1.600=0=0=1=====,
132.250=binarycode1.mp4=1.000=0=0=1=====,
144.000=binarycode1.mp4=1.000=0=0=1=SongBgWithMovieViz====,
144.500=binarycode1.mp4=1.000=0=0=1=====,
145.000=binarycode1.mp4=1.000=0=0=1=SongBgWithMovieViz====,
145.500=binarycode1.mp4=1.000=0=0=1=====,
146.000=binarycode1.mp4=1.000=0=0=1=SongBgWithMovieViz====,
146.500=binarycode1.mp4=1.000=0=0=1=====,
147.000=binarycode1.mp4=1.000=0=0=1=SongBgWithMovieViz====,
147.500=binarycode1.mp4=1.000=0=0=1=====,
164.000=flash=1.600=0=0=1=====,
164.250=binarycode1.mp4=1.000=0=0=1=====,
176.000=binarycode1.mp4=1.000=0=0=1=SongBgWithMovieViz===#FF0000=,
177.000=binarycode1.mp4=1.000=0=0=1=SongBgWithMovieViz===#00FF00=,
178.000=binarycode1.mp4=1.000=0=0=1=SongBgWithMovieViz===#0000FF=,
179.000=binarycode1.mp4=1.000=0=0=1=SongBgWithMovieViz===#FFFF00=,
180.000=flash=1.600=0=0=1=====,
180.250=binarycode1.mp4=1.000=0=0=1=====,
196.000=flash=1.600=0=0=1=====,
196.250=linesinnerspace.mp4=1.000=0=1=1=StretchRewind====,
228.000=flash=1.600=0=0=1=====,
228.250=linesinnerspace.mp4=1.000=0=0=1=====,
259.500=flash=1.000=0=0=1=====,
259.750=disconnectedbg.png=1.000=0=0=1=====,
99999=-nosongbg-=1.000=0=0=0 // don't automatically add -songbackground-
;
#KEYSOUNDS:;
#ATTACKS:;

//---------------dance-single - C. Picardy----------------
#NOTES:
     dance-single:
     :
     Beginner:
     1:
     0.096518,0.127177,0.049679,0.019871,0.000000,68.000000,63.000000,5.000000,2.000000,0.000000,0.000000,0.096518,0.127177,0.049679,0.019871,0.000000,68.000000,63.000000,5.000000,2.000000,0.000000,0.000000:
0000
0000
0000
0000
,
0000
0000
0000
0000
,
0000
0000
0000
0000
,
0000
0000
0000
0000
,
0000
0000
0000
0000
,
0000
0000
0000
0000
,
0000
0000
0000
0000
,
2002
0000
0000
0000
,
3003
0000
0000
0000
,
0100
0000
0000
0000
,
0010
0000
0000
0000
,
1000
0000
0000
0000
,
0001
0000
0001
0000
,
0001
0000
0000
0000
,
1000
0000
0000
0000
,
0100
0000
0000
0000
,
0010
0000
0010
0000
,
0010
0000
0000
0000
,
0100
0000
0000
0000
,
1000
0000
0000
0000
,
0001
0000
0000
0000
,
0100
0000
0000
0000
,
0010
0000
0000
0000
,
1000
0000
0000
0000
,
0001
0000
0001
0000
,
0001
0000
0000
0000
,
0100
0000
0000
0000
,
0010
0000
0000
0000
,
1000
0000
0000
0000
,
0001
0000
0000
0000
,
0100
0000
0000
0000
,
0010
0000
0000
0000
,
1000
0000
0000
0000
,
1001
0000
0000
0000
,
0100
0000
0000
0000
,
0010
0000
0000
0000
,
1000
0000
1000
0000
,
1000
0000
0000
0000
,
0100
0000
0000
0000
,
0010
0000
0000
0000
,
0001
0000
0000
0000
,
1001
0000
0000
0000
,
0100
0000
0000
0000
,
0010
0000
0000
0000
,
0100
0000
0100
0000
,
0100
0000
0000
0000
,
0010
0000
0000
0000
,
0001
0000
0000
0000
,
1000
0000
0000
0000
,
0110
0000
0000
0000
,
1000
0000
0000
0000
,
0001
0000
0000
0000
,
0100
0000
0000
0000
,
1000
0000
0000
0000
,
0100
0000
0000
0000
,
0001
0000
0000
0000
,
0010
0000
0000
0000
,
1001
0000
0000
0000
,
0100
0000
0000
0000
,
0010
0000
0000
0000
,
1000
0000
1000
0000
,
1000
0000
0000
0000
,
0100
0000
0000
0000
,
0010
0000
0000
0000
,
0001
0000
0000
0000
;

//---------------dance-single - C. Picardy----------------
#NOTES:
     dance-single:
     :
     Challenge:
     10:
     0.892795,0.934640,0.476914,0.288136,0.829632,629.000000,581.000000,48.000000,29.000000,82.000000,0.000000,0.892795,0.934640,0.476914,0.288136,0.829632,629.000000,581.000000,48.000000,29.000000,82.000000,0.000000:
0000
0000
0000
0000
,
0000
0000
0000
0000
,
0000
0000
0000
0000
,
0000
0000
0000
0000
,
MM11
0000
0100
0000
1M1M
0010
0100
M1M1
,
0000
0000
2000
0000
0100
3100
0000
0020
,
0000
0001
0031
0100
0010
0100
0000
0010
,
4000
0040
0000
0000
0000
0000
0000
0000
0000
0000
0000
0000
0000
0000
3030
0000
,
2002
0000
0000
0000
0000
0000
3003
M00M
,
0010
0100
0010
0100
0000
0000
M0M2
0000
0000
0000
1003
0100
0010
0001
0010
0001
,
0100
0001
0100
0010
0000
0000
2M0M
0000
0000
0000
3001
0010
0100
1000
0100
0010
,
0001
0000
1000
0100
0000
0000
20MM
0000
0000
0000
3001
0010
0100
0010
0001
0100
,
0020
0000
0000
1000
0000
0000
0130
0000
M1M1
0000
0001
0000
1MM1
0000
11MM
0000
,
1000
0001
0100
0010
0000
0000
2MM1
0000
0000
0000
3100
0010
0001
0100
0010
1000
,
0100
0010
0001
1000
0000
0000
M1M2
0000
0000
0000
1003
0010
0100
0010
1000
0100
,
0010
0000
0001
0100
0000
0000
1M2M
0000
0000
0000
0130
0001
0010
0100
1000
0010
,
0100
0000
0001
0101
0000
0000
1000
0000
0100
0000
1000
1001
0000
0000
0101
0000
,
0110
0000
1000
0000
0100
0000
0010
0000
0001
0010
0001
0010
0001
0010
0001
0000
,
1000
0000
0010
0000
0100
0000
0010
0000
1000
0100
1000
0100
1000
0100
1000
0000
,
0100
0000
0010
0000
0001
0000
0100
0000
0010
0100
0010
0100
0010
0100
0010
0000
,
1000
0000
0001
0100
0001
0100
0001
0000
1000
0100
0010
0100
1000
0001
0100
0000
,
1MM1
0000
0100
0000
0010
0000
1000
0000
0001
0000
0010
0000
0100
1000
0100
0010
,
0100
0000
1000
0000
0100
0000
0001
0000
0100
0000
1000
0000
0010
0100
0001
0100
,
0010
0000
1000
0000
0001
0000
0100
0000
1000
0000
0100
0010
0100
0001
0100
0000
,
0001
0010
0001
0010
0100
1000
0100
1000
0001
0100
0010
1000
0100
0010
0001
0000
,
1MM2
0010
0010
1000
0023
0100
0100
0032
,
1000
1000
0010
1000
0203
0010
0310
2000
,
0001
0001
0100
0001
3002
0010
1000
0100
,
0103
1000
0100
0001
0010
0100
1000
1M1M
,
0000
0100
M1M1
M1M1
0000
0100
0010
1000
,
1100
0001
0100
0101
0110
1000
0001
0101
,
1001
0100
0010
1000
0100
0010
0001
0100
,
0010
1000
0100
0010
0001
0100
0010
0000
1MM1
0000
0000
0000
M00M
0000
0000
0000
,
0001
0000
0100
0000
0010
0000
1000
0100
0010
0000
0001
0000
1000
0000
0010
0100
,
0001
0000
0010
0000
0100
0000
1000
0010
0100
0000
0001
0000
1000
0000
0100
0010
,
0001
0000
1000
0000
0010
0000
0100
0001
1000
0000
0100
0000
0010
0000
0001
0000
,
0010
0001
0100
0000
0010
1000
0100
0000
0010
0001
0100
0000
0010
1000
0100
0000
,
1MM1
0000
1000
0000
0010
0000
0100
0001
1000
0000
0100
0000
0010
0000
0001
0100
,
0010
0000
1000
0000
0001
0000
1000
0010
0100
0000
0001
0000
1000
0000
0100
0010
,
0001
0000
1000
0000
0010
0000
0100
0001
1000
0000
0100
0000
0010
0000
0001
0000
,
1000
0100
1000
0000
0001
0100
0001
0000
1000
0010
1000
0100
0010
0001
0100
0000
,
M11M
0000
1000
0000
0100
0000
0010
0100
1000
0000
0001
0000
0100
0000
0001
0100
,
1000
0000
0100
0000
0001
0000
0010
0100
1000
0000
0100
0000
0001
0000
0100
1000
,
0010
0000
0100
0000
1000
0000
0100
0001
0010
0000
0100
0000
0010
0000
0001
0000
,
0100
0010
1000
0000
0100
0010
0001
0000
0100
0010
1000
0000
0100
0010
0001
0000
,
11MM
0000
0001
0000
0100
0000
0010
1000
0100
0000
0010
0000
0001
0000
0100
0010
,
1000
0000
0001
0000
0010
0000
0100
0010
0001
0000
1000
0000
0010
0000
0100
0000
,
0001
0010
0001
0000
1000
0100
1000
0000
0001
0100
0001
0000
1000
0010
1000
0000
,
0100
0010
0100
0010
0001
1000
0001
1000
0100
0010
0001
0010
0100
1000
0010
0100
,
0001
0100
0010
1000
0000
0000
0MM2
0000
0000
0000
1003
0100
0010
0100
1000
0001
,
0100
0010
0100
0001
0000
0000
2MM0
0000
0000
0000
3001
0100
0010
0100
0001
0010
,
0100
0000
0010
0001
0000
0000
M2M0
0000
0000
0000
0301
0100
0010
1000
0100
0010
,
0001
0000
1000
0010
0000
0000
0100
0000
M1M1
0000
0001
0000
1MM1
0000
11MM
0000
,
1000
0100
0010
0001
0000
0000
2MM1
0000
0000
0000
3001
0100
0010
1000
0100
0010
,
0100
1000
0010
0100
0000
0000
1MM2
0000
0000
0000
1003
0001
0100
0010
1000
0001
,
0010
0000
0100
0010
0000
0000
MM12
0000
0000
0000
1003
0100
0010
0100
1000
0010
,
0100
0000
0000
0011
0000
0000
1000
0000
1100
0000
0001
0100
0000
0000
1010
0000
,
0001
0100
0010
1000
0000
0000
02MM
0000
0000
0000
0301
0100
0010
0001
0100
1000
,
0100
0010
1000
0100
0000
0000
M02M
0000
0000
0000
0031
0100
1000
0100
0001
0100
,
0010
0000
1000
0010
0000
0000
MM02
0000
0000
0000
0013
1000
0100
0010
0001
0100
,
0010
0000
0100
1000
0000
0000
0100
0000
M1M1
0000
0001
0000
11MM
0000
M1M1
0000
,
0001
0100
1000
0100
0000
0000
1M2M
0000
0000
0000
0130
0010
0001
0010
1000
0100
,
0001
0100
0010
0100
0000
0000
MM21
0000
0000
0000
0130
0010
1000
0010
0001
0100
,
0010
0000
1000
0100
0000
0000
MM12
0000
0000
0000
0103
1000
0100
0001
0010
0100
,
1100
0000
0001
0101
0000
0000
1000
0000
1010
0000
0001
0101
0000
0000
1100
0000
;

//---------------dance-single - C. Picardy----------------
#NOTES:
     dance-single:
     :
     Easy:
     4:
     0.312265,0.418169,0.367621,0.228521,0.000000,220.000000,183.000000,37.000000,23.000000,0.000000,0.000000,0.312265,0.418169,0.367621,0.228521,0.000000,220.000000,183.000000,37.000000,23.000000,0.000000,0.000000:
0000
0000
0000
0000
,
0000
0000
0000
0000
,
0000
0000
0000
0000
,
0000
0000
0000
0000
,
1001
0000
0100
0000
,
0010
0000
1000
0000
,
0001
0000
0100
0100
,
0020
0000
0000
0000
,
0030
0000
0000
0000
,
1001
0010
0010
0000
,
1000
0100
0100
0000
,
0010
0001
0001
0000
,
0101
0000
1100
0000
,
0001
0100
0010
0000
,
1000
0100
0010
0000
,
0001
0010
0100
0000
,
1010
0000
0011
0000
,
0001
0001
0100
0010
,
2000
3000
0001
1000
,
0100
0100
0010
0001
,
0200
0300
2002
3003
,
0002
0003
2000
3000
,
0200
0300
0010
0100
,
1000
0001
0100
0010
,
2000
0000
0000
3000
,
0101
0001
0001
0000
,
1100
1000
1000
0000
,
0010
0100
0001
0010
,
0200
0000
0300
0000
,
1100
0000
0011
0000
,
1010
0000
0101
0000
,
1000
0001
0100
0010
,
2002
0000
3003
0000
,
0110
1000
0001
0001
,
0001
1000
0100
0100
,
0100
0010
0001
0100
,
1001
0110
1001
0110
,
1000
0000
0001
0000
,
0100
0010
0010
0000
,
1000
0001
0100
0001
,
2000
0010
0001
3001
,
0110
0001
1000
1000
,
1000
0010
0100
0100
,
0100
0001
1000
0100
,
0101
1100
0101
1100
,
0001
0100
0010
0010
,
0010
1000
0002
0003
,
1000
0001
0100
0010
,
2002
0000
0000
3003
,
0010
0010
0110
0000
,
1000
1000
1001
0000
,
0001
0100
1001
0000
,
1100
0000
0101
1000
,
0001
0100
1010
0000
,
1000
0100
0011
0000
,
0010
1000
0101
0000
,
0201
0000
0010
0010
,
0301
1000
0100
1000
,
0010
0100
0010
1000
,
0001
0010
0001
0100
,
2002
3003
0220
0330
,
0001
1000
0100
0010
,
0001
0100
0010
1000
,
0100
1000
0010
0100
,
0010
0010
2002
3003
;

//---------------dance-single - C. Picardy----------------
#NOTES:
     dance-single:
     :
     Medium:
     6:
     0.401687,0.451206,0.238457,0.109293,0.134132,283.000000,259.000000,24.000000,11.000000,0.000000,0.000000,0.401687,0.451206,0.238457,0.109293,0.134132,283.000000,259.000000,24.000000,11.000000,0.000000,0.000000:
0000
0000
0000
0000
,
0000
0000
0000
0000
,
0000
0000
0000
0000
,
0000
0000
0000
0000
,
0011
0000
0000
0000
0100
0000
0000
0100
,
0000
0010
0020
0000
,
1030
0100
0010
0001
,
2200
0000
0000
3300
,
0202
0000
0000
0303
,
0010
0000
0000
0010
0000
0000
0010
0000
0000
0000
0000
0000
1000
0000
0000
0000
,
0100
0000
0000
0100
0000
0000
0100
0000
0000
0000
0000
0000
1000
0000
0000
0000
,
0001
0000
0000
0001
0000
0000
0001
0000
0000
0000
0000
0000
1000
0000
0000
0000
,
1000
0000
0000
1000
0000
0000
0000
0000
0001
0000
0001
0000
0001
0000
0000
0000
,
0100
0000
0000
0010
0000
0000
1000
0000
0000
0000
0000
0000
0100
0000
0000
0000
,
0010
0000
0000
0001
0000
0000
0100
0000
0000
0000
0000
0000
0010
0000
0000
0000
,
1000
0000
0000
0001
0000
0000
0100
0000
0000
0000
0000
0000
0010
0000
0000
0000
,
1000
0000
0000
0001
0000
0000
0000
0000
0100
0000
0000
0010
0000
0000
0100
0000
,
0010
0000
1000
0000
0001
0000
1000
0100
,
1000
0000
0010
0000
0100
0000
0001
0010
,
0001
0000
1000
0000
0010
0000
1000
0100
,
0001
0000
0100
0000
1000
1000
0001
0000
,
0101
0000
0100
0000
0010
0000
1000
0100
,
0010
0000
0001
0000
1000
0000
0001
0100
,
0010
0000
1000
0000
0001
0010
0100
2000
,
0000
0010
0001
3001
,
0101
0000
0100
0000
0010
0010
0000
0000
,
1000
0000
0001
0000
0100
0100
0000
0000
,
0001
0000
0010
0000
0100
0000
1000
0020
,
0000
0000
0000
0000
1030
0000
0001
0100
,
0000
0001
0010
0200
0000
0000
1300
0000
,
0001
0000
1000
0000
0001
0001
0000
0000
,
0100
0000
0010
0000
0100
0010
1000
0020
,
0000
0030
1001
0000
,
0110
0000
1000
0000
0100
1000
0100
0000
,
0010
0000
0100
0000
0010
0001
0010
0000
,
0100
0000
1000
0000
0001
0100
0010
0000
,
1100
0101
1100
0101
,
0010
0000
0100
0000
1000
0000
0001
0100
,
0000
0000
0010
0000
0010
0010
0000
0000
,
1000
0000
0001
0000
1000
0100
0010
0000
,
2001
0010
0001
3100
,
0011
0000
0100
0000
0010
0010
1000
0000
,
0001
0000
0010
0000
0100
0100
0010
0000
,
0001
0000
0010
0000
0100
1000
0010
0000
,
1100
0011
1100
0011
,
0100
0000
0010
0000
1000
0000
0100
0010
,
0000
0000
0100
0000
1000
0001
0000
0000
,
0100
0000
0010
0000
1000
0100
0010
0000
,
1002
0010
1000
0103
,
1000
0000
0000
1000
0000
0000
1000
0000
0000
0000
0000
0000
0001
0000
0000
0000
,
0010
0000
0000
0010
0000
0000
0010
0000
0000
0000
0000
0000
0100
0000
0000
0000
,
1000
0000
0000
1000
0000
0000
1000
0000
0000
0000
0000
0000
0100
0000
0000
0000
,
0010
0000
0000
0100
0000
0000
1000
0000
0001
0000
0000
0000
0110
0000
0000
0000
,
1000
0000
0000
0001
0000
0000
0100
0000
0000
0000
0000
0000
0010
0000
0000
0000
,
1000
0000
0000
0001
0000
0000
0010
0000
0000
0000
0000
0000
0100
0000
0000
0000
,
1000
0000
0000
0010
0000
0000
0100
0000
0000
0000
0000
0000
0001
0000
0000
0000
,
1000
0000
0000
1000
0000
0000
0000
0000
0001
0000
0000
0001
0000
0000
1000
0000
,
0100
0000
0000
0100
0000
0000
1100
0000
0000
0000
0000
0000
0001
0000
0000
0000
,
0100
0000
0000
0100
0000
0000
0101
0000
0000
0000
0000
0000
0010
0000
0000
0000
,
1000
0000
0000
1000
0000
0000
1010
0000
0000
0000
0000
0000
0100
0000
0000
0000
,
0001
0000
0000
0010
0000
0000
0100
0000
0010
0000
0000
0000
1001
0000
0000
0000
,
1000
0000
0000
0001
0000
0000
0100
0000
0000
0000
0010
0000
0100
0000
0000
0000
,
0001
0000
0000
0010
0000
0000
0100
0000
0000
0000
1000
0000
0100
0000
0000
0000
,
1000
0000
0000
0001
0000
0000
0100
0000
0000
0000
0010
0000
1000
0000
0000
0000
,
0001
0000
0000
0001
0000
0000
1000
0000
0001
0000
0000
1000
0000
0000
1001
0000
;

//---------------dance-single - C. Picardy----------------
#NOTES:
     dance-single:
     :
     Hard:
     8:
     0.581949,0.580122,0.288136,0.238457,0.253361,410.000000,381.000000,29.000000,24.000000,0.000000,2.000000,0.581949,0.580122,0.288136,0.238457,0.253361,410.000000,381.000000,29.000000,24.000000,0.000000,2.000000:
// measure 0
0000
0000
0000
0000
,  // measure 1
0000
0000
0000
0000
,  // measure 2
0000
0000
0000
0000
,  // measure 3
0000
0000
0000
0000
,  // measure 4
1001
0000
0100
0000
1001
0000
0100
0110
,  // measure 5
0000
0000
0001
0000
1000
1000
0000
0100
,  // measure 6
0000
0010
0010
0000
0001
0010
0100
0000
,  // measure 7
2002
0000
0000
0000
,  // measure 8
0010
0000
0000
3003
,  // measure 9
0010
0000
0000
0100
0000
0000
0020
0000
0000
0000
0130
0000
1000
0000
0100
0000
,  // measure 10
0010
0000
0000
0001
0000
0000
0020
0000
0000
0000
0031
0000
0100
0000
0001
0000
,  // measure 11
0010
0000
0000
0100
0000
0000
2000
0000
0000
0000
3001
0000
0100
0000
0010
0000
,  // measure 12
1000
0000
0000
0001
0000
0000
0100
0000
0010
0000
0010
0000
1000
0000
1000
0000
,  // measure 13
0100
1000
0000
0100
0000
0000
0020
0000
0000
0000
0031
0000
0010
0000
0001
0000
,  // measure 14
0100
0001
0000
0100
0000
0000
0020
0000
0000
0000
1030
0000
0001
0000
0100
0000
,  // measure 15
0010
0000
0000
1000
0000
0000
0002
0000
0000
0000
0103
0000
0010
0100
0000
0000
,  // measure 16
0001
0000
0000
1001
0000
0000
1000
0000
0100
0000
0000
1001
0000
0000
0100
0000
,  // measure 17
0010
0000
0100
0000
0001
0010
0100
0010
,  // measure 18
0001
0000
1100
0000
0010
0100
1000
0100
,  // measure 19
0010
0000
0001
0000
1000
0010
0100
0010
,  // measure 20
1000
0000
1000
0000
0100
0000
0000
0000
0010
0001
0010
0001
0010
0000
0000
0000
,  // measure 21
1001
0000
0100
0000
0010
0000
1000
0001
,  // measure 22
0100
0000
1010
0000
0001
0100
1000
0100
,  // measure 23
0001
0000
1000
0000
0001
0010
0001
0010
,  // measure 24
0100
0000
1000
0000
0100
0000
1000
0000
0010
0100
0010
0100
0010
0000
0000
0000
,  // measure 25
0201
0000
0010
0000
0001
0301
0000
1000
,  // measure 26
0200
0000
0010
0000
1000
1300
0000
0001
,  // measure 27
0000
1000
0100
0010
0001
0010
0100
1000
,  // measure 28
0010
0100
0001
0000
1000
1000
0100
0001
,  // measure 29
0000
0001
0100
1000
0001
0000
0100
0000
,  // measure 30
0001
0100
1000
0100
0001
0001
0000
1000
,  // measure 31
0100
1000
0010
1000
0100
0010
0001
2000
,  // measure 32
0002
0000
0010
3003
,  // measure 33
1100
0000
0011
0000
0001
0100
0010
0100
,  // measure 34
0001
0000
1100
0000
1000
0100
0001
0100
,  // measure 35
1000
0000
0001
0100
0010
1000
0100
0000
,  // measure 36
0101
1100
0101
1100
,  // measure 37
1001
0000
0100
0000
0010
0010
1000
0100
,  // measure 38
1000
0000
0010
0000
0100
0100
0001
1000
,  // measure 39
0001
0000
0100
0000
0010
1000
0100
0000
,  // measure 40
0010
0001
0000
0000
0100
0010
0000
0000
1000
0001
0000
0000
0010
0100
0000
0000
,  // measure 41
1001
0000
0001
0100
0010
0100
0001
0100
,  // measure 42
0010
1000
0100
1000
0010
1000
0100
0010
,  // measure 43
0100
1000
0100
0010
0100
1000
0010
0000
,  // measure 44
1100
0011
1100
0011
,  // measure 45
0100
0000
1001
0000
0010
0010
0100
1000
,  // measure 46
0100
0100
0010
0000
0001
0001
0100
1000
,  // measure 47
0100
0001
0010
0100
1000
0010
0100
0001
,  // measure 48
1000
0100
0000
0000
0001
0100
0000
0000
1000
0010
0000
0000
0001
0010
0000
0000
,  // measure 49
1000
0000
0000
0100
0000
0000
0020
0000
0000
0000
0130
0000
1000
0000
0010
0000
,  // measure 50
0100
0000
0000
0010
0000
0000
2000
0000
0000
0000
3100
0000
0010
0000
0001
0000
,  // measure 51
1000
0000
0000
0001
0000
0000
0200
0000
0000
0000
0301
0000
0010
0000
0001
0000
,  // measure 52
0100
0000
0000
0010
0000
0000
1000
0000
0100
0000
0010
0000
0001
0000
0010
0000
,  // measure 53
0100
1000
0000
0100
0000
0000
0020
0000
0000
0000
0130
0000
1000
0000
0100
0000
,  // measure 54
0010
0001
0000
0010
0000
0000
0002
0000
0000
0000
0103
0000
0010
0000
0100
0000
,  // measure 55
0001
0000
0000
0001
0000
0000
2000
0000
0000
0000
3010
0000
0100
0000
0001
0000
,  // measure 56
1000
0000
0000
1100
0000
0000
0001
0000
0100
0000
0000
0101
0000
0000
0001
0000
,  // measure 57
1000
0100
0000
0100
1000
0000
0002
0000
0000
0000
0103
0000
0010
0000
0100
0000
,  // measure 58
0001
0010
0000
0010
0001
0000
2000
0000
0000
0000
3100
0000
0010
0000
0001
0000
,  // measure 59
0100
0010
0000
0010
0100
0000
0020
0000
0000
0000
1030
0000
0001
0100
0000
0100
,  // measure 60
0001
0010
0100
1000
0100
0100
0010
0010
,  // measure 61
0001
0100
0000
0100
0010
0000
2000
0000
0000
0000
3001
0000
0010
0000
0100
0000
,  // measure 62
1000
0100
0000
0100
0010
0000
0002
0000
0000
0000
1003
0000
0001
0000
0100
0000
,  // measure 63
0010
1000
0000
1000
0100
0000
0020
0000
0000
0000
0130
0000
1000
0000
0100
0000
,  // measure 64
0010
0000
0000
0011
0000
0000
1000
0000
0100
0000
0000
1001
0000
0000
0110
0000
;
