#TITLE:Deep Blue;
#SUBTITLE:;
#ARTIST:Lagoona;
#TITLETRANSLIT:;
#SUBTITLETRANSLIT:;
#ARTISTTRANSLIT:;
#GENRE:;
#CREDIT:;
#BANNER:deepbluebn.png;
#BACKGROUND:deepbluebg.png;
#LYRICSPATH:;
#CDTITLE:;
#MUSIC:deepblue.ogg;
#OFFSET:-1.615605;
#SAMPLESTART:78.429794;
#SAMPLELENGTH:12.759992;
#SELECTABLE:YES;
#BPMS:0.000000=149.960007
;
#STOPS:
;
#BGCHANGES:;
#KEYSOUNDS:;
#ATTACKS:;

//---------------dance-single - C. Picardy----------------
#NOTES:
     dance-single:
     :
     Beginner:
     1:
     0.078601,0.149209,0.055953,0.000000,0.000000,59.000000,53.000000,6.000000,0.000000,0.000000,0.000000,0.078601,0.149209,0.055953,0.000000,0.000000,59.000000,53.000000,6.000000,0.000000,0.000000,0.000000:
0000
0000
0000
0000
,
0000
0000
0000
0000
,
0000
0000
0000
0000
,
0000
0000
0000
0000
,
0010
0000
0000
0000
,
0000
0000
0000
0000
,
0100
0000
0000
0000
,
0000
0000
0000
0000
,
0001
0000
0000
0000
,
1000
0000
0000
0000
,
0010
0000
0000
0000
,
0100
0000
0000
0000
,
1000
0000
0000
0000
,
0001
0000
0000
0000
,
0100
0000
0000
0000
,
0010
0000
0000
0000
,
1001
0000
0000
0000
,
0000
0000
0000
0000
,
0100
0000
0000
0000
,
0010
0000
0000
0000
,
1000
0000
0000
0000
,
0000
0000
0000
0000
,
0100
0000
0000
0000
,
1000
0000
0000
0000
,
0001
0000
0000
0000
,
0000
0000
0000
0000
,
0010
0000
0000
0000
,
0100
0000
0000
0000
,
1000
0000
0000
0000
,
0000
0000
0000
0000
,
0001
0000
0000
0000
,
0100
0000
0000
0000
,
1001
0000
0000
0000
,
0000
0000
0000
0000
,
0010
0000
0000
0000
,
0100
0000
0000
0000
,
1000
0000
0000
0000
,
0000
0000
0000
0000
,
0000
0000
0000
0000
,
0100
0000
0000
0000
,
0010
0000
0000
0000
,
0000
0000
0000
0000
,
0000
0000
0000
0000
,
1000
0000
0000
0000
,
0100
0000
0000
0000
,
0010
0000
0000
0000
,
0001
0000
0000
0000
,
1000
0000
0000
0000
,
1001
0000
0000
0000
,
0100
0000
0100
0000
,
0000
0000
0000
0000
,
0010
0000
0010
0000
,
1001
0000
0000
0000
,
0100
0000
0100
0000
,
0000
0000
0000
0000
,
0010
0000
0010
0000
,
0110
0000
0000
0000
,
1000
0000
0000
0000
,
0001
0000
0000
0000
,
0100
0000
0000
0000
,
0010
0000
0000
0000
,
1000
0000
0000
0000
,
0001
0000
0000
0000
,
1000
0000
1000
0000
,
1001
0000
0000
0000
;

//---------------dance-single - C. Picardy----------------
#NOTES:
     dance-single:
     :
     Easy:
     3:
     0.223814,0.306578,0.046628,0.223814,0.000000,168.000000,163.000000,5.000000,24.000000,0.000000,0.000000,0.223814,0.306578,0.046628,0.223814,0.000000,168.000000,163.000000,5.000000,24.000000,0.000000,0.000000:
0000
0000
0000
0000
,
0000
0000
0000
0000
,
0000
0000
0000
0000
,
0000
0000
0000
0000
,
1000
0000
0100
0000
,
0010
0000
0001
0000
,
0010
0000
0100
0000
,
1000
0000
0001
0000
,
1000
0100
0010
0100
,
1000
0100
0001
0100
,
1000
0010
1000
0100
,
0010
0001
0100
0001
,
1000
0100
0001
0100
,
1000
0010
0001
0010
,
1000
0001
0100
0010
,
1000
0100
0010
0001
,
2200
0000
0000
0000
,
0000
0000
0000
0300
,
0002
0000
0000
3000
,
0200
0003
0020
0300
,
2000
0000
0000
0000
,
0030
0000
0000
0000
,
0002
0000
0000
3000
,
0020
0003
0002
0030
,
2000
0000
0000
0003
,
0200
0000
0000
3000
,
0020
0300
0002
0030
,
2000
0003
0020
3000
,
0200
0000
0000
0000
,
0000
0000
0000
0030
,
0002
0000
0000
0300
,
0020
0003
0200
0030
,
1300
0000
0001
0000
,
0100
0000
0010
0000
,
1000
0000
0100
0000
,
0010
0000
0001
0000
,
0100
0000
0010
0000
,
1000
0000
0100
0000
,
0001
0000
0100
0000
,
1000
0000
0010
0000
,
1000
0010
0000
0100
,
0001
1000
0000
0100
,
1000
0001
0000
0100
,
0010
0000
1000
0100
,
0010
0000
0001
0001
,
0001
0000
1000
1000
,
1000
0000
0010
0100
,
0000
0010
0100
0010
,
1001
0100
0010
0100
,
0001
1000
0001
1000
,
0100
0010
0100
0010
,
0001
0100
0001
0100
,
0110
1000
0010
1000
,
0100
1000
0100
1000
,
0001
0010
0001
0010
,
0001
0100
0001
0100
,
2001
0001
0001
3001
,
0200
0010
0010
0310
,
2000
0100
0100
3100
,
0010
0100
0010
0100
,
1000
0100
0001
0001
,
0100
1000
0001
0001
,
0100
0010
1000
1000
,
0001
0100
0010
0010
,
2002
0000
0000
0000
,
0000
0000
0000
3003
;

//---------------dance-single - C. Picardy----------------
#NOTES:
     dance-single:
     :
     Medium:
     6:
     0.334388,0.490525,0.195837,0.261116,0.000000,251.000000,230.000000,21.000000,28.000000,0.000000,0.000000,0.334388,0.490525,0.195837,0.261116,0.000000,251.000000,230.000000,21.000000,28.000000,0.000000,0.000000:
0000
0000
0000
0000
,
0000
0000
0000
0000
,
0000
0000
0100
0000
0000
0100
0000
0000
,
0000
0000
0001
0000
0000
0001
0000
0000
,
1000
0000
0100
0000
0000
0010
0000
0000
,
0010
0000
0001
0000
0000
0100
0000
0000
,
0100
0000
0010
0000
0000
0100
0000
0000
,
0100
0000
1000
0000
0000
0100
0000
0001
,
0001
0000
1000
0000
0001
0010
0001
0000
,
1000
0000
0100
0000
0010
0001
0010
0000
,
0100
0000
0010
0000
0100
1000
0100
0000
,
0010
0000
0001
0000
1000
0010
1000
0000
,
0001
0000
0100
0000
0001
0100
1000
0000
,
0100
0000
0010
0000
1000
0100
0001
0000
,
0100
0000
1000
0000
0010
0100
0010
0000
,
1100
0000
0110
0000
0011
0000
1000
0001
,
0102
0000
0000
0000
,
0010
0000
0010
0000
,
0203
0000
0000
0000
,
0320
0000
2030
0000
,
3200
0000
0000
0000
,
1000
0000
1000
0000
,
0320
0000
0000
0000
,
0032
0000
0203
0000
,
0320
0000
2030
0000
,
3200
0000
2300
0000
,
3020
0000
0100
0000
,
2030
0000
0001
0000
,
3002
0000
2003
0000
,
0010
0000
0100
0000
,
3002
0000
0100
0000
,
2003
0000
0010
3000
,
1001
0000
1000
0000
0000
0100
0200
0000
,
0310
0000
0001
0000
0000
1000
2000
0000
,
3010
0000
0100
0000
0000
0001
0002
0000
,
0013
0000
0100
0000
0000
0010
0020
0000
,
0031
0000
1000
0000
0000
0001
1000
0000
,
0010
0000
0100
0000
0000
0010
0100
0000
,
1000
0000
0010
0000
0000
1000
0100
0000
,
0010
0000
0001
0000
0000
0010
0100
0000
,
2000
0000
0010
0000
0000
0010
0010
0000
,
0000
0000
0100
0000
0000
0100
3200
0000
,
0000
0000
0010
0000
0000
1000
1000
0000
,
0310
0000
2000
3002
,
0010
0000
0010
0000
0000
1000
1000
0000
,
0100
0000
1000
0000
0000
0010
0010
0000
,
1000
0000
0010
0000
0000
0100
0100
0000
,
0010
0010
1000
0103
,
0010
0000
1000
0000
0010
0100
0010
0000
,
1000
0000
0100
0000
0010
0100
0010
0000
,
0100
0000
1000
0000
0010
0100
0010
0000
,
1000
0000
0001
0000
0100
0001
0100
0000
,
0010
0000
0101
0000
0100
0010
0100
0000
,
0010
0000
1010
0000
1000
0100
1000
0000
,
0100
0000
0011
0000
1000
0100
0010
0000
,
0001
0000
1100
0000
0001
0100
0010
0000
,
1010
0000
0110
0000
1000
0010
0100
0000
,
0011
0000
0101
0000
0010
0001
0100
0000
,
0110
0000
1010
0000
0100
0010
1000
0000
,
1100
0000
0011
0000
1000
0100
0010
0000
,
0001
0010
0100
0000
0010
0100
1000
0000
,
1000
0010
0100
0000
0010
0100
0001
0000
,
1000
0100
0001
0000
0001
0100
1000
0000
,
0110
0000
1000
0001
0101
0000
0110
0000
,
2002
0000
0000
0000
,
0000
0000
0000
3003
;

//---------------dance-single - C. Picardy----------------
#NOTES:
     dance-single:
     :
     Hard:
     8:
     0.439634,0.671908,0.149209,0.149209,0.135221,330.000000,314.000000,16.000000,16.000000,0.000000,0.000000,0.439634,0.671908,0.149209,0.149209,0.135221,330.000000,314.000000,16.000000,16.000000,0.000000,0.000000:
// measure 0
0000
0000
0000
0000
,  // measure 1
0000
0000
0000
0000
,  // measure 2
0001
0010
0001
0100
,  // measure 3
0010
1000
0100
0010
,  // measure 4
0001
0000
1000
0000
0000
1000
0100
0000
,  // measure 5
0010
0000
0100
0000
0000
0010
0001
0000
,  // measure 6
0100
0000
0010
0000
0000
1000
0010
0000
,  // measure 7
0100
0000
0001
0000
0000
0010
0100
1000
,  // measure 8
1001
0000
0100
0000
0010
0001
0100
0000
,  // measure 9
1010
0000
0100
0000
0010
0100
1000
0000
,  // measure 10
0011
0000
0100
0000
0010
1000
0100
0000
,  // measure 11
0110
0000
1000
0000
0100
1000
0001
0000
,  // measure 12
1000
0000
0000
0000
1010
0000
0000
0000
1000
0000
0100
1000
0100
0000
0000
0000
,  // measure 13
0010
0000
0000
0000
0011
0000
0000
0000
0001
0000
0010
0001
0010
0000
0000
0000
,  // measure 14
0001
0000
0100
0001
0100
0000
0000
0000
0010
0000
1000
0010
1000
0000
0000
0000
,  // measure 15
0001
0000
0100
0000
0010
0000
1000
0000
0100
0000
0000
0010
0001
0000
1000
0000
,  // measure 16
2200
0000
0000
0000
,  // measure 17
0000
0000
0000
0000
0000
0000
0000
0300
,  // measure 18
0020
0000
0000
0000
0000
0000
0000
3000
,  // measure 19
0200
0000
0000
0030
2000
0000
0000
0300
,  // measure 20
0002
0000
0000
0000
,  // measure 21
0000
0000
0000
0000
0000
0000
0000
3000
,  // measure 22
0020
0000
0000
0000
0000
0000
0000
0003
,  // measure 23
0200
0000
0000
0030
0002
0000
0000
0300
,  // measure 24
0020
0000
0000
0003
0400
0000
0000
0000
,  // measure 25
0000
0000
0000
0000
0000
0000
0000
0030
,  // measure 26
2000
0000
0000
0000
0000
0000
0000
0300
,  // measure 27
0002
0000
0000
3000
0403
0000
0000
0000
,  // measure 28
0020
0000
0000
0000
,  // measure 29
0000
0000
0000
0000
0000
0000
0000
0300
,  // measure 30
4000
0000
0000
0000
0000
0000
0000
0030
,  // measure 31
0200
0000
0000
3000
0040
0000
0000
0330
,  // measure 32
1001
0000
0000
0100
0000
0010
0000
0001
,  // measure 33
0000
1000
0000
0100
0000
0001
0000
0010
,  // measure 34
0000
1000
0000
0001
0000
0100
0000
1000
,  // measure 35
0000
0010
0000
1000
0000
0100
0000
0010
,  // measure 36
0001
0000
0100
0000
0010
1000
0010
0000
,  // measure 37
1000
0000
0100
0000
0010
0001
0010
0000
,  // measure 38
0100
0000
1000
0000
0010
0100
0010
0000
,  // measure 39
1000
0000
0001
0000
0100
0010
0100
0000
,  // measure 40
0001
0000
0000
0000
0011
0000
0000
0000
0000
0000
0100
0010
0100
0000
0000
0000
,  // measure 41
0010
0000
0000
0000
1010
0000
0000
0000
0000
0000
0100
1000
0100
0000
0000
0000
,  // measure 42
0010
0000
0000
0000
1100
0000
0000
0000
0000
0000
0010
0001
0010
0000
0000
0000
,  // measure 43
0100
0000
0000
0000
0110
0000
0000
0000
0000
0000
1000
0001
1000
0000
0000
0000
,  // measure 44
0001
0000
0000
0001
0100
0000
0000
0000
0010
0000
0000
0010
0100
0000
0000
0000
,  // measure 45
1000
0000
0000
1000
0100
0000
0000
0000
0010
0000
0000
0010
1000
0000
0000
0000
,  // measure 46
0001
0000
0100
0001
0100
0000
0000
0000
0010
0000
1000
0010
1000
0000
0000
0000
,  // measure 47
0100
0000
0010
0100
0010
0000
0000
0000
0001
0000
1000
0001
1000
0000
0100
0000
,  // measure 48
0010
0001
0100
0001
0010
0001
0100
0010
,  // measure 49
0001
0010
0100
0010
0001
0010
0100
0010
,  // measure 50
1000
0100
0010
0100
1000
0100
0010
0100
,  // measure 51
1000
0000
0010
0000
0100
0000
0010
0000
1000
0000
0010
0000
0100
0000
0010
1000
,  // measure 52
0100
1000
0010
1000
0100
1000
0010
1000
,  // measure 53
0100
0010
0001
0010
0100
0010
0001
0010
,  // measure 54
0001
0100
1000
0100
0001
0100
1000
0100
,  // measure 55
0001
0010
1000
0010
0001
0010
1000
0010
,  // measure 56
0001
0000
0100
0000
0010
0000
0100
0000
0001
0000
0100
0010
0100
0000
0010
0000
,  // measure 57
1000
0000
0100
0000
0010
0000
0100
0000
1000
0000
0100
1000
0100
0000
0010
0000
,  // measure 58
0001
0000
0100
0000
0001
0000
0010
0000
0001
0000
0100
0001
0100
0000
0010
0000
,  // measure 59
0100
0000
0010
0000
0001
0000
0010
0000
0100
0000
0010
1000
0010
0000
0100
0000
,  // measure 60
0001
0000
1000
0100
1000
0000
0100
0000
0010
0000
0001
0010
0001
0000
1000
0000
,  // measure 61
0100
0000
0010
0001
0010
0000
0100
0000
1000
0000
0010
1000
0010
0000
0100
0000
,  // measure 62
0001
0000
0100
0010
0100
0000
0001
0000
1000
0000
0001
1000
0001
0000
0100
0000
,  // measure 63
0101
0000
0000
0000
0100
0000
0010
0000
0101
0000
0000
0001
1000
0000
1001
0000
,  // measure 64
2200
0000
0000
0000
,  // measure 65
0000
0000
3300
0000
;

//---------------dance-single - C. Picardy----------------
#NOTES:
     dance-single:
     :
     Challenge:
     10:
     0.712740,0.946779,0.279767,0.102581,0.792674,535.000000,505.000000,30.000000,11.000000,0.000000,5.000000,0.712740,0.946779,0.279767,0.102581,0.792674,535.000000,505.000000,30.000000,11.000000,0.000000,5.000000:
0000
0000
0000
0000
,
0000
0000
0000
0000
,
0010
0000
0000
0000
0011
0000
0000
0000
0000
0000
0010
0001
1000
0000
0000
0000
,
0010
0000
0000
0000
0110
0000
0000
0000
0000
0000
1000
0001
0100
0000
0000
0000
,
0001
0000
0000
0000
1100
0000
0000
0000
0000
0000
0010
0001
0100
0000
0000
0000
,
0010
0000
0000
0000
0101
0000
0000
0000
0000
0000
1000
0100
0010
0000
0000
0000
,
0100
0000
0000
0000
1010
0000
0000
0000
0000
0000
0001
0100
0010
0000
0000
0000
,
1000
0000
0000
0000
0110
0000
0000
0000
0000
0000
1000
0001
1000
0000
1001
0000
,
0100
0000
0010
0001
1000
0000
0010
0000
0100
0000
0001
0100
0010
0000
1000
0000
,
0001
0000
0010
0100
1000
0000
0001
0000
0010
0000
0100
1000
0001
0000
0100
0000
,
0010
1000
0010
1000
0010
0000
0100
0000
0001
0010
0001
0010
0001
0000
1000
0000
,
0100
0010
0100
0010
0100
0000
1000
0000
0001
0100
0001
0100
0001
0000
1000
0000
,
0001
0100
0010
1000
0010
0000
0001
0100
0010
1000
0010
0100
0001
0000
1000
0010
,
0100
0010
1000
0001
0100
0000
0001
0010
0100
1000
0100
0010
0001
0000
1000
0100
,
0010
0001
0010
0100
1000
0000
0100
0010
0001
0010
0100
1000
0001
0000
1000
0100
,
0010
0001
0010
0100
1000
0100
0010
0001
0010
0100
1000
0001
0100
0000
0102
0000
,
2000
0000
0000
0000
,
0000
0000
0000
0000
,
0020
0000
0000
0000
0000
0000
0000
0033
,
0200
0000
0002
0000
,
0020
0000
3000
0000
,
0300
0000
0003
0000
,
2100
0000
0000
0000
0000
0000
0000
0030
,
0020
0000
0000
0000
0200
0000
0000
3330
,
4000
0000
0004
0000
,
0000
0000
0000
0000
0000
0000
0000
3000
,
0400
0000
0000
0000
0000
0000
0000
0003
,
0040
0000
0000
0300
4000
0000
0000
0030
,
0400
0000
0000
0000
,
0000
0000
0000
0000
0000
0000
0000
3000
,
0040
0000
0000
0000
0000
0000
0000
0300
,
0004
0000
0000
0000
0000
0000
0030
0000
0400
0000
0000
0000
0000
0000
0000
0303
,
0101
0000
0100
0000
0010
0000
0000
0000
1000
0000
0100
1000
0100
0000
0000
0000
,
0010
0000
0100
0000
1000
0000
0000
0000
0001
0000
0100
0001
0100
0000
0000
0000
,
0010
1000
0010
0000
0100
0000
0000
0000
0100
0000
0010
1000
0010
0000
0000
0000
,
0001
0010
0001
0000
1000
0000
0000
0000
1000
0000
0001
0010
0001
0000
0000
0000
,
1000
0100
1000
0000
0001
0000
1000
0000
0100
0000
1000
0100
1000
0000
0000
0000
,
0001
0100
0001
0000
1000
0000
0001
0000
0100
0000
0001
0100
0001
0000
0000
0000
,
1000
0100
1000
0000
0001
0000
1000
0001
0100
0000
0010
1000
0001
0000
0000
0000
,
0010
0001
0010
0000
0100
0000
1000
0100
0010
0000
0100
0010
0001
0000
0000
0000
,
1000
0100
1000
0100
1000
0000
0000
0000
0100
0010
0100
0010
0100
0000
0000
0000
,
0010
0001
0010
0001
0010
0000
0000
0000
0001
0100
0001
0100
0001
0000
0000
0000
,
1000
0001
1000
0001
0100
0000
0000
0000
0010
1000
0010
1000
0001
0000
0000
0000
,
1000
0100
1000
0100
0010
0000
0000
0000
0100
1000
0100
1000
0001
0000
0000
0000
,
0010
0001
0010
0001
1000
0000
0001
0100
0001
0100
0010
0100
0010
0000
0000
0000
,
1000
0010
1000
0010
0100
0000
0010
1000
0010
1000
0100
1000
0100
0000
0000
0000
,
1000
0100
0010
0100
0010
0000
0001
0010
0100
1000
0100
1000
0001
0000
0000
0000
,
0010
0100
0010
0100
1000
0100
1000
0100
0040
0400
0000
0000
0000
0000
0330
0000
,
0001
1000
0100
0000
0110
0000
0010
0001
1000
0001
0100
0000
0110
0000
1000
0010
,
1000
0001
0100
0000
0110
0000
1000
0001
0100
0010
1000
0000
0101
0000
0010
1000
,
0001
0100
0010
0000
1010
0000
1000
0010
1000
0001
0100
0000
1001
0000
0100
0010
,
1000
0001
0100
0000
0110
0000
0010
1000
0001
0100
0001
0000
0110
0000
1000
0100
,
0010
0001
0100
0000
1001
0000
1000
0100
0010
0100
1000
0000
0101
0000
1000
0001
,
0010
0001
1000
0000
1100
0000
0010
0100
1000
0001
0010
0000
0110
0000
1000
0100
,
1000
0001
0010
0000
1001
0000
0010
0001
1000
0100
0010
0000
0110
0000
0001
0010
,
0100
1000
0001
0000
1100
0000
0010
0100
1000
0001
0100
0000
0110
0000
1000
0010
,
0100
0001
0100
0010
1000
0000
0001
0100
0010
1000
0010
0100
0001
0000
0100
0010
,
1000
0001
0100
0010
1000
0000
0001
0100
0010
0100
0001
1000
0010
0000
0100
0001
,
1000
0010
1000
0001
0100
0000
0001
0100
0010
0100
0001
0100
0010
0000
1000
0010
,
0100
0010
1000
0010
0100
0000
0001
0100
0010
1000
0010
0100
0001
0000
1000
0100
,
0010
0001
0010
0100
1000
0000
0100
0010
0001
0010
0100
1000
0001
0000
1000
0100
,
0010
0100
1000
0100
0010
0000
0001
0010
0100
0010
0001
1000
0100
0000
1000
0100
,
0010
0100
1000
0001
0010
0000
0001
0010
0100
1000
0100
0010
0001
0000
1000
0100
,
1100
0000
0000
0001
0010
0000
0100
0000
0011
0000
0000
1000
1100
0000
0001
0000
,
0202
0000
0000
0000
,
0000
0000
0303
0000
;
