#TITLE:Dance Club;
#SUBTITLE:;
#ARTIST:Yuzo Koshiro feat. GrooveMaster303;
#TITLETRANSLIT:;
#SUBTITLETRANSLIT:;
#ARTISTTRANSLIT:;
#GENRE:;
#CREDIT:;
#BANNER:danceclubbn.png;
#BACKGROUND:danceclub.png;
#LYRICSPATH:;
#CDTITLE:;
#MUSIC:danceclub.ogg;
#OFFSET:-0.054892;
#SAMPLESTART:12.814061;
#SAMPLELENGTH:12.000000;
#SELECTABLE:YES;
#BPMS:0.000000=150.000000
;
#STOPS:
;
#BGCHANGES:;
#KEYSOUNDS:;
#ATTACKS:;

//---------------dance-single - C. Picardy----------------
#NOTES:
     dance-single:
     :
     Beginner:
     1:
     0.088412,0.185664,0.120561,0.168786,0.000000,77.000000,62.000000,15.000000,21.000000,0.000000,0.000000,0.088412,0.185664,0.120561,0.168786,0.000000,77.000000,62.000000,15.000000,21.000000,0.000000,0.000000:
0000
0000
0000
0000
,
0000
0000
0000
0000
,
0000
0000
0000
0000
,
0000
0000
0000
0000
,
1000
0000
0000
0000
,
0000
0000
0000
0000
,
0001
0000
0000
0000
,
0000
0000
0000
0000
,
0010
0000
0000
0000
,
0100
0000
0000
0000
,
1000
0000
0000
0000
,
0001
0000
0000
0000
,
1000
0000
0000
0000
,
1001
0000
0000
0000
,
0010
0000
0000
0000
,
0110
0000
0000
0000
,
0002
0000
0000
0000
,
0003
0000
0000
0000
,
2000
0000
0000
0000
,
3000
0000
0000
0000
,
0020
0000
0000
0000
,
0030
0000
0000
0000
,
0200
0000
0000
0000
,
0300
0000
0000
0000
,
1000
0000
0000
0000
,
0001
0000
0000
0000
,
1000
0000
0000
0000
,
0001
0000
0000
0000
,
0010
0000
0000
0000
,
0100
0000
0000
0000
,
0010
0000
0000
0000
,
0100
0000
0000
0000
,
1001
0000
0000
0000
,
1001
0000
0000
0000
,
0110
0000
0000
0000
,
0110
0000
0000
0000
,
2000
0000
3000
0000
,
0002
0000
0003
0000
,
0200
0000
0300
0000
,
0020
0000
0030
0000
,
1000
0000
0000
0000
,
0001
0000
0000
0000
,
0010
0000
0000
0000
,
0100
0000
0000
0000
,
0010
0000
0000
0000
,
0001
0000
0000
0000
,
1000
0000
0000
0000
,
0100
0000
0000
0000
,
2002
0000
0000
0000
,
3003
0000
0000
0000
,
0220
0000
0000
0000
,
0330
0000
0000
0000
,
2002
0000
0000
0000
,
3003
0000
0000
0000
,
2002
0000
0000
0000
,
3003
0000
0000
0000
,
0010
0000
0000
0000
,
0010
0000
0000
0000
,
0100
0000
0000
0000
,
0100
0000
0000
0000
,
1000
0000
0000
0000
,
1000
0000
0000
0000
,
0001
0000
0000
0000
,
0001
0000
0000
0000
,
1001
0000
0000
0000
,
1001
0000
0000
0000
,
0110
0000
0000
0000
,
0110
0000
0000
0000
,
2000
0000
3000
0000
,
0002
0000
0003
0000
,
0020
0000
0030
0000
,
0200
0000
0300
0000
,
0020
0000
0000
0000
,
0000
0000
0000
0000
,
0030
0000
0000
0000
,
1000
0000
0000
0000
,
0001
0000
0000
0000
,
1001
0000
0000
0000
;

//---------------dance-single - C. Picardy----------------
#NOTES:
     dance-single:
     :
     Easy:
     4:
     0.354795,0.467175,0.610844,0.305422,0.000000,309.000000,233.000000,76.000000,38.000000,0.000000,0.000000,0.354795,0.467175,0.610844,0.305422,0.000000,309.000000,233.000000,76.000000,38.000000,0.000000,0.000000:
0000
0000
0000
0000
,
0000
0000
0000
0000
,
0000
0000
0000
0000
,
0000
0000
0000
0000
,
0010
1000
0000
0001
,
0100
0010
0000
1000
,
0002
0003
0000
1000
,
1000
0010
0000
0100
,
1001
0000
0110
0000
,
1100
0000
0011
0000
,
0101
0000
1010
0000
,
0110
0000
0101
0000
,
1001
1000
0100
0010
,
1001
0100
0010
0100
,
0110
1000
0001
0100
,
0110
0001
1000
0100
,
0011
0001
0002
0003
,
1010
1000
2000
3000
,
0110
0100
0020
0030
,
1001
0100
0020
0030
,
1000
0001
0100
0010
,
0100
0001
1000
0100
,
1000
0100
1000
0100
,
0010
0100
0010
0001
,
2002
3003
0100
0010
,
0220
0330
1000
0100
,
2200
3300
0010
0001
,
0022
0033
1000
1001
,
0100
0010
1000
0001
,
0010
0100
1000
0010
,
0100
0001
1000
0100
,
0010
0100
1000
0010
,
0200
0301
1001
0000
,
0020
1030
0110
0000
,
0200
0301
0011
0000
,
2000
3100
0110
0000
,
0001
0101
1001
0000
,
1000
1010
1001
0000
,
0100
0101
0110
0000
,
1001
0110
1001
0000
,
1100
0101
1100
0000
,
1010
0011
1010
0000
,
1100
0011
1100
0000
,
1001
0110
1001
0000
,
1000
1100
0001
0101
,
1000
1010
0010
0110
,
0001
1001
1000
1100
,
0010
0110
0011
1001
,
2002
3003
0010
0110
,
2002
3003
0010
1010
,
2002
3003
0001
0010
,
2200
3300
0010
1001
,
0102
0010
1000
0103
,
2001
0010
0100
3010
,
0120
1000
0100
1030
,
0201
0010
0010
0301
,
2000
3000
1001
0000
,
0010
0220
0330
0000
,
0010
0000
0202
0303
,
1000
0001
0022
0033
,
1000
0010
1000
0000
,
0001
0010
0010
0000
,
1000
0100
0100
0000
,
1000
0010
0010
0000
,
1000
0001
0100
0010
,
1000
0100
0010
0100
,
1000
0001
0100
0010
,
1000
0100
0010
0001
,
1000
0001
0101
1000
,
0100
0010
1100
0010
,
0100
0001
1010
0010
,
0100
0001
0011
1000
,
2002
0000
0000
0000
,
0000
0000
0000
3003
,
0010
0000
0100
0000
,
0001
0000
1000
0000
,
0100
0000
0010
0000
,
0001
0000
1001
0000
;

//---------------dance-single - C. Picardy----------------
#NOTES:
     dance-single:
     :
     Medium:
     6:
     0.477653,0.560610,0.659069,0.393834,0.000000,416.000000,334.000000,82.000000,49.000000,0.000000,0.000000,0.477653,0.560610,0.659069,0.393834,0.000000,416.000000,334.000000,82.000000,49.000000,0.000000,0.000000:
0000
0000
0000
0000
,
0000
0000
0000
0000
,
0010
0000
0001
0000
,
1000
0000
0010
0000
,
0100
0001
0000
1000
,
0010
0100
0000
0001
,
1000
0100
0000
0010
,
0001
1000
0010
1001
,
0001
0000
1000
0000
0100
1000
0100
0000
,
0010
0000
0001
0000
0100
0001
0100
0000
,
0010
0000
1000
0000
0100
0010
0100
0000
,
1000
0000
0010
0000
1000
0001
1000
0000
,
0100
0000
0110
0000
0001
0100
0010
0000
,
1000
0000
1100
0000
0010
0100
1000
0000
,
0001
0000
0101
0000
0010
0001
0100
0000
,
1001
0000
1100
0000
1000
0100
0010
0001
,
0100
0000
1001
0000
0110
0000
1000
0001
,
0010
0000
0110
0000
1001
0000
0010
1000
,
0100
0000
0011
0000
1100
0000
0010
0100
,
0001
0000
1010
0000
0101
0000
0001
0100
,
1000
0000
0110
0000
1010
0000
1000
0100
,
0001
0000
1100
0000
0110
0000
0001
0100
,
0010
0000
1010
0000
0101
0000
0001
0010
,
1000
0110
0011
1001
,
0002
0000
0013
0000
0100
1000
0010
0000
,
0200
0000
0310
0000
1000
0001
0100
0000
,
2000
0000
3010
0000
0001
1000
0010
0000
,
0002
0000
0013
0000
0100
1000
0001
1000
,
0002
0000
0023
0000
0130
1000
0100
0000
,
2000
0000
3200
0000
0310
0001
0010
0000
,
0002
0000
0203
0000
0310
1000
0001
0000
,
0020
0000
2030
0000
3001
0100
0001
1000
,
0001
0101
1001
1000
,
0100
1000
0010
0000
0110
0000
0101
0000
,
0010
1000
0100
0000
0110
0000
1001
0000
,
1000
0100
0001
0000
1100
0000
0101
0000
,
1020
0100
0001
0130
,
0021
1000
0100
0031
,
1200
0010
0001
1300
,
0201
1000
0001
1300
,
0010
1010
1000
1010
,
0100
0001
0010
0000
0011
0000
0100
0000
,
0010
0110
0100
0110
,
1000
0001
0100
0000
0001
0000
1100
0000
,
0020
0000
0230
0000
0301
0100
0010
0000
,
2000
0000
3200
0000
1300
0100
1000
0000
,
0020
0000
0230
0000
0301
0010
0001
0000
,
0200
0000
0320
0000
1030
0100
0010
0000
,
0022
0000
0033
0000
1000
0001
0100
0000
,
2020
0000
3030
0000
0001
0100
0001
0000
,
2200
0000
3300
0000
1000
0010
0010
0000
,
0220
0000
0330
0000
0100
0001
0001
0000
,
0001
0000
0010
0000
0100
1000
0100
1000
,
0200
0000
0310
0000
0001
0010
0001
0010
,
0002
0000
0103
0000
0010
1000
0010
1000
,
0020
0000
0130
0000
0010
1000
0010
0100
,
0001
0100
2002
3003
,
1000
0010
2002
3003
,
0100
0010
0202
0303
,
1000
0010
2200
3300
,
0001
0010
0001
0000
0011
0000
1001
0000
,
0010
1000
0010
0000
1010
0000
1001
0000
,
0100
0010
0100
0000
1100
0000
0110
0000
,
0010
1000
0100
0000
1010
0000
1100
0000
,
0101
1100
0101
1100
,
1010
0011
1010
0011
,
1100
0011
1100
0011
,
0110
1001
0110
1001
,
1000
1000
1000
0000
1010
0000
0100
0000
,
0001
0001
0001
0000
0011
0000
0100
0000
,
0010
0010
0010
0000
0110
0000
1000
0000
,
0100
0100
0100
0000
0110
0000
0001
0000
,
2002
0000
0000
3003
,
2002
0000
0000
3003
,
1001
0000
0000
0000
0010
1000
0010
0000
,
0110
0000
0000
0000
0001
0010
0001
0000
,
2000
3000
0020
0030
,
0100
0000
0110
0000
;

//---------------dance-single - C. Picardy----------------
#NOTES:
     dance-single:
     :
     Hard:
     8:
     0.566064,0.591755,0.554582,0.297385,0.144674,493.000000,424.000000,69.000000,37.000000,0.000000,5.000000,0.566064,0.591755,0.554582,0.297385,0.144674,493.000000,424.000000,69.000000,37.000000,0.000000,5.000000:
// measure 0
0000
0000
0000
0000
,  // measure 1
0000
0000
0000
0000
,  // measure 2
1000
0100
0001
0000
0001
0100
1000
0000
,  // measure 3
1000
0010
0001
0000
0001
0010
1000
0000
,  // measure 4
1000
0000
1100
0000
0001
0100
0101
0000
,  // measure 5
0010
0000
1010
0000
0010
0100
0110
0000
,  // measure 6
0001
0000
0011
0000
1000
0100
1100
0000
,  // measure 7
0001
0010
0100
1000
0100
0010
0001
0100
,  // measure 8
0010
1000
0100
0000
0110
0000
1001
0000
,  // measure 9
0001
0100
0010
1000
0100
0000
1001
0000
,  // measure 10
1000
0100
0001
0100
1000
0000
0011
0000
,  // measure 11
0001
0100
0010
1000
0100
0000
1010
0000
,  // measure 12
1000
0000
0100
0000
1000
0100
0000
1000
0100
0000
0010
0000
0001
0000
0000
0000
,  // measure 13
0001
0000
0100
0000
0001
0100
0000
0001
0100
0000
0010
0000
1000
0000
0000
0000
,  // measure 14
0001
0000
1000
0000
0100
1000
0000
1000
0020
0000
0000
0000
0130
0000
0000
0000
,  // measure 15
0001
0000
0010
0000
0100
0010
0000
0100
0010
0000
0100
0000
2000
0000
3000
0000
,  // measure 16
1001
0000
0000
0000
0110
0000
0000
0000
1001
0000
0000
0000
0100
0001
0100
0001
,  // measure 17
0100
0000
0000
0000
0010
0000
0000
0000
1010
0000
0000
0000
1000
0010
1000
0010
,  // measure 18
1000
0000
0000
0000
0100
0000
0000
0000
1100
0000
0000
0000
0100
1000
0100
1000
,  // measure 19
0100
0010
0011
1001
,  // measure 20
0001
0000
0000
0001
0100
0000
0000
0000
0010
0000
0000
0000
0010
0000
1000
0000
,  // measure 21
0100
0010
0001
0000
0101
0000
0010
1000
,  // measure 22
0100
0000
0000
0100
0010
0000
0000
0000
0110
0000
0000
0000
0010
0000
0001
0000
,  // measure 23
0100
0010
1000
0000
0002
0003
1001
0000
,  // measure 24
0010
1000
0100
1000
0010
0000
1010
0000
,  // measure 25
0100
0001
0010
0001
0100
0000
0011
0000
,  // measure 26
0001
0100
1000
0100
0001
0000
1100
0000
,  // measure 27
0001
0010
0010
0100
1000
0000
0101
0000
,  // measure 28
0100
0000
0010
0000
1000
0000
0000
0010
0000
1000
0000
0010
2000
0000
3000
0000
,  // measure 29
0001
0000
0100
0000
0001
0000
0000
0010
0000
0001
0000
0010
0002
0000
0003
0000
,  // measure 30
0001
0000
0100
0000
0010
0000
0000
0100
0000
0010
0000
0100
0020
0000
0030
0000
,  // measure 31
1000
0000
0001
0000
1000
0000
0000
0001
0000
1000
0000
0001
0010
0000
0000
0000
,  // measure 32
0001
0100
0100
0010
0010
0000
1010
0000
,  // measure 33
1000
0100
1000
0010
0010
0000
0110
0000
,  // measure 34
0100
0010
1000
0010
0100
0000
1010
0000
,  // measure 35
0100
0100
0001
0010
0100
0000
0011
0000
,  // measure 36
1000
0100
0010
0001
0100
0000
0001
0100
,  // measure 37
0010
1000
0100
0010
0001
0000
0010
0100
,  // measure 38
1000
0001
0010
0100
1000
0000
1000
0010
,  // measure 39
0100
0001
0010
0100
0020
0000
0030
0000
,  // measure 40
0100
0000
0011
0000
0100
0001
0010
0000
,  // measure 41
0100
0000
1100
0000
0010
1000
0100
0000
,  // measure 42
0010
0000
0110
0000
1000
0100
0001
0000
,  // measure 43
1100
0000
0101
0000
0001
1000
1100
0000
,  // measure 44
1000
0000
1010
0000
0001
0100
0101
0000
,  // measure 45
0010
0000
1010
0000
1000
0100
1100
0000
,  // measure 46
0100
0000
0110
0000
0010
0001
0011
0000
,  // measure 47
0100
0000
0011
0000
1000
0010
1001
0000
,  // measure 48
0002
0000
0203
0000
0310
1000
0100
0010
,  // measure 49
0002
0000
0023
0000
0130
0010
0001
0100
,  // measure 50
2000
0000
3200
0000
0301
0010
1000
0010
,  // measure 51
0002
0000
0203
0000
1300
0100
0010
1000
,  // measure 52
0002
0000
0000
0000
2003
0000
0000
0000
3100
1000
0000
0100
0010
0000
0000
0000
,  // measure 53
0002
0000
0000
0000
0203
0000
0000
0000
0310
0100
0000
0001
1000
0000
0000
0000
,  // measure 54
0020
0000
0000
0000
2030
0000
0000
0000
3010
1000
0000
0010
0100
0000
0000
0000
,  // measure 55
0020
0000
0000
0000
0230
0000
0000
0000
0301
0010
0000
0001
0100
0000
0000
0000
,  // measure 56
2002
0000
0010
3003
,  // measure 57
0220
0000
1000
0330
,  // measure 58
2000
0200
0010
3300
,  // measure 59
0202
0010
1000
0303
,  // measure 60
0001
0101
0110
1000
,  // measure 61
0100
0110
0011
1000
,  // measure 62
0110
1010
0001
0100
,  // measure 63
1010
1001
0100
0000
,  // measure 64
0001
0100
1000
0000
1100
0000
0110
0000
,  // measure 65
0001
0100
0010
0000
1010
0000
0101
0000
,  // measure 66
0010
0100
1000
0000
0101
0000
1100
0000
,  // measure 67
0010
1000
0100
0000
0110
0000
1001
0000
,  // measure 68
0100
0010
1000
0010
0100
0000
0001
0010
,  // measure 69
0001
0010
0100
1000
0100
0000
0100
0010
,  // measure 70
0001
0010
0100
1000
0010
0000
0100
1000
,  // measure 71
0010
0100
0001
0100
0010
0000
1000
0010
,  // measure 72
0200
0000
0320
0000
0230
0000
0302
0003
,  // measure 73
0220
0000
0000
0330
,  // measure 74
1000
0010
1010
0000
0010
0000
0110
0000
,  // measure 75
0001
0010
0011
0000
0100
0000
0011
0000
,  // measure 76
1000
0100
0001
0000
0100
0000
1100
0000
,  // measure 77
0010
0100
1000
0000
1010
0000
0000
0000
;

//---------------dance-single - C. Picardy----------------
#NOTES:
     dance-single:
     :
     Challenge:
     9:
     0.764703,0.904662,0.522432,0.160748,0.695237,666.000000,601.000000,65.000000,20.000000,0.000000,6.000000,0.764703,0.904662,0.522432,0.160748,0.695237,666.000000,601.000000,65.000000,20.000000,0.000000,6.000000:
0000
0000
0000
0000
,
0000
0000
0000
0000
,
1000
0100
1000
0100
1000
0100
1000
0000
0001
0010
0001
0010
0001
0010
0001
0000
,
1000
0001
1000
0001
1000
0001
1000
0000
0001
0100
0001
0100
0001
0100
0001
0000
,
0100
0010
0100
0000
0110
0000
0000
0000
0010
0000
1010
0000
1000
0000
1001
0000
,
0100
0001
0101
0000
1000
0000
1010
1000
,
1100
1000
0000
0010
0110
0100
0011
0100
,
0010
0101
0000
0001
1001
0000
0220
0330
,
0001
0000
0100
0000
0010
1000
0000
1000
0100
0000
0010
0000
0001
0000
0001
0100
,
0010
0000
1000
0000
0100
0010
0000
0010
0100
0000
1000
0000
0010
0000
0100
0001
,
0010
0000
0100
0000
0010
0001
0000
0001
0100
0000
0010
0000
0100
0000
0010
1000
,
0010
0000
0100
0000
0001
1000
0000
1000
0100
0000
0010
0000
0001
0000
1000
0000
,
0010
0000
0100
0000
0001
0010
0000
0100
1000
0000
0010
0000
0100
0000
0010
1000
,
0010
0000
0100
0000
0010
1000
0000
0010
0100
0000
0001
0000
1000
0000
0100
0010
,
0001
0000
0100
0000
0010
1000
0000
0100
0010
0000
0100
0000
1000
0000
0010
0100
,
1000
0000
0010
0000
0100
0001
0000
1000
0001
0000
0010
0000
0100
0000
1000
0000
,
1010
0000
0000
0000
0110
0000
0000
0000
0101
0000
0000
0000
0001
0100
0001
0100
,
0001
0000
0100
0000
0010
0000
0000
0000
0110
0000
0000
0000
1000
0010
1000
0010
,
1000
0000
0100
0000
0010
0000
0000
0000
1100
0000
0000
0000
0010
0100
0010
0100
,
0010
0001
0100
0000
1001
0000
0001
0000
,
1010
1000
1001
0000
0110
0000
1000
0001
,
0101
0100
0110
0000
1010
0000
0001
1000
,
1100
0100
1010
0000
0110
0000
0001
1000
,
1001
0100
0101
0000
0110
0000
1001
0000
,
0001
0000
0100
0010
0000
1000
0000
0100
0000
0010
0000
0100
1000
0000
0100
1000
,
0010
0000
0100
0001
0000
0010
0000
0001
0000
0100
0000
0010
0100
0000
0001
0100
,
0010
0000
0100
0001
0000
0010
0000
0001
0000
1000
0000
0100
1000
0000
0010
1000
,
0001
0000
0010
0100
0000
1000
0000
0100
0000
0010
0000
0001
0100
0000
0000
0000
,
0010
0000
1000
0001
0000
1000
0000
0001
0000
0100
0000
0010
1000
0000
0010
0100
,
0001
0000
0100
0010
0000
1000
0000
1000
0000
1000
0000
0001
0100
0000
0100
0001
,
0010
0000
0010
0001
0000
0001
0000
0001
0000
1000
0000
1000
0100
0000
0100
0010
,
0001
0000
0100
0010
0000
1000
0000
0001
0000
0100
0000
0010
1000
0000
0010
1000
,
0100
0000
0010
0000
0011
0000
0000
0000
1001
0000
0000
0000
0101
0000
0001
0100
,
0010
0000
1000
0000
1100
0000
0000
0000
0110
0000
0000
0000
0011
0000
0010
0100
,
1000
0000
0010
0000
1010
0000
0000
0000
0110
0000
0000
0000
0001
0000
0100
0001
,
0100
0000
0001
0000
0101
0000
0000
0000
0110
0000
0000
0000
1000
0000
0100
1000
,
0100
0000
0010
0001
0010
0000
0100
1000
0100
0000
0000
0000
1000
0000
0001
1000
,
0001
0000
0100
0001
0100
0000
0001
1000
0001
0000
0000
0000
1000
0000
0001
1000
,
0001
0000
1000
0100
1000
0000
1000
0010
1000
0000
0000
0000
0001
0000
0100
0001
,
0100
0000
0010
0100
0010
0000
0100
0010
0100
0000
0000
0000
0001
0000
0001
0100
,
0010
0000
0000
0000
1010
0000
0000
0000
0100
0000
0000
0000
0001
0010
0001
0010
,
0001
0000
0000
0000
1100
0000
0000
0000
0100
1000
0100
1000
0100
0000
0010
0000
,
0001
0000
0000
0000
0101
0000
0000
0000
0010
0000
0000
0000
1000
0010
1000
0010
,
1000
0000
0000
0000
0101
0000
0000
0000
0001
0010
0001
0010
0001
0000
1000
0000
,
0100
0000
0000
0100
1000
0000
0000
1000
0001
0000
0000
0001
1000
0000
0000
1000
,
0010
0000
0000
0010
0100
0000
0000
0100
0010
0000
0000
0010
0001
0000
0000
0001
,
0010
0000
0000
0010
1000
0000
0000
1000
0001
0000
0000
0001
0100
0000
0000
0100
,
0001
0000
0000
0001
0010
0000
0000
0010
0100
0000
0000
0100
0010
0000
0000
0010
,
0002
0000
0000
0000
1003
0000
0000
0000
0010
0100
0000
0001
1000
0000
0100
0000
,
0020
0000
0000
0000
1030
0000
0000
0000
0001
0100
0000
0010
1000
0000
0010
0000
,
0200
0000
0000
0000
0310
0000
0000
0000
1000
0100
0000
0010
0001
0000
0010
0000
,
0002
0000
0000
0000
0013
0000
0000
0000
0100
1000
0000
0010
0100
0000
0001
0000
,
2000
0000
0000
0000
3010
0000
0000
0000
0100
0010
0000
0100
0001
0000
0100
0000
,
0020
0000
0000
0000
0130
0000
0000
0000
0010
1000
0000
0100
1000
0000
0010
0000
,
2010
0000
0000
0000
3100
0000
0000
0000
0010
0001
0000
1000
0100
0000
0010
0000
,
0012
0000
0000
0000
1003
0000
0000
0000
0010
0100
0000
0001
1000
0000
0100
0000
,
0020
0002
1000
0033
,
2000
0020
0001
3030
,
0220
1000
1000
0330
,
0220
0001
0001
0330
,
0011
0000
0000
0000
1001
0000
0000
0000
0101
0000
0000
0000
0010
1000
0010
1000
,
0010
0000
0000
0000
0110
0000
0000
0000
1100
0000
0000
0000
0001
0010
0001
0010
,
0001
0000
0000
0000
1100
0000
0000
0000
1100
0000
0000
0000
0010
0100
0010
0100
,
0010
0101
0011
0100
,
0001
0100
0101
1000
0010
0100
1010
0100
,
0001
0010
0110
1000
0001
0100
1001
0010
,
0100
1000
0101
0010
0100
0010
1100
0001
,
0100
0010
0101
0010
1000
0100
0011
0100
,
0010
0000
1000
0000
0100
1000
0100
1000
0100
0000
0000
0000
0000
0000
0010
0000
,
0001
0000
0100
0000
0001
0100
0001
0100
0001
0000
0000
0000
0000
0000
1000
0000
,
0010
0000
0100
0000
0010
1000
0010
1000
0010
0000
0000
0000
0100
0000
0001
0000
,
0010
0000
0100
0000
1000
0100
1000
0100
1000
0000
0000
0000
0000
0000
0100
0000
,
1000
0010
1000
0000
0010
0100
0010
0000
0100
0010
0100
0000
0001
0010
0001
0000
,
1000
0001
0000
0100
0010
0000
1000
0000
0100
0010
0000
0001
1000
0000
0010
0000
,
0100
0000
0001
0100
0001
0000
0000
0000
1000
0000
0100
1000
0100
0000
0000
0000
,
0010
0000
0100
0010
0100
0000
0000
0000
0001
0000
0010
0001
0010
0000
0000
0000
,
0001
0000
0001
0100
0010
0000
0000
0000
1000
0000
1000
0100
0010
0000
0000
0000
,
0001
0000
0001
0010
0100
0000
0020
0000
0002
0000
0033
0000
0000
0000
0000
0000
;
