#VERSION:0.83;
#TITLE:Dam Dadi Doo;
#SUBTITLE:;
#ARTIST:Nightcore;
#TITLETRANSLIT:;
#SUBTITLETRANSLIT:;
#ARTISTTRANSLIT:;
#GENRE:;
#ORIGIN:;
#CREDIT:;
#BANNER:damdadidoobn.png;
#BACKGROUND:damdadidoobg.png;
#PREVIEWVID:;
#JACKET:;
#CDIMAGE:;
#DISCIMAGE:;
#LYRICSPATH:;
#CDTITLE:;
#MUSIC:Dam Dadi Doo.ogg;
#OFFSET:-0.122770;
#SAMPLESTART:50.156826;
#SAMPLELENGTH:10.999996;
#SELECTABLE:YES;
#BPMS:0.000=172.680;
#STOPS:142.000=0.350;
#DELAYS:;
#WARPS:;
#TIMESIGNATURES:0.000=4=4;
#TICKCOUNTS:0.000=4;
#COMBOS:0.000=1;
#SPEEDS:0.000=1.000=0.000=0;
#SCROLLS:0.000=1.000;
#FAKES:;
#LABELS:0.000=Song Start;
#BGCHANGES:16.000=spacetransporter.mp4=1.000=0=0=1=StretchPaused==SlideUp==,
32.000=yellow flash=1.600=0=0=1=====,
32.250=colorfulhall.mp4=1.000=0=0=1=====,
64.000=spacetransporter.mp4=1.000=1=1=1=StretchRewind==CrossFade==,
96.000=colorfulhall.mp4=1.000=1=1=1=StretchRewind==CrossFade==,
128.000=colorfulhall.mp4=2.000=0=0=1=====,
140.000=damdadidoobg.png=1.000=1=0=1===CrossFade==,
142.000=damdadidoobg.png=1.000=0=0=1=====,
143.000=flash=1.600=0=0=1=====,
143.250=3Dcubemaze.mp4=1.600=0=1=1=StretchRewind====,
175.000=flash=1.600=0=0=1====#00FF00=,
175.250=spacetransporter.mp4=1.600=0=0=1=====,
207.000=flash=1.600=0=0=1====#FF00FF=,
207.250=colorfulhall.mp4=2.000=0=1=1=StretchRewind====,
239.000=flash=1.600=0=0=1====#0000FF=,
239.250=3Dcubemaze.mp4=1.600=0=1=1=StretchRewind====,
271.000=flash=1.600=0=0=1====#00FFFF=,
271.250=damdadidoobg.png=1.000=0=0=1=====,
99999=-nosongbg-=1.000=0=0=0 // don't automatically add -songbackground-
;
#KEYSOUNDS:;
#ATTACKS:
;

//---------------dance-single - C. Picardy----------------
#NOTEDATA:;
#CHARTNAME:;
#STEPSTYPE:dance-single;
#DESCRIPTION:C. Picardy;
#CHARTSTYLE:;
#DIFFICULTY:Beginner;
#METER:1;
#RADARVALUES:0.116483,0.174817,0.082570,0.051607,0.000000,79.000000,71.000000,8.000000,5.000000,0.000000,0.000000,0.000000,0.000000,0.000000,0.116483,0.174817,0.082570,0.051607,0.000000,79.000000,71.000000,8.000000,5.000000,0.000000,0.000000,0.000000,0.000000,0.000000;
#CREDIT:C. Picardy;
#NOTES:
0000
0000
0000
0000
,
0000
0000
0000
0000
,
0000
0000
0000
0000
,
0000
0000
0000
0000
,
1000
0000
0000
0000
,
1000
0000
0000
0000
,
0001
0000
0000
0000
,
0001
0000
0000
0000
,
0110
0000
0000
0000
,
0100
0000
0000
0000
,
0010
0000
0000
0000
,
0100
0000
0000
0000
,
1001
0000
0000
0000
,
0001
0000
0000
0000
,
1000
0000
0000
0000
,
0001
0000
0000
0000
,
1000
0000
1000
0000
,
1000
0000
1000
0000
,
1000
0000
0000
0000
,
0000
0000
0000
0000
,
0001
0000
0001
0000
,
0001
0000
0001
0000
,
0001
0000
0000
0000
,
0000
0000
0000
0000
,
1001
0000
0000
0000
,
1000
0000
0000
0000
,
0001
0000
0000
0000
,
0100
0000
0000
0000
,
0010
0000
0000
0000
,
1000
0000
0000
0000
,
0001
0000
0000
0000
,
0100
0000
0000
0000
,
0010
0000
0010
0000
,
0010
0000
0000
0000
,
0100
0000
0100
0000
,
0100
0000
0000
1001
,
0000
0000
0000
0001
,
0000
0000
0000
1000
,
0000
0000
0000
0001
,
0000
0000
0000
0100
,
0000
0000
0000
0010
,
0000
0000
0000
0100
,
0000
0000
0000
0010
,
0000
0000
0000
1001
,
0000
0000
0000
0100
,
0000
0000
0000
0010
,
0000
0000
0000
1000
,
0000
0000
0000
0110
,
0000
0000
0000
0010
,
0000
0000
0000
0100
,
0000
0000
0000
0010
,
0000
0000
0000
0100
,
0000
0100
0000
0200
,
0000
0300
0000
0020
,
0000
0030
0000
2000
,
0000
3000
0000
0010
,
0000
0010
0000
0010
,
0000
0000
0000
0200
,
0000
0300
0000
0002
,
0000
0003
0000
0110
,
0000
0000
0000
0001
,
0000
0000
0000
1000
,
0000
0000
0000
0010
,
0000
0000
0000
0100
,
0000
0000
0000
0001
,
0000
0000
0000
1000
,
0000
0000
0000
0010
,
0000
0000
0000
1001
;

//---------------dance-single - C. Picardy----------------
#NOTEDATA:;
#CHARTNAME:;
#STEPSTYPE:dance-single;
#DESCRIPTION:C. Picardy;
#CHARTSTYLE:;
#DIFFICULTY:Easy;
#METER:4;
#RADARVALUES:0.359771,0.454524,0.340603,0.061928,0.000000,244.000000,211.000000,33.000000,6.000000,0.000000,0.000000,0.000000,0.000000,0.000000,0.359771,0.454524,0.340603,0.061928,0.000000,244.000000,211.000000,33.000000,6.000000,0.000000,0.000000,0.000000,0.000000,0.000000;
#CREDIT:C. Picardy;
#NOTES:
0000
0000
0000
0000
,
0000
0000
0000
0000
,
0000
0000
0000
0000
,
0000
0000
0000
0000
,
0001
0000
0001
0000
,
0001
0000
0001
0000
,
1000
0000
1000
0000
,
1000
1000
1000
1000
,
1001
0000
0010
0100
,
0010
0000
1000
0001
,
1000
0000
0100
0010
,
0100
0010
0001
0100
,
0110
0000
1000
0100
,
1001
0000
0001
0010
,
1001
0000
0010
0100
,
0010
1000
0001
0100
,
0010
0010
0110
0000
,
1000
1000
1001
0000
,
0100
0000
0010
0000
,
1000
0000
0001
0000
,
1000
1000
1100
0000
,
0001
0001
0101
0000
,
1000
1000
1010
0000
,
0011
0000
1001
0000
,
1000
1000
0001
0000
,
0001
0001
1000
0000
,
0010
0010
0100
0000
,
0100
0100
0010
0000
,
1000
0100
0010
0000
,
0001
0100
0010
0000
,
1000
0010
0100
0000
,
0001
0010
0100
0000
,
0001
1000
1001
0000
,
0100
0010
0110
0000
,
1000
0001
0010
0100
,
2002
0000
3003
1001
,
1000
0001
0000
0100
,
0010
1000
1000
0001
,
0010
0100
0000
1000
,
0001
0100
0100
0010
,
1000
0001
0000
0010
,
0100
1000
1000
0001
,
0100
0100
0000
0010
,
1000
0100
0100
1001
,
0000
0100
0001
0101
,
0000
1000
0100
1100
,
0000
1000
0010
1000
,
1000
0101
1100
1001
,
0000
0010
0100
1001
,
0000
0001
1000
0110
,
0000
0001
0010
0100
,
0100
0011
1010
2001
,
0001
0001
3001
1002
,
1000
1000
1003
0100
,
0010
0100
0010
0001
,
0010
0100
1000
0020
,
1000
0100
0130
0002
,
0100
0010
0013
0001
,
0010
0100
1000
0001
,
0100
0010
1000
0001
,
0100
1001
0100
0010
,
0100
0010
0010
1000
,
0100
1001
0010
0100
,
1000
0001
0001
0100
,
0010
0110
0001
1000
,
0010
0100
0100
0001
,
0100
1010
0100
0010
,
0001
0100
0110
1001
;

//---------------dance-single - C. Picardy----------------
#NOTEDATA:;
#CHARTNAME:;
#STEPSTYPE:dance-single;
#DESCRIPTION:C. Picardy;
#CHARTSTYLE:;
#DIFFICULTY:Medium;
#METER:6;
#RADARVALUES:0.462984,0.489488,0.268354,0.103213,0.020643,314.000000,288.000000,26.000000,10.000000,0.000000,0.000000,0.000000,0.000000,0.000000,0.462984,0.489488,0.268354,0.103213,0.020643,314.000000,288.000000,26.000000,10.000000,0.000000,0.000000,0.000000,0.000000,0.000000;
#CREDIT:C. Picardy;
#NOTES:
0000
0000
0000
0000
,
0000
0000
0000
0000
,
0000
0000
0000
0000
,
0000
0000
0000
0000
,
1000
1000
1000
1000
,
0001
0001
0001
0001
,
0100
0100
0010
0010
,
0100
0000
0010
0000
0100
0010
0100
0000
,
1001
0000
0100
0000
0010
0000
1000
0100
,
1000
0000
0010
0000
0100
0000
0001
0100
,
0001
0010
0100
1000
,
0001
0001
1000
0101
,
1100
0000
1000
0000
0001
0000
0010
0001
,
0010
0000
0100
0000
1000
0000
0010
1000
,
0010
0100
0001
1000
,
0100
0100
0011
1100
,
0001
0000
0000
0000
0100
0000
0000
0000
0010
0000
0000
0010
0000
0000
0010
0000
,
1000
0000
0000
0000
0001
0000
0000
0000
0100
0000
0000
0100
0000
0000
0100
0000
,
0010
1000
0202
0303
,
1000
0000
0010
0100
0010
0000
1000
0000
,
0100
0000
0000
0000
0010
0000
0000
0000
0001
0000
0000
0001
0000
0000
0001
0000
,
1000
0000
0000
0000
0001
0000
0000
0000
1000
0000
0000
1000
0000
0000
1000
0000
,
0001
0000
0010
0100
1000
0000
0000
0100
,
0010
0000
0000
0001
1000
0000
0000
0010
,
0200
0001
0010
0301
,
2000
0010
0100
3010
,
0200
0010
1000
0310
,
0002
0000
1000
0000
0103
0000
0000
0010
,
0000
0100
0000
0010
0000
0100
0000
0001
,
0000
1000
0000
0001
0000
1000
0000
0100
,
0000
1000
0000
0100
0000
0010
0000
0001
,
0000
0010
0000
0100
0000
1000
0000
0001
,
0100
0000
0010
0100
0010
0000
1000
0000
,
0001
0000
1000
0001
1000
0000
0100
0000
,
0010
0001
1100
0101
,
2002
0000
3003
0110
,
1000
0001
1000
0100
,
0010
0000
0001
0010
0001
0000
0100
0000
,
0010
1000
0100
0010
,
0100
0000
1000
0010
1000
0000
0101
0000
,
0010
1000
0100
0010
,
0001
0000
0100
0010
0100
0000
1001
0000
,
0010
0100
1000
0001
,
0100
0000
0010
1000
0100
0000
1001
0000
,
0010
0000
0100
0000
0010
0001
0100
0000
,
0010
0000
0100
0000
0010
1000
0100
0000
,
0010
0000
0100
0000
1000
0001
0100
0000
,
0100
0110
1010
1001
,
0010
0000
0100
0000
1000
0100
0010
0000
,
0001
0000
0100
0000
0001
0100
0010
0000
,
0100
0000
0001
0000
0010
0100
1000
0000
,
1000
0101
1100
0120
,
0001
0100
0100
0001
,
0100
0000
0001
0000
0031
0000
1000
0010
,
1000
0000
0010
1000
0010
0000
1000
0001
,
1000
0000
0001
1000
0001
0000
1200
0000
,
0010
1000
1000
0010
,
1000
0000
0010
0000
0310
0000
0001
0010
,
0001
0000
1000
0100
1000
0000
0001
0100
,
0001
0000
1000
0001
1000
0000
0110
0000
,
1000
0100
0010
0100
,
1000
0000
0010
0100
0010
0000
1000
0000
,
0001
0010
0100
0010
,
0001
0000
0100
0010
0100
0000
1010
0000
,
0100
0101
1000
0100
,
0010
0000
0001
0100
0010
0000
1001
0000
,
0100
1001
0010
1000
,
0100
0000
0010
0100
1000
0000
0101
0000
;

//---------------dance-single - C. Picardy----------------
#NOTEDATA:;
#CHARTNAME:;
#STEPSTYPE:dance-single;
#DESCRIPTION:C. Picardy;
#CHARTSTYLE:;
#DIFFICULTY:Hard;
#METER:8;
#RADARVALUES:0.601584,0.598765,0.516065,0.237390,0.020643,408.000000,358.000000,50.000000,23.000000,12.000000,0.000000,0.000000,0.000000,0.000000,0.601584,0.598765,0.516065,0.237390,0.020643,408.000000,358.000000,50.000000,23.000000,12.000000,0.000000,0.000000,0.000000,0.000000;
#CREDIT:C.Picardy;
#NOTES:
0000
0000
0000
0000
,
0000
0000
0000
0000
,
0000
0000
0000
0000
,
0000
0000
0000
0000
,
10M0
0000
0001
1000
0M01
0000
1000
0000
,
00M1
0000
0001
0000
1M00
0001
1000
0000
,
010M
0000
0100
0010
M100
0000
0010
0000
,
010M
0000
0010
0000
M001
0010
0100
1000
,
0010
0000
1001
0000
1000
0100
0010
0100
,
1000
0000
0101
0000
0010
0100
0001
0100
,
0010
0000
1010
0000
1000
0100
0010
0001
,
0000
0001
0000
1000
0100
0000
0101
0000
,
1100
0000
0010
0000
0100
0010
0001
0010
,
0100
0000
0011
0000
1000
0100
0010
0001
,
0100
0000
1010
0000
0001
0100
0010
1000
,
0000
1000
0000
0001
0101
0000
1100
0000
,
1000
0000
0100
0000
1000
0000
0100
0000
0010
0000
0000
0010
0000
0000
0010
0000
,
0001
0000
0100
0000
0001
0000
0100
0000
0010
0000
0000
0010
0000
0000
0010
0000
,
1000
0100
0010
0001
0011
0000
0000
0010
,
0001
0100
0010
1000
1010
0000
1001
0000
,
0001
0000
0100
0000
0010
0000
0100
0000
0001
0000
0000
0001
0000
0000
0001
0000
,
1000
0000
0100
0000
0010
0000
0100
0000
1000
0000
0000
1000
0000
0000
1000
0000
,
0001
0100
0010
1000
1100
0000
0000
0001
,
0101
0000
0000
1000
1010
0000
0000
0100
,
0010
0100
0000
0010
0000
1010
0000
0001
,
0000
0011
0000
1000
0000
1100
0000
0001
,
0000
0101
0000
0010
0000
0110
0000
1000
,
0000
1100
0000
2002
0000
0000
3003
0201
,
0000
0010
0000
0001
0000
0310
0000
2010
,
0000
0100
0000
0010
0000
3100
0000
0021
,
0000
0100
0000
0001
0000
0130
0000
1010
,
0000
0100
0000
0101
0000
1001
0000
1000
,
0001
0000
1000
0100
1000
0000
0001
0100
,
0010
0100
0001
0100
0010
0000
1001
0000
,
1000
0100
1000
0100
0010
0001
0010
0001
,
2002
0000
0000
0000
0000
0000
0000
0000
0000
3003
M00M
0000
0110
0000
0000
0000
,
1000
0001
0100
0000
0010
0000
0100
0010
,
0100
0001
0010
0100
1000
0000
0101
0000
,
0100
0010
1000
0000
0001
0000
1000
0001
,
0100
0001
1000
0100
0010
0000
1001
0000
,
0010
0001
0100
0000
0110
0000
1000
0010
,
0100
0010
1000
0100
0010
0000
1001
0000
,
0001
0010
0100
0000
0011
0000
0010
0100
,
1000
0100
0010
0010
0001
0000
0101
0000
,
1000
0000
0001
0100
0010
0100
0001
0000
,
1010
0000
1000
0100
0010
0100
1000
0000
,
0011
0000
0010
0100
1000
1000
0000
1000
,
0000
0001
1000
0000
0101
0000
1100
0000
,
0010
0000
0100
0010
0100
0001
0010
0000
,
1001
0000
0010
1000
0100
1000
0010
0000
,
0101
0000
1000
0001
0100
0100
0000
0100
,
0000
0010
0110
0000
1001
0000
0100
0020
,
0000
0032
0000
0023
0000
0230
0000
2300
,
0000
3200
0000
0320
0000
0031
1000
0100
,
1000
0100
0010
0100
0010
0100
0010
0001
,
0010
0001
0100
0001
0100
0001
0010
0200
,
0000
2300
0000
3200
0000
0302
0000
0203
,
0000
2300
0000
3020
0000
0130
0001
0100
,
0001
0100
1000
0100
1000
0100
0010
0100
,
0010
0100
0001
0010
0100
0000
1MM1
0000
,
0010
1000
0100
0000
0010
0000
0100
0010
,
0001
0010
0100
0100
1000
0000
0101
0000
,
0010
0001
0100
0000
0010
0000
1000
0100
,
0010
0100
1000
1000
0010
0000
0110
0000
,
1000
0100
0001
0000
0100
0000
1000
0100
,
0010
0100
0010
0010
0001
0000
0011
0000
,
0001
0010
1000
0000
0010
0000
0001
1000
,
0010
0100
0010
0010
0100
0000
2020
0000
,
0000
3030
0000
0000
;

//---------------dance-single - C. Picardy----------------
#NOTEDATA:;
#CHARTNAME:;
#STEPSTYPE:dance-single;
#DESCRIPTION:C. Picardy;
#CHARTSTYLE:;
#DIFFICULTY:Challenge;
#METER:10;
#RADARVALUES:0.852245,1.162308,0.650242,0.392209,0.495422,578.000000,515.000000,63.000000,38.000000,50.000000,21.000000,0.000000,0.000000,0.000000,0.852245,1.162308,0.650242,0.392209,0.495422,578.000000,515.000000,63.000000,38.000000,50.000000,21.000000,0.000000,0.000000,0.000000;
#CREDIT:C. Picardy;
#NOTES:
// measure 0
0000
0000
0000
0000
,  // measure 1
0000
0000
0000
0000
,  // measure 2
0000
0000
0000
0000
,  // measure 3
0000
0000
0000
0000
,  // measure 4
1MM1
0000
1000
0001
1000
0000
0100
0010
,  // measure 5
0000
0010
0000
0001
1000
0100
0010
0000
,  // measure 6
0001
0010
0001
0010
0001
0010
0001
0010
0100
1000
0100
1000
0100
1000
0100
1000
,  // measure 7
0010
0100
0010
1000
0001
0100
0010
1000
0001
0010
0100
1000
0001
0010
0100
1000
,  // measure 8
0001
0100
1000
0100
0020
1000
0100
1030
,  // measure 9
0001
0010
1000
0010
0002
0010
0100
0013
,  // measure 10
0100
1000
0010
0100
0010
1000
0100
MM11
,  // measure 11
0000
M1M1
0000
11MM
M1M1
0000
1MM1
0000
,  // measure 12
0110
1000
0001
0010
0100
1000
1001
0101
,  // measure 13
0010
1000
0100
1000
0010
0100
0101
0110
,  // measure 14
1000
0001
0010
0001
1000
0100
0010
MM11
,  // measure 15
0000
11MM
0000
1M1M
MM11
0000
1MM1
0000
,  // measure 16
1000
0000
0100
0000
0010
0000
0001
0000
0011
0000
0000
0011
0000
0000
0001
0000
,  // measure 17
0100
0000
0010
0000
1000
0000
0100
0000
0110
0000
0000
0110
0000
0000
0001
0000
,  // measure 18
0010
0100
1000
0010
2002
0000
3003
1000
,  // measure 19
0001
0000
0100
0000
0010
0000
1000
0000
0101
0000
0000
0100
0010
0000
0110
0000
,  // measure 20
1000
0000
0100
0000
0010
0000
0001
0000
0011
0000
0000
1100
0000
0000
0001
0000
,  // measure 21
0010
0000
0100
0000
1000
0000
0010
0000
0110
0000
0000
0101
0000
0000
1000
0000
,  // measure 22
0010
0100
0001
1000
2002
0000
3003
0010
,  // measure 23
0202
0000
0303
0010
2200
0000
3300
0001
,  // measure 24
1001
0002
0000
0200
0000
0010
0000
1000
,  // measure 25
0000
1000
0000
0010
0303
2000
0000
0200
,  // measure 26
0000
0010
0000
0001
3300
0200
0000
0020
,  // measure 27
0000
0001
0000
0001
0330
0000
MMMM
2002
,  // measure 28
0000
0010
0003
0002
0000
0010
3000
2000
,  // measure 29
0000
0010
0000
0010
3003
0200
0000
0002
,  // measure 30
0000
0010
0000
1000
0303
0020
0000
0200
,  // measure 31
0000
1000
0000
1000
0330
0110
0000
1010
,  // measure 32
1000
0010
1000
0010
1000
0010
1000
0010
0100
0001
0100
0001
0100
0001
0100
0001
,  // measure 33
0010
0100
0010
0100
1000
0100
1000
0100
0010
0001
0010
0001
0100
0010
0100
0010
,  // measure 34
1000
0001
0100
0010
0100
0001
1000
0100
0010
0100
1000
0001
0010
0100
0010
0002
,  // measure 35
2000
0000
0000
0000
0000
0000
0000
0000
0000
3003
MMMM
0000
0011
0000
0010
0000
,  // measure 36
0100
0000
1000
0100
0010
0000
0001
0000
1000
0000
0010
0100
0001
0000
1000
0000
,  // measure 37
0100
0000
0010
0001
0100
0000
0001
0000
1001
0000
0000
0000
1010
0000
1000
0000
,  // measure 38
0001
0000
0010
0100
1000
0000
0001
0000
0100
0000
0010
1000
0100
0000
0010
0000
,  // measure 39
0001
0000
0100
0010
1000
0000
0001
0000
0101
0000
0000
0000
0110
0000
0010
0000
,  // measure 40
1000
0000
0001
0010
0100
0000
1000
0000
0001
0000
0010
0100
1000
0000
0010
0000
,  // measure 41
0100
0000
0001
0100
0010
0000
1000
0000
1100
0000
0000
0000
0101
0000
0100
0000
,  // measure 42
0010
0000
1000
0001
0100
0000
0001
0000
0010
0000
0100
1000
0001
0000
0010
0100
,  // measure 43
1000
0000
0010
0100
0010
1000
0001
0010
0100
0010
0001
1000
0100
0000
0010
0001
,  // measure 44
0010
0000
0001
0010
0200
0000
1000
0000
0010
0000
1300
0000
0001
0000
0100
0010
,  // measure 45
1000
0000
0001
0100
0020
0000
1000
0000
0100
0000
1030
0000
0001
0000
0010
0100
,  // measure 46
1000
0000
0001
0100
0010
0000
1000
0000
0100
0000
M11M
0000
0000
0000
MM11
0000
,  // measure 47
0000
0000
M1M1
0000
11MM
0000
0000
0000
1MM1
0000
0000
0000
0110
0000
0100
0010
,  // measure 48
1000
0000
0001
0100
0010
0000
1000
0000
1100
0000
0110
0000
0001
0000
0010
0100
,  // measure 49
1000
0000
0001
0100
0010
0000
1000
0000
1010
0000
0110
0000
1000
0000
0001
0010
,  // measure 50
0100
0000
1000
0100
0010
0000
0001
0000
0101
0000
M11M
0000
0000
0000
1M1M
0000
,  // measure 51
0000
MM11
11MM
0000
1MM1
0000
0110
0200
,  // measure 52
0000
0002
0000
1000
0303
2000
0000
0200
,  // measure 53
0000
0001
0000
0010
3300
0100
1000
0100
,  // measure 54
0001
0100
1000
0010
0001
1000
0100
0001
,  // measure 55
0010
0100
0010
1000
0010
0001
1001
2000
,  // measure 56
0000
0200
0000
0010
3300
0002
0000
2000
,  // measure 57
0000
0010
3003
1001
0000
1000
0001
0100
,  // measure 58
1000
0000
0100
0000
0001
0000
0010
0000
1000
0000
0010
0000
0001
0000
1000
0100
,  // measure 59
1000
0000
0010
0100
0001
0000
1000
0100
0010
0100
1000
0001
0100
0000
0010
0000
,  // measure 60
1000
0000
0100
0010
0001
0000
0100
0000
0010
0000
1000
0100
0010
0000
0100
0000
,  // measure 61
1000
0000
0001
0100
1000
0000
0100
0000
0001
0000
1000
0010
0100
0000
0001
0000
,  // measure 62
0010
0000
1000
0010
0001
0000
0100
0000
1000
0000
0001
0010
1000
0000
0100
0000
,  // measure 63
0010
0000
0001
0010
0100
0000
1000
0010
0100
0000
0001
0000
1001
0000
0010
0000
,  // measure 64
0100
0000
1000
0010
0100
0000
0001
0000
0010
0000
0100
1000
0001
0000
0010
0000
,  // measure 65
0100
0000
1000
0010
0100
0000
0001
0000
1000
0000
0100
0010
0001
0000
1000
0000
,  // measure 66
0010
0000
0100
0001
1000
0000
0100
0000
0010
0000
0001
0100
0010
0000
1000
0100
,  // measure 67
0010
0000
0001
0010
0100
0000
1000
0010
0100
0000
0101
0000
2200
0000
0000
0000
,  // measure 68
0000
3300
0000
0000
;
