#TITLE:Da Da Ahh;
#SUBTITLE:;
#ARTIST:Sanxion7;
#TITLETRANSLIT:;
#SUBTITLETRANSLIT:;
#ARTISTTRANSLIT:;
#GENRE:;
#CREDIT:;
#BANNER:dadaahhbn.png;
#BACKGROUND:dadaahhbg.png;
#LYRICSPATH:;
#CDTITLE:;
#MUSIC:dadaahh.ogg;
#OFFSET:-0.448728;
#SAMPLESTART:57.330265;
#SAMPLELENGTH:12.000000;
#SELECTABLE:YES;
#BPMS:0.000000=135.000000
;
#STOPS:
;
#BGCHANGES:;
#KEYSOUNDS:;
#ATTACKS:;

//---------------dance-single - C. Picardy----------------
#NOTES:
     dance-single:
     C. Picardy:
     Beginner:
     1:
     0.093615,0.108684,0.087906,0.031966,0.000000,67.000000,11.000000,4.000000,0.000000,0.000000,0.000000,0.093615,0.108684,0.087906,0.031966,0.000000,67.000000,11.000000,4.000000,0.000000,0.000000,0.000000:
0000
0000
0000
0000
,
0000
0000
0000
0000
,
0000
0000
0000
0000
,
0000
0000
0000
0000
,
1000
0000
0000
0000
,
0000
0000
0000
0000
,
0001
0000
0000
0000
,
0000
0000
0000
0000
,
0100
0000
0000
0000
,
0010
0000
0000
0000
,
0100
0000
0000
0000
,
0010
0000
0000
0000
,
1000
0000
0000
0000
,
0001
0000
0000
0000
,
1000
0000
0000
0000
,
0001
0000
0000
0000
,
1001
0000
0000
0000
,
1000
0000
0000
0000
,
0001
0000
0000
0000
,
1000
0000
0000
0000
,
0100
0000
0000
0000
,
0010
0000
0000
0000
,
0100
0000
0000
0000
,
0010
0000
0000
0000
,
0110
0000
0000
0000
,
1000
0000
0000
0000
,
0001
0000
0000
0000
,
1000
0000
0000
0000
,
0010
0000
0000
0000
,
0010
0000
0000
0000
,
0100
0000
0000
0000
,
0100
0000
0000
0000
,
0001
0000
0001
0000
,
0001
0000
0000
0000
,
1000
0000
1000
0000
,
1000
0000
0000
0000
,
1001
0000
0000
0000
,
1001
0000
0000
0000
,
1001
0000
0000
0000
,
1001
0000
0000
0000
,
0010
0000
0010
0000
,
0010
0000
0000
0000
,
0100
0000
0100
0000
,
0100
0000
0000
0000
,
0110
0000
0000
0000
,
0110
0000
0000
0000
,
0110
0000
0000
0000
,
0110
0000
0000
0000
,
0020
0000
0030
0000
,
0200
0000
0300
0000
,
0002
0000
0003
0000
,
2000
0000
3000
0000
,
0100
0000
0000
0000
,
0010
0000
0000
0000
,
0001
0000
0000
0000
,
1000
0000
0000
0000
,
0100
0000
0000
0000
,
0010
0000
0000
0000
,
0001
0000
0000
0000
,
0100
0000
0000
0000
,
0010
0000
0000
0000
,
1000
0000
0000
0000
,
0100
0000
0000
0000
,
0010
0000
0000
0000
,
0001
0000
0000
0000
,
1000
0000
0000
0000
,
0010
0000
0000
0000
,
0100
0000
0000
0000
,
1001
0000
0000
0000
;

//---------------dance-single - C. Picardy----------------
#NOTES:
     dance-single:
     :
     Easy:
     3:
     0.252303,0.271711,0.127864,0.335643,0.000000,163.000000,16.000000,42.000000,0.000000,0.000000,0.000000,0.252303,0.271711,0.127864,0.335643,0.000000,163.000000,16.000000,42.000000,0.000000,0.000000,0.000000:
0000
0000
0000
0000
,
0000
0000
0000
0000
,
0000
0000
0000
0000
,
0000
0000
0000
0000
,
1000
0000
0001
0000
,
1000
0000
0001
0000
,
0100
0000
0010
0000
,
0100
0000
0010
0000
,
1000
0000
0010
0000
,
1000
0000
0001
0001
,
0010
0000
0100
0000
,
1000
0000
0010
0010
,
0100
0000
1000
0000
,
0010
0000
0100
0001
,
1000
0000
0010
0000
,
0100
0000
0001
0010
,
1001
0000
0100
0010
,
0000
1000
0100
0010
,
0000
0001
0010
0100
,
0000
0010
0100
1000
,
0000
0010
0100
0001
,
0000
0010
0001
1000
,
0000
0100
1000
0001
,
0000
0100
0020
0030
,
1001
1000
1000
0001
,
0000
0001
0001
1000
,
0000
0100
0100
0010
,
0000
0010
0010
0100
,
1000
0100
0010
0001
,
1000
0100
0010
0001
,
0001
0010
0100
1000
,
0001
0010
0100
1000
,
2002
3003
0010
0100
,
2002
0000
3003
0000
,
0220
0330
1000
0001
,
0220
0000
0330
0000
,
2002
0000
0000
3003
,
0220
0000
0000
0330
,
2020
0000
0000
3030
,
0202
0000
0000
0303
,
0002
0000
0013
0100
,
2000
0000
0010
3010
,
0020
0000
0100
0130
,
0002
0000
1000
1003
,
2200
0000
0000
3300
,
0022
0000
0000
0033
,
0220
0000
0000
0330
,
2002
0000
0000
3003
,
1000
0000
0001
0000
,
0100
0000
0010
0000
,
1000
0000
0100
0000
,
0010
0000
0001
0000
,
2000
0000
3000
0010
,
0100
0001
1000
0010
,
0200
0000
0320
0000
,
0230
0000
0302
0000
,
2003
0000
3000
0010
,
0100
0001
1000
0100
,
0020
0000
0032
0000
,
2003
0000
3100
0010
,
2002
0000
3003
0100
,
0010
0100
1000
0001
,
2000
0000
3001
0000
,
0100
0000
0010
1000
,
0001
0100
0010
1000
,
0001
1000
0100
0010
,
0001
0100
0020
0030
,
1000
0001
0100
0000
,
1001
0000
0000
0000
;

//---------------dance-single - C. Picardy----------------
#NOTES:
     dance-single:
     :
     Medium:
     5:
     0.360759,0.330848,0.247736,0.319660,0.000000,245.000000,31.000000,40.000000,0.000000,0.000000,0.000000,0.360759,0.330848,0.247736,0.319660,0.000000,245.000000,31.000000,40.000000,0.000000,0.000000,0.000000:
0000
0000
0000
0000
,
0000
0000
0000
0000
,
0000
0000
0000
0000
,
0000
0000
0000
0000
,
1000
0000
0001
0100
,
0010
0000
1000
0010
,
0100
0000
0001
0010
,
0100
0000
0000
0000
0010
0100
0010
0000
,
1001
1000
0001
1000
,
0010
0100
0010
0100
,
0001
0100
1000
0100
,
0001
0000
0010
0000
0100
0000
1000
0100
,
0010
0001
1000
0100
,
0010
0001
1000
0100
,
0001
0100
0010
1000
,
0001
0000
0100
0000
0010
1000
0100
0000
,
1001
0100
0001
0010
,
1000
0100
0001
0010
,
1000
0001
0100
1000
,
0010
0000
0001
0000
0100
0000
1000
0010
,
0100
0001
1000
1100
,
0010
0001
1000
0101
,
1000
0001
0010
1100
,
0001
0000
0010
0000
0100
0000
1000
0001
,
0100
0100
0010
1010
,
0001
0001
0010
0110
,
0001
0001
1000
1100
,
0010
0010
0100
0101
,
1000
1100
0001
0101
,
1000
1010
0001
0011
,
0100
0110
1010
1100
,
1001
0000
0000
0000
0100
0010
0100
0000
,
2001
0000
0001
0000
3100
0010
0001
0000
,
0002
0010
1000
1003
,
0120
0000
1000
0000
0130
0010
1000
0000
,
2000
0010
0001
3001
,
0202
0303
1000
0010
,
0220
0330
0001
1000
,
2020
3030
0100
0010
,
0022
0000
0033
0000
,
1001
0000
0100
0000
0010
1000
0010
0000
,
0200
0001
0010
0310
,
2000
0000
3010
0000
0100
0010
0100
0000
,
0002
1000
0010
0013
,
2200
3300
0001
0010
,
2200
3300
0001
1000
,
0202
0303
1000
0010
,
0202
0000
0000
0000
0303
0000
0100
0010
,
2000
0000
3020
0000
,
0230
0000
0320
0000
,
2030
0000
3002
0000
,
0023
0000
0230
0300
,
2002
0000
0000
0000
3003
0000
1000
0100
,
0001
0000
0100
0000
1000
0000
0010
0100
,
0001
0000
0010
0000
0100
0000
1000
0100
,
0001
0100
1000
0010
,
0210
0000
0020
0000
0330
0000
1000
0001
,
0000
1000
0000
0100
0000
1000
0000
0001
,
0010
0100
0001
1000
,
0100
0000
0001
0000
0010
0000
0100
1000
,
0002
0000
0000
1003
,
0100
1000
0010
0100
,
0020
1000
0100
0100
,
1030
0000
0001
0100
,
0010
0000
1000
0000
0001
0000
0010
0001
,
0100
0000
0010
0000
1000
0000
0100
0010
,
0001
0100
0020
0030
,
1000
0000
0010
0100
0000
0001
1000
0000
,
0220
0000
0000
0000
,
0330
0000
0000
0000
;

//---------------dance-single - C. Picardy----------------
#NOTES:
     dance-single:
     :
     Hard:
     7:
     0.455515,0.441131,0.295685,0.479490,0.055940,302.000000,37.000000,60.000000,0.000000,0.000000,0.000000,0.455515,0.441131,0.295685,0.479490,0.055940,302.000000,37.000000,60.000000,0.000000,0.000000,0.000000:
0000
0000
0000
0000
,
0000
0000
0000
0000
,
0000
0000
0000
0000
,
0000
0000
0000
0000
,
1000
0000
0001
0000
1000
0100
0001
0000
,
0100
0000
1000
0000
0001
0100
1000
0000
,
0100
0000
0001
0000
1000
0100
0001
0000
,
0100
0000
0000
0000
0010
0000
0000
0000
0100
0010
0000
0000
0100
0000
1000
0000
,
1001
0000
0100
0000
0010
1000
0001
0000
,
0010
0000
0100
0000
1000
0100
0010
0001
,
0001
0000
1000
0000
0010
0100
0001
0000
,
1000
0000
1000
0000
0010
0100
0001
0100
,
0010
0000
1000
0000
0100
0010
0100
1000
,
0001
0000
0001
0000
1000
0100
0001
0100
,
1000
0000
0010
0000
0100
0001
0010
0001
,
0100
0000
0100
0000
0010
1000
0100
0010
,
0110
0000
0001
0000
0010
0100
1000
0000
,
0001
0000
0101
0000
1000
0100
0010
0000
,
0001
0000
1100
0000
0010
0100
1000
0000
,
0001
0000
0011
0000
0100
0010
0001
0000
,
2000
0000
3010
0010
0100
0000
1001
0000
,
0002
0000
0103
0100
0010
0000
1001
0000
,
0200
0000
0310
0010
1000
0000
0101
0000
,
0020
0000
0130
0100
1000
0000
0011
0000
,
0000
0100
1000
0100
0010
0000
0010
0000
,
0000
0001
0010
0001
1000
0000
1000
0000
,
0000
0010
0100
0010
0100
0000
0100
0000
,
0000
0001
0100
1000
1000
0000
1000
0000
,
0100
0011
0100
1010
,
0001
1100
0010
0101
,
1100
0101
1100
0101
,
1000
0000
0001
0000
1000
0001
1000
0001
,
2002
0000
3003
0000
0100
0010
0100
0000
,
2002
0000
3003
0010
,
0220
0000
0330
0000
0001
0100
1000
0000
,
0220
0000
0330
0100
,
2020
0000
0000
3030
,
0022
0000
0000
0033
,
2200
0000
0000
3300
,
0202
0000
0000
0303
,
0120
0000
1030
0000
0100
0010
0001
0000
,
2100
0010
0001
3001
,
0210
0000
0301
0000
1000
0100
0001
0000
,
0120
0000
0031
0000
0100
0001
1000
0100
,
2200
0000
3300
0000
0100
0100
0010
0000
,
0022
0000
0033
0000
1000
1000
0010
0000
,
0102
0100
0010
0010
,
1003
0000
0000
0000
0100
0000
0000
0000
1000
0001
0000
0000
0100
0000
0010
0000
,
0210
0000
0001
0000
0001
0001
0001
0000
,
0320
0000
1000
0000
0100
0100
0100
0000
,
2030
0000
0010
0000
0100
0100
0100
0000
,
3002
0000
0010
0000
1000
1000
1003
0000
,
0220
0000
0000
0000
0330
0000
0001
0100
,
0020
0000
1030
0020
0000
1030
0100
0020
,
0000
0032
0000
0203
0000
2300
0000
3200
,
0000
0320
0000
2030
0000
3100
0010
0001
,
1002
0000
0103
0000
0000
0000
0010
2000
,
0000
3020
0000
2030
0000
3001
0010
0100
,
1000
0002
0000
0203
0000
0320
0000
2030
,
0000
3002
0000
1003
0100
0010
0001
0100
,
0102
0000
0000
0000
0010
0000
0000
0000
0013
0000
0000
0000
0100
0000
0000
0100
,
1000
0000
0000
0001
0000
0000
0010
0000
0100
0000
0000
1000
0000
0000
0100
0000
,
0010
0001
0000
0002
0000
0000
0000
0000
1000
0000
0000
0000
0100
0000
0000
0000
,
0100
1003
0200
0320
,
0031
0000
0000
1000
0000
0000
0100
0000
0000
1000
0000
0000
0001
0000
1000
0000
,
0001
0000
0000
0100
0000
0000
0001
0000
0000
1000
0000
0000
0100
0000
0010
0000
,
0002
0000
0000
0000
1003
0000
0000
0000
0010
0100
0000
0010
0000
0000
0000
0000
,
1000
0000
0001
0000
0100
0000
0100
0010
0000
0000
0100
0000
0010
0000
0000
0000
,
2002
0000
0000
0000
,
3003
0000
0000
0000
;

//---------------dance-single - C. Picardy----------------
#NOTES:
     dance-single:
     :
     Challenge:
     9:
     0.674711,0.882261,0.375600,0.863082,0.355622,436.000000,47.000000,108.000000,20.000000,2.000000,13.000000,0.674711,0.882261,0.375600,0.863082,0.355622,436.000000,47.000000,108.000000,20.000000,2.000000,13.000000:
// measure 0
0000
0000
0000
0000
,  // measure 1
0000
0000
0000
0000
,  // measure 2
0000
0000
0000
0000
,  // measure 3
0000
0000
0000
0000
,  // measure 4
1000
0000
1000
0000
0001
0000
0000
0100
0010
0000
1000
0000
0001
0000
1000
0000
,  // measure 5
0000
0000
0100
0000
0100
0000
0000
0010
0001
0000
0001
0000
0010
0001
0010
0000
,  // measure 6
0100
0000
0100
0000
1000
0000
0000
0100
0010
0000
0001
0000
1000
0000
0100
0000
,  // measure 7
0000
0000
0010
0000
0010
0000
0000
0100
1000
0100
0000
0110
0000
0001
1000
0000
,  // measure 8
0100
1000
0100
1000
0100
0000
0010
0001
0000
0001
0100
0000
0010
0000
1000
0000
,  // measure 9
0010
1000
0010
1000
0010
0000
1000
0100
0000
0100
1000
0000
1001
0000
M00M
0000
,  // measure 10
0100
0010
0100
0010
0100
0000
0001
1000
0000
1000
0001
0000
0100
0000
0010
0000
,  // measure 11
1000
0001
1000
0001
1000
0000
0100
0010
0000
0010
0002
0000
0020
0003
0002
0030
,  // measure 12
0100
0013
0100
0010
0100
0000
0001
1000
0000
1000
0100
0000
0010
0000
0100
0000
,  // measure 13
1000
0100
1000
0100
1000
0000
0001
0010
0000
0001
1000
0000
1100
0000
MM00
0000
,  // measure 14
0001
0100
0001
0100
0001
0000
1000
0010
0000
1000
0001
0000
0010
0000
0001
0000
,  // measure 15
0100
0001
0100
0001
0100
0000
0010
0100
0000
0001
2000
0000
0200
3000
2000
0300
,  // measure 16
0001
3100
0001
0100
0001
0000
1000
0000
0010
0000
0000
0000
1001
0000
0000
0000
,  // measure 17
1000
0010
1000
0010
1000
0000
0001
0000
0100
0000
0000
0000
1001
0000
0000
0000
,  // measure 18
0001
0010
0001
0010
0001
0000
1000
0000
0100
0000
0000
0000
0011
0000
0000
0000
,  // measure 19
1000
0100
1000
0100
1000
0000
0010
0000
0100
0000
0002
0000
0200
0003
2000
0300
,  // measure 20
0100
3010
0100
0010
0100
0000
0001
0100
0010
0000
0000
0000
2020
0000
0000
3030
,  // measure 21
0001
0100
0001
0100
0001
0000
1000
0100
0010
0000
0000
0000
2200
0000
0000
3300
,  // measure 22
0001
0010
0001
0010
0001
0000
0010
0100
1000
0000
0000
0000
0220
0000
0000
0330
,  // measure 23
1000
0100
0010
0001
1000
0000
0001
0000
1000
0100
0000
0010
0001
1000
0100
0000
,  // measure 24
1001
0000
0100
0010
0100
0000
0001
0000
0220
0000
0000
0330
2020
0000
0000
3030
,  // measure 25
0001
0000
1000
0100
1000
0000
0001
0000
0022
0000
0000
0033
0202
0000
0000
0303
,  // measure 26
0100
0000
0010
1000
0100
0000
1000
0000
2020
0000
0000
3030
0202
0000
0000
0303
,  // measure 27
0010
0000
0100
1000
0001
0000
1000
0000
2200
0000
0000
3300
2002
0000
0000
3003
,  // measure 28
0202
0000
M0M0
0303
0220
0000
M00M
0330
0202
0000
M0M0
0303
2200
0000
00MM
3300
,  // measure 29
0220
0000
M00M
0330
0022
0000
MM00
0033
2002
0000
0MM0
3003
2020
0000
0M0M
3030
,  // measure 30
0002
0200
0020
2000
,  // measure 31
3333
0000
0000
0000
0000
0000
0000
0000
0001
0010
0100
1000
0100
0010
0001
0000
,  // measure 32
1002
0000
0100
0000
1000
0010
1000
0000
,  // measure 33
2003
0000
0010
0000
0100
0001
0100
3000
,  // measure 34
1002
0000
0010
0000
1000
0100
1000
0000
,  // measure 35
2003
0000
0001
0000
0010
0100
0100
3000
,  // measure 36
0021
0000
0100
0000
0001
0100
0100
0030
,  // measure 37
1020
0000
0001
0000
0100
0001
0001
0030
,  // measure 38
2010
0000
0100
3100
0012
0000
1000
1003
,  // measure 39
0201
0000
1000
0000
0001
0301
0100
0010
,  // measure 40
4001
0000
0000
0000
3100
0010
0004
0000
,  // measure 41
0400
0003
0000
0000
0310
1000
0100
0010
,  // measure 42
0014
0000
0000
0000
1003
0100
0040
0000
,  // measure 43
0400
0030
0000
0000
0310
0001
0100
0010
,  // measure 44
4010
0000
0000
0000
3001
0100
1000
0100
,  // measure 45
0040
0000
0000
0000
1030
0100
0010
0001
,  // measure 46
4000
0004
0000
3000
0400
0000
0000
0303
,  // measure 47
4000
0000
0040
0000
0000
0000
3030
0000
1000
0010
1000
0001
0000
0100
0010
0000
,  // measure 48
1001
0100
1000
0001
0010
0100
0010
1000
,  // measure 49
0010
0001
0010
0000
0100
0000
1000
0000
0010
1000
0010
0000
0100
0000
0001
0000
,  // measure 50
1000
0010
1000
0000
0100
0000
0010
0000
0001
1000
0001
0000
0010
0000
0200
0000
,  // measure 51
2000
0000
0000
0000
3300
0000
0001
0010
,  // measure 52
2001
0000
0000
0000
0100
0000
0000
0000
0010
0000
0000
0000
3200
0000
0020
0300
,  // measure 53
0002
0030
0000
0000
2003
0000
0200
0000
0000
3000
0320
0000
0002
0030
0200
0003
,  // measure 54
0000
2000
0300
0002
3000
0020
0003
2000
,  // measure 55
0030
0200
3000
0002
0300
0103
1000
0001
,  // measure 56
0201
0000
0020
0000
0330
0000
0200
2000
,  // measure 57
0300
0000
0002
0000
3000
0000
0020
0000
0003
0000
2030
0000
0200
3000
0002
0000
,  // measure 58
0300
2003
0000
0020
3000
0002
0030
0200
,  // measure 59
0003
0000
2000
0000
0300
0000
3002
0000
0020
0003
1000
0030
0100
0000
0010
0000
,  // measure 60
0210
0000
0000
0000
0001
0000
0000
0000
1000
0000
0300
0000
0100
0000
0000
0100
,  // measure 61
0010
0000
0000
0011
0000
0000
1000
0000
0100
0000
0000
0110
0000
0000
0001
0000
,  // measure 62
1000
0100
0000
0200
0000
0000
0000
0000
1000
0000
0000
0000
0010
0000
0000
0000
,  // measure 63
0001
0000
0000
0000
1300
0000
0000
0000
0002
0000
0000
0003
0201
0000
0000
0300
,  // measure 64
0020
0000
0000
2030
0000
0000
3020
0000
0000
0230
0000
0000
0301
0000
1000
0000
,  // measure 65
2100
0000
0000
3001
0000
0000
0102
0000
0000
1003
0000
0000
0100
0000
0010
0000
,  // measure 66
0012
0000
0000
0000
2003
0000
0000
0000
3001
0010
0000
0002
0000
0000
0000
0003
,  // measure 67
1000
0000
0010
0000
0100
0000
0001
0010
0000
0000
0100
0000
1000
0001
0010
0000
,  // measure 68
0022
0000
0000
0000
,  // measure 69
0033
0000
0000
0000
;
