#TITLE:Cyst;
#SUBTITLE:;
#ARTIST:Sanxion7;
#TITLETRANSLIT:;
#SUBTITLETRANSLIT:;
#ARTISTTRANSLIT:;
#GENRE:;
#CREDIT:;
#BANNER:cystbn.png;
#BACKGROUND:cystbg.png;
#LYRICSPATH:;
#CDTITLE:;
#MUSIC:cyst.ogg;
#OFFSET:-0.224963;
#SAMPLESTART:71.049995;
#SAMPLELENGTH:12.000000;
#SELECTABLE:YES;
#BPMS:0.000000=138.929993
;
#STOPS:
;
#BGCHANGES:;
#KEYSOUNDS:;
#ATTACKS:;

//---------------dance-single - C. Picardy----------------
#NOTES:
     dance-single:
     :
     Beginner:
     1:
     0.091292,0.227605,0.105048,0.000000,0.000000,73.000000,61.000000,12.000000,0.000000,0.000000,0.000000,0.091292,0.227605,0.105048,0.000000,0.000000,73.000000,61.000000,12.000000,0.000000,0.000000,0.000000:
0000
0000
0000
0000
,
0000
0000
0000
0000
,
0000
0000
0000
0000
,
0000
0000
0000
0000
,
0000
0000
0000
0000
,
0010
0000
0000
0000
,
0000
0000
0000
0000
,
0100
0000
0000
0000
,
0000
0000
0000
0000
,
1000
0000
0000
0000
,
0001
0000
0000
0000
,
0100
0000
0000
0000
,
0100
0000
0000
0000
,
0010
0000
0000
0000
,
0010
0000
0000
0000
,
1000
0000
0000
0000
,
0000
0000
0000
0000
,
1001
0000
0000
0000
,
0100
0000
0000
0000
,
0010
0000
0000
0000
,
0000
0000
0000
0000
,
1000
0000
0000
0000
,
0001
0000
0000
0000
,
1000
0000
0000
0000
,
0010
0000
0000
0000
,
1001
0000
0000
0000
,
0100
0000
0000
0000
,
0010
0000
0000
0000
,
0000
0000
0000
0000
,
1000
0000
0000
0000
,
0001
0000
0000
0000
,
0010
0000
0000
0000
,
1000
0000
0000
0000
,
0110
0000
0000
0000
,
0100
0000
0000
0000
,
0010
0000
0000
0000
,
1000
0000
0001
0000
,
1000
0000
0000
0000
,
0100
0000
0000
0000
,
0010
0000
0000
0000
,
0001
0000
0000
0000
,
1001
0000
0000
0000
,
0100
0000
0000
0000
,
0010
0000
0000
0000
,
0100
0000
0100
0000
,
0110
0000
0000
0000
,
1001
0000
0000
0000
,
0110
0000
0000
0000
,
1001
0000
0000
0000
,
1000
0000
0000
0000
,
0001
0000
0000
0000
,
1000
0000
0000
0000
,
0100
0000
0000
0000
,
0110
0000
0100
0000
,
0110
0000
0010
0000
,
1001
0000
1000
0000
,
1001
0000
0001
0000
,
1000
0000
0000
0000
,
0001
0000
0000
0000
,
0100
0000
0000
0000
,
0000
0000
0000
0000
,
0010
0000
0000
0000
,
0100
0000
0000
0000
,
0001
0000
0000
0000
,
1000
0000
0000
0000
,
0010
0000
0000
0000
;

//---------------dance-single - C. Picardy----------------
#NOTES:
     dance-single:
     :
     Easy:
     4:
     0.240111,0.399841,0.131311,0.280129,0.000000,192.000000,177.000000,15.000000,32.000000,0.000000,0.000000,0.240111,0.399841,0.131311,0.280129,0.000000,192.000000,177.000000,15.000000,32.000000,0.000000,0.000000:
0000
0000
0000
0000
,
0000
0000
0000
0000
,
0000
0000
0000
0000
,
0000
0000
0000
0000
,
0000
0000
0000
0000
,
1000
0000
0001
0000
,
0100
0000
0010
0000
,
1000
0000
0001
0000
,
1000
0000
0100
0000
,
0110
0000
0001
0100
,
0010
0000
1000
0000
,
0010
0100
0001
0000
,
1000
0000
0100
0000
,
0010
0001
0100
0000
,
0010
0000
1000
0000
,
0001
0100
1000
0000
,
0100
0001
1000
0100
,
2002
0000
3003
0000
,
0200
0000
0300
0000
,
0020
0000
0030
0000
,
0000
0000
0000
0000
,
2000
0000
3000
0000
,
0002
0000
0003
0000
,
0020
0000
0030
0000
,
0200
0000
0300
0000
,
2001
0000
3100
0000
,
0020
0000
0130
0000
,
2000
0000
3010
0000
,
0200
0000
0302
0000
,
2003
0000
3001
0000
,
0200
0000
0301
0000
,
0200
0000
0310
0000
,
2000
0000
3100
0000
,
0010
0010
0010
0010
,
0001
0001
0001
0001
,
0100
0100
0100
0100
,
0020
0000
2030
0000
,
3100
0100
0100
0000
,
0010
0010
0010
0000
,
0001
0001
0001
0000
,
0100
0100
0100
0100
,
1001
0100
0010
0001
,
0010
0100
1000
0010
,
0100
0001
0010
0100
,
1000
0100
0010
0001
,
0200
0010
0010
0310
,
2000
0010
0010
3010
,
0200
0001
0001
0301
,
2000
0001
0001
3001
,
1002
0010
0100
0013
,
2000
0010
0100
3010
,
0002
1000
0010
1003
,
0100
0010
0001
0100
,
0020
1000
0100
1030
,
0002
1000
0100
1003
,
0020
0001
0100
0031
,
0200
0001
1000
0301
,
1001
0100
0010
0001
,
0110
1000
0100
0010
,
1001
0010
0100
1000
,
0001
0100
0010
1000
,
0110
1000
0100
0010
,
1001
0010
0100
1000
,
0110
0100
0001
1000
,
0110
0100
0110
1001
,
2002
3003
0000
0000
;

//---------------dance-single - C. Picardy----------------
#NOTES:
     dance-single:
     :
     Medium:
     5:
     0.331403,0.426759,0.253867,0.210097,0.035016,265.000000,236.000000,29.000000,24.000000,0.000000,0.000000,0.331403,0.426759,0.253867,0.210097,0.035016,265.000000,236.000000,29.000000,24.000000,0.000000,0.000000:
0000
0000
0000
0000
,
0000
0000
0000
0000
,
0000
0000
0000
0000
,
0000
0000
0000
0000
,
0000
0000
0000
0000
,
1000
0100
0010
0000
0001
0000
0010
0000
,
0100
0010
0001
0100
,
0010
1000
0100
0000
0010
0000
0001
0000
,
1000
0000
0100
0000
0010
0000
0001
0100
,
1000
0100
0001
0000
1000
0000
0100
0000
,
0010
0000
0001
0000
0100
0000
0010
1000
,
0100
0010
0001
0000
0100
0000
0010
0000
,
1000
0000
0010
0000
0100
0000
0001
0010
,
0100
1000
0010
0000
0100
0000
0001
0000
,
1000
0000
0010
0000
1000
0000
0100
1000
,
0100
0010
0001
0000
0100
0010
1000
0000
,
0100
0000
0010
0000
0001
0010
0100
1000
,
2002
0000
3003
0000
,
0202
0000
0303
0000
,
2020
0000
3030
0000
,
2000
0000
0000
3000
,
0220
0000
0330
0000
,
2020
0000
3030
0000
,
2200
0000
3300
0000
,
0022
0000
0000
0000
0033
0000
0000
1000
,
1002
0000
0000
0100
0103
0000
0000
0000
,
0020
0000
0000
1000
1030
0000
0000
0000
,
0200
0000
0000
1000
1300
0000
0000
0000
,
0200
0000
0320
0000
,
0032
0000
0000
0010
0013
0000
0000
0000
,
2000
0000
0000
0010
3010
0000
0000
0000
,
0002
0000
0000
0100
0103
0000
0000
0000
,
2000
0000
0000
0001
3001
0000
0000
0000
,
0101
0100
0010
1000
,
1100
0100
0010
0001
,
1001
0100
0010
1000
,
0100
0010
0001
0100
,
4010
0000
0000
0000
0000
3000
0000
0000
,
0140
0000
0000
0000
0000
0030
0000
0000
,
0401
0000
0000
0000
0000
0300
0000
0000
,
4004
0000
0000
3003
,
1000
0100
0001
0000
0100
0000
1000
0000
,
0010
1000
0100
0000
0010
0000
0001
0000
,
0100
0001
0010
0000
0001
0000
0100
0000
,
0010
1010
0001
1100
,
0001
0100
1000
0000
0100
0000
0011
0000
,
1000
0100
0001
0000
0100
0000
1010
0000
,
0001
0010
1000
0000
0010
0000
1001
0000
,
0100
0010
0100
0000
0110
0000
1001
0000
,
0100
0010
0000
0010
0100
0000
0001
0000
,
1000
0100
0000
0100
1000
0000
0010
0000
,
0100
0001
0000
1000
0001
0000
1000
0000
,
0100
0011
0100
1010
,
0001
0001
0000
1000
1000
0000
1100
0000
,
0010
0010
0000
0001
0001
0000
0110
0000
,
0100
0100
0000
0010
0010
0000
1100
0000
,
0001
0001
0000
0100
0100
0000
1010
0000
,
0000
0000
0010
0000
0000
0010
0000
0000
1000
0000
0000
1000
0000
0000
1000
0000
,
0000
0000
0001
0000
0000
0001
0000
0000
0100
0000
0000
0100
0000
0000
0100
0000
,
0000
0000
0001
0000
0000
1000
0000
0000
0001
0000
0000
1000
0000
0000
0001
0000
,
0000
0000
1000
0000
0000
0001
0000
0000
1000
0000
0000
0001
0000
0000
1000
0000
,
1000
0100
0001
0000
1000
0100
0001
0000
,
1000
0010
0001
0000
1000
0010
0001
0000
,
0100
0010
1000
0000
0100
0010
1000
0000
,
0001
0100
1000
0000
0100
0000
0001
1000
,
1001
0000
0000
0000
;

//---------------dance-single - C. Picardy----------------
#NOTES:
     dance-single:
     :
     Challenge:
     9:
     0.707826,0.853519,0.122557,0.043770,1.032976,566.000000,552.000000,14.000000,5.000000,10.000000,0.000000,0.707826,0.853519,0.122557,0.043770,1.032976,566.000000,552.000000,14.000000,5.000000,10.000000,0.000000:
0000
0000
0000
0000
,
0000
0000
0000
0000
,
0000
0000
0000
0000
,
1000
0001
1000
0000
0001
0100
0001
0000
0100
0000
0100
0010
0000
1000
0010
0000
,
1000
0001
1000
0000
0100
0010
0000
0010
0001
0000
0001
1000
0000
0000
MMMM
0000
,
0001
0100
0001
0000
1000
0010
1000
0000
0100
0000
0100
0010
0000
0100
0010
0000
,
0100
1000
0001
0000
0100
0001
0000
1000
0010
0000
0100
0010
0000
0000
1000
0000
,
0010
0100
0010
0000
1000
0010
1000
0000
0001
0000
0001
1000
0000
0100
1000
0000
,
0001
1000
0001
0000
1000
0100
0000
0001
0100
0000
0010
0001
0000
0001
0100
0000
,
1001
0000
1000
0000
0100
0010
0000
0001
0100
0000
0010
1000
0000
0001
0100
0010
,
1000
0010
0100
0000
0001
1000
0000
0001
0010
0000
0100
1000
0000
0000
0001
0000
,
1000
0001
0100
0000
0010
1000
0000
0001
0010
0000
0001
0100
0000
0001
1000
0001
,
0100
0010
1000
0000
0100
0010
0000
0100
1000
0000
0001
0100
0000
0000
MMMM
0000
,
0010
1000
0100
0000
0010
0001
0000
1000
0100
0000
0010
0001
0000
1000
0100
0010
,
0001
0010
0100
0000
0010
0001
0000
0100
0010
0000
1000
0001
0000
0000
1000
0000
,
0100
1000
0010
0000
0100
0010
0000
0100
0001
0000
1000
0010
0000
0100
0001
0000
,
1000
0001
0100
0010
1000
0100
0010
0001
1000
0100
0010
1000
0010
0001
0100
0010
,
4000
0100
0000
0000
0000
0100
0000
0000
0000
0100
3000
0000
0000
0000
0000
0000
,
4000
0010
0000
0000
0000
0010
0000
0000
0000
0010
3000
0000
0000
0000
0000
0000
,
0004
0100
0000
0000
0000
0100
0000
0000
0000
0100
0003
0000
0000
0000
0000
0000
,
0020
0000
0000
0000
,
4030
0001
0000
0000
0000
0100
0000
0000
0000
0001
3000
0000
0000
0000
0000
0000
,
0400
0001
0000
0000
0000
0010
0000
0000
0000
0001
0300
0000
0000
0000
0000
0000
,
0040
1000
0000
0000
0000
0100
0000
0000
0000
1000
0030
0000
0000
0000
0000
0000
,
0400
1000
0000
0000
0000
0001
0000
0000
0000
1000
0300
0000
0100
0010
1000
0001
,
4000
0001
0000
0000
0000
0100
0000
0000
0000
0010
0000
0000
0000
0001
3000
0000
,
0400
0001
0000
0000
0000
0010
0000
0000
0000
1000
0000
0000
0000
0001
0300
0000
,
0040
1000
0000
0000
0000
0100
0000
0000
0000
0001
0000
0000
0000
1000
0030
0000
,
0200
0000
0000
0000
0002
0000
0000
0303
,
4000
0010
0000
0000
0000
0100
0000
0000
0000
0001
0000
0000
0000
0100
3000
0000
,
0004
0010
0000
0000
0000
1000
0000
0000
0000
0010
0000
0000
0000
0100
0003
0000
,
0040
1000
0000
0000
0000
0001
0000
0000
0000
0100
0000
0000
0000
1000
0030
0000
,
0400
0010
0000
0000
0000
1000
0000
0000
0000
0001
0000
0000
0000
0010
0300
0000
,
0004
0100
0000
0000
0000
0010
0003
0000
4000
0100
0000
0000
0000
0010
3000
0000
,
0400
0001
0000
0000
0000
0010
0300
0000
0040
1000
0000
0000
0000
0100
0030
0000
,
4000
0010
0000
0000
0000
0001
3000
0000
0400
0010
0000
0000
0000
1000
0300
0000
,
2000
0000
0010
3000
0200
0000
0001
0300
,
1000
0010
0100
0001
1000
0010
1000
0010
0100
0001
1000
0001
0000
0000
0100
0001
,
1000
0010
1000
0010
0100
0001
0010
0100
1000
0100
0010
0001
0000
0000
1000
0010
,
0100
0001
0100
0001
1000
0001
1000
0001
1000
0100
0010
0001
1000
0000
1000
0000
,
1000
0000
0001
0000
0100
0000
0010
0000
1000
0000
0100
0000
0010
0000
0100
0000
4000
0400
0000
0000
0000
0000
0000
0000
0000
0000
0000
0000
0000
0000
3300
0000
,
0010
0100
1000
0000
1100
0000
0100
0000
0010
0000
0010
0000
0011
0000
0100
0000
,
0010
1000
0010
0000
0110
0000
0100
0000
0001
0000
0001
0000
0101
0000
1000
0000
,
0010
1000
0010
0000
1010
0000
1000
0000
0100
0000
0100
0000
0010
0000
0010
0000
,
0001
1000
0001
0000
1000
0001
0000
0100
0001
0000
1000
0100
0000
0000
0010
0000
,
0100
1000
0001
0000
0101
0000
1000
0000
0010
0000
0010
0000
0110
0000
1000
0000
,
0001
0100
0010
0000
0110
0000
0010
0000
1000
0000
1000
0000
1001
0000
0001
0000
,
0100
0001
0100
0000
1001
0000
0100
0000
0010
0000
0010
0000
1010
0000
0001
0000
,
0100
0001
0100
0000
0110
0000
0010
0000
1000
0000
0100
0000
0010
0000
0001
0000
,
0100
0001
0100
0000
0001
0100
0001
0000
0100
0000
0010
0000
1000
0000
0100
0000
,
0010
0001
0010
0000
0001
0010
0001
0000
1000
0000
0100
0000
0010
0000
0100
0000
,
1000
0010
1000
0000
0010
1000
0010
0000
1000
0000
0010
0000
0001
0000
0010
0000
,
1000
0010
0100
0000
1000
0100
0000
0001
0100
0000
0010
1000
0000
0000
0100
0000
,
0010
0100
0010
0000
0100
0010
0100
0000
0010
0100
0010
0000
0001
0000
1000
0000
,
0010
0100
0010
0000
0100
0010
0100
0000
0010
0100
0010
0000
1000
0000
0001
0000
,
0100
0001
0010
0000
0100
1000
0001
0000
0010
0100
1000
0000
0100
0000
0010
0000
,
0001
0010
0001
0010
0001
0010
0001
0010
0100
1000
0100
1000
0100
1000
0100
1000
,
0001
1000
0100
0000
0010
0001
0000
0100
0010
0000
1000
0100
0000
0010
0001
0000
,
0100
0001
0010
0000
0100
1000
0000
0001
0010
0000
1000
0010
0000
0001
0100
0000
,
0010
1000
0100
0000
0010
0001
0000
0100
1000
0000
0001
0010
0000
1000
0010
0100
,
0001
0100
0010
0000
0010
1000
0000
1000
0001
0000
0001
0100
0000
0000
0100
0000
,
0010
1000
0001
0000
0010
0100
0000
1000
0100
0000
0010
0100
0000
1000
0100
0010
,
0100
1000
0001
0000
0100
0001
0000
0010
0001
0000
0100
0010
0000
0100
0001
0010
,
0100
0010
0001
0000
1000
0100
0000
0001
0100
0000
1000
0010
0000
0001
0010
1000
,
0100
0010
0001
0000
1000
0100
0000
0010
0001
0000
0100
0010
0000
1000
0100
0000
,
MM11
0000
0000
0000
;

//---------------dance-single - C. Picardy----------------
#NOTES:
     dance-single:
     :
     Hard:
     8:
     0.476470,0.569012,0.183835,0.192589,0.258244,381.000000,360.000000,21.000000,22.000000,0.000000,0.000000,0.476470,0.569012,0.183835,0.192589,0.258244,381.000000,360.000000,21.000000,22.000000,0.000000,0.000000:
// measure 0
0000
0000
0000
0000
,  // measure 1
0000
0000
0000
0000
,  // measure 2
0000
0000
0000
0000
,  // measure 3
0001
0010
0100
0010
,  // measure 4
0001
0100
0010
0100
,  // measure 5
0001
0100
0010
0000
1000
0000
0100
0000
,  // measure 6
0010
0100
1000
0000
0001
0000
0100
0000
,  // measure 7
0010
1000
0100
0000
0010
0000
0001
0000
,  // measure 8
1000
0000
0000
0000
0100
0000
0000
0000
0010
0000
0100
0010
0000
0010
0100
0000
,  // measure 9
1001
0100
0010
1000
,  // measure 10
0100
0000
0010
0000
0001
0000
0000
0000
0100
0000
0000
0010
0000
0000
1000
0000
,  // measure 11
0010
1000
0100
0000
0010
0000
0001
0000
,  // measure 12
0100
0000
0001
0000
0000
0001
0000
0000
0010
0000
0000
0001
0000
0000
0000
0000
,  // measure 13
1000
0100
0001
0000
0100
0000
1000
0000
,  // measure 14
0010
0000
1000
0000
0000
1000
0000
0000
0001
0000
0000
1000
0000
0000
0100
0000
,  // measure 15
1000
0100
1000
0100
0010
0001
0010
0001
,  // measure 16
1000
0100
0010
0001
1000
0100
0010
0001
,  // measure 17
0202
0000
0303
0000
,  // measure 18
2020
0000
3030
0000
,  // measure 19
0220
0000
0330
0000
,  // measure 20
2000
0000
0000
3000
,  // measure 21
0001
0100
0002
0000
0000
0000
0000
0000
0103
0000
0000
0000
0000
0000
0000
0000
,  // measure 22
0010
1000
0020
0000
0000
0000
0000
0000
1030
0000
0000
0000
0000
0000
0000
0000
,  // measure 23
0100
1000
0200
0000
0000
0000
0000
0000
0310
0000
0000
0000
0000
0000
0000
0000
,  // measure 24
0010
0100
0020
0000
0000
0000
0000
0000
0031
0000
0000
0000
1000
0000
0001
0100
,  // measure 25
0002
0000
0000
0100
0103
0000
0000
0000
,  // measure 26
1000
0010
2000
0000
0000
0000
0010
0000
3010
0000
0000
0000
0000
0000
0000
0000
,  // measure 27
0100
1000
0200
0000
0000
0000
0010
0000
0310
0000
0000
0000
0000
0000
0000
0000
,  // measure 28
0200
0000
2000
3300
,  // measure 29
1000
0001
0200
0000
0000
0000
0001
0000
0301
0000
0000
0000
0000
0000
0000
0000
,  // measure 30
1000
0010
0200
0000
0000
0000
1000
0000
1300
0000
0000
0000
0000
0000
0000
0000
,  // measure 31
0001
0010
0200
0000
0000
0000
0010
0000
0310
0000
0000
0000
0000
0000
0000
0000
,  // measure 32
0100
1000
0020
0000
0000
0000
0001
0000
0031
0000
0000
0000
0000
0000
0000
0000
,  // measure 33
1000
0010
0100
0000
0001
0000
0000
0000
0010
0000
0000
0000
0100
0000
0000
0000
,  // measure 34
1000
0100
0010
0000
0001
0000
0000
0000
0100
0000
0000
0000
0001
0000
0000
0000
,  // measure 35
1000
0001
0010
0000
0001
0000
0000
0000
0100
0000
0000
0000
0010
0000
0000
0000
,  // measure 36
2010
3100
0012
0103
,  // measure 37
0001
0000
0100
0000
1000
0000
0100
0000
0001
0000
0100
0010
0000
0000
1000
0000
,  // measure 38
0100
0000
0001
0000
0100
0000
1000
0000
0010
0000
0100
0001
0000
0000
1000
0000
,  // measure 39
0010
0100
0010
1000
0100
0010
0001
0100
,  // measure 40
0010
0000
0100
0000
0001
0000
1000
0000
0001
1000
0001
1000
0001
1000
0001
0000
,  // measure 41
1000
0100
0010
0100
1000
0100
0010
0100
,  // measure 42
1000
0001
0100
0001
1000
0001
0100
0001
,  // measure 43
0010
0001
0010
0100
0010
0001
0010
0100
,  // measure 44
1000
0000
0001
0000
0000
0100
0000
0000
0010
0000
0000
0100
0000
0000
0010
0000
,  // measure 45
0100
0001
0010
0001
0100
0001
0010
0001
,  // measure 46
0100
0010
1000
0010
0100
0010
1000
0010
,  // measure 47
0001
0010
1000
0010
0001
0010
1000
0100
,  // measure 48
0001
0100
0010
0100
0001
0100
0010
0000
,  // measure 49
1100
0000
1001
0000
0010
0001
0100
0000
,  // measure 50
1010
0000
1100
0000
0010
0100
1000
0000
,  // measure 51
0101
0000
0110
0000
0001
0100
1000
0000
,  // measure 52
0100
0101
1000
0110
,  // measure 53
1000
0010
0100
0000
0011
0000
0101
0000
,  // measure 54
0001
0100
1000
0000
0110
0000
1010
0000
,  // measure 55
1000
0100
0001
0000
1100
0000
0011
0000
,  // measure 56
0100
0000
0010
0000
0100
0000
0010
0000
0100
0010
0100
0010
0100
0000
0000
0000
,  // measure 57
0001
0000
1000
0000
0000
0100
0000
0000
1000
0000
0000
0010
0000
0100
0010
0000
,  // measure 58
0000
0000
1000
0000
0000
0001
0000
0000
0100
0000
0000
0001
0000
0010
0100
0000
,  // measure 59
0000
0000
1000
0000
0000
0100
0000
0000
0010
0000
0000
0100
0000
1000
0100
1000
,  // measure 60
0000
0000
0001
0000
0000
0010
0000
0000
0100
0000
0000
0010
0000
0100
1000
0000
,  // measure 61
0001
0000
0100
0000
0010
1000
0000
1000
0010
0000
0010
0100
0000
0100
0001
0000
,  // measure 62
0000
0000
1000
0000
0100
0010
0000
0010
0100
0000
0100
1000
0000
1000
0100
0000
,  // measure 63
0000
0000
0010
0000
0001
0100
0000
0100
0010
0000
0010
0100
0000
0100
0001
0000
,  // measure 64
0000
0000
1000
0000
0100
0010
0000
0010
0001
0000
0001
1000
0000
1000
0100
0000
,  // measure 65
1001
0000
0000
0000
;
