#VERSION:0.81;
#TITLE:Cycle III;
#SUBTITLE:;
#ARTIST:Gecko Yamori/SOR Remake;
#TITLETRANSLIT:;
#SUBTITLETRANSLIT:;
#ARTISTTRANSLIT:;
#GENRE:;
#ORIGIN:;
#CREDIT:;
#BANNER:cycleIIIbn.jpg;
#BACKGROUND:cycleIII.jpg;
#PREVIEWVID:;
#JACKET:;
#CDIMAGE:;
#DISCIMAGE:;
#LYRICSPATH:;
#CDTITLE:;
#MUSIC:cycleIII.ogg;
#OFFSET:-0.055079;
#SAMPLESTART:60.014072;
#SAMPLELENGTH:13.420009;
#SELECTABLE:YES;
#BPMS:0.000=144.010;
#STOPS:;
#DELAYS:;
#WARPS:;
#TIMESIGNATURES:0.000=4=4;
#TICKCOUNTS:0.000=4;
#COMBOS:0.000=1;
#SPEEDS:0.000=1.000=0.000=0;
#SCROLLS:0.000=1.000;
#FAKES:;
#LABELS:0.000=Song Start;
#BGCHANGES:;
#KEYSOUNDS:;
#ATTACKS:
;

//---------------dance-single - C. Picardy----------------
#NOTEDATA:;
#CHARTNAME:;
#STEPSTYPE:dance-single;
#DESCRIPTION:C. Picardy;
#CHARTSTYLE:;
#DIFFICULTY:Beginner;
#METER:1;
#RADARVALUES:0.082890,0.117980,0.087035,0.135387,0.000000,37.000000,9.000000,14.000000,0.000000,0.000000,0.000000,0.000000,0.000000,0.082890,0.117980,0.087035,0.135387,0.000000,37.000000,9.000000,14.000000,0.000000,0.000000,0.000000,0.000000,0.000000;
#CREDIT:C. Picardy;
#NOTES:
// measure 0
0000
0000
0000
0000
,  // measure 1
0000
0000
0000
0000
,  // measure 2
0000
0000
0000
0000
,  // measure 3
0000
0000
0000
0000
,  // measure 4
0000
0000
0000
0000
,  // measure 5
0000
0000
0000
0000
,  // measure 6
0000
0000
0000
0000
,  // measure 7
0000
0000
0000
0000
,  // measure 8
0010
0000
0000
0000
,  // measure 9
0000
0000
0000
0000
,  // measure 10
0010
0000
0000
0000
,  // measure 11
0000
0000
0000
0000
,  // measure 12
1000
0000
0000
0000
,  // measure 13
0000
0000
0000
0000
,  // measure 14
1000
0000
0000
0000
,  // measure 15
0000
0000
0000
0000
,  // measure 16
0100
0000
0000
0000
,  // measure 17
0010
0000
0000
0000
,  // measure 18
0001
0000
0000
0000
,  // measure 19
1000
0000
0000
0000
,  // measure 20
0010
0000
0000
0000
,  // measure 21
0010
0000
0000
0000
,  // measure 22
0100
0000
0000
0000
,  // measure 23
0001
0000
0000
0000
,  // measure 24
1001
0000
0000
0000
,  // measure 25
0000
0000
0000
0000
,  // measure 26
1001
0000
0000
0000
,  // measure 27
0000
0000
0000
0000
,  // measure 28
0110
0000
0000
0000
,  // measure 29
0000
0000
0000
0000
,  // measure 30
0110
0000
0000
0000
,  // measure 31
0000
0000
0000
0000
,  // measure 32
2000
0000
0000
3000
,  // measure 33
0000
0000
0000
0000
,  // measure 34
0002
0000
0000
0003
,  // measure 35
0000
0000
0000
0000
,  // measure 36
0020
0000
0000
0030
,  // measure 37
0000
0000
0000
0000
,  // measure 38
0200
0000
0000
0300
,  // measure 39
0000
0000
0000
0000
,  // measure 40
2002
0000
0000
0000
,  // measure 41
3003
0000
0000
0000
,  // measure 42
0220
0000
0000
0000
,  // measure 43
0330
0000
0000
0000
,  // measure 44
1000
0000
0000
0000
,  // measure 45
1000
0000
0000
0000
,  // measure 46
0001
0000
0000
0000
,  // measure 47
0001
0000
0000
0000
,  // measure 48
2002
0000
0000
0000
,  // measure 49
3003
0000
0000
0000
,  // measure 50
0220
0000
0000
0000
,  // measure 51
0330
0000
0000
0000
,  // measure 52
1000
0000
0000
0000
,  // measure 53
0010
0000
0000
0000
,  // measure 54
0100
0000
0000
0000
,  // measure 55
0001
0000
0000
0000
,  // measure 56
1000
0000
0000
0000
,  // measure 57
0010
0000
0000
0000
,  // measure 58
0100
0000
0000
0000
,  // measure 59
0001
0000
0000
0000
,  // measure 60
2002
0000
0000
0000
,  // measure 61
3003
0000
0000
0000
;

//---------------dance-single - C. Picardy----------------
#NOTEDATA:;
#CHARTNAME:;
#STEPSTYPE:dance-single;
#DESCRIPTION:C. Picardy;
#CHARTSTYLE:;
#DIFFICULTY:Easy;
#METER:3;
#RADARVALUES:0.236237,0.294951,0.154728,0.232093,0.000000,131.000000,16.000000,24.000000,0.000000,0.000000,0.000000,0.000000,0.000000,0.236237,0.294951,0.154728,0.232093,0.000000,131.000000,16.000000,24.000000,0.000000,0.000000,0.000000,0.000000,0.000000;
#CREDIT:C. Picardy;
#NOTES:
0000
0000
0000
0000
,
0000
0000
0000
0000
,
0000
0000
0000
0000
,
0000
0000
0000
0000
,
0000
0000
0000
0000
,
0000
0000
0000
0000
,
0000
0000
0000
0000
,
0000
0000
0000
0000
,
0010
0000
0000
0000
,
1000
0000
0000
0000
,
0001
0000
0000
0000
,
0100
0000
0000
0000
,
1001
0000
0000
0000
,
0010
0000
0000
0000
,
0100
0000
0010
0000
,
1000
0001
0100
0010
,
1000
1000
2000
3000
,
0001
0000
0010
0000
,
0100
0100
0200
0300
,
1000
0000
0010
0000
,
0110
0000
0001
0000
,
1001
0000
1000
0000
,
1100
0000
0100
0000
,
0110
0000
0001
0000
,
1001
0001
0100
0000
,
0010
1000
0010
0000
,
0101
0100
0001
0000
,
0001
0010
0001
0000
,
1000
0010
0100
0000
,
0001
1000
0100
0000
,
0010
0001
1000
0000
,
0001
0100
1000
0000
,
2000
3000
0020
0030
,
0200
0300
0002
0003
,
0020
0030
0200
0300
,
2000
3000
0020
0030
,
1000
0000
0010
0000
,
0100
0000
0001
0000
,
1000
0100
0001
0100
,
1000
0010
0001
0010
,
2000
0000
3001
0000
,
0200
0000
0310
0000
,
0020
0000
1030
0000
,
0200
0000
1300
0000
,
1000
0001
0001
0000
,
0010
1000
1000
0000
,
0001
1000
0100
0010
,
0001
1000
0100
0010
,
2002
3003
0010
0000
,
0220
0330
1000
0000
,
0202
0303
0010
0000
,
2200
3300
0001
0000
,
0010
0100
0001
0000
,
0100
1000
0010
0000
,
0100
0001
1000
0100
,
0010
0001
0100
0010
,
0110
0000
1010
0000
,
0101
0000
1001
0000
,
1000
0010
0001
0010
,
1000
0100
0001
0100
,
2200
0000
0000
0000
,
3300
0000
0000
0000
;

//---------------dance-single - C. Picardy----------------
#NOTEDATA:;
#CHARTNAME:;
#STEPSTYPE:dance-single;
#DESCRIPTION:C. Picardy;
#CHARTSTYLE:;
#DIFFICULTY:Medium;
#METER:6;
#RADARVALUES:0.448989,0.471922,0.299786,0.348139,0.019341,258.000000,31.000000,36.000000,0.000000,0.000000,0.000000,0.000000,0.000000,0.448989,0.471922,0.299786,0.348139,0.019341,258.000000,31.000000,36.000000,0.000000,0.000000,0.000000,0.000000,0.000000;
#CREDIT:C. Picardy;
#NOTES:
0000
0000
0000
0000
,
0000
0000
0000
0000
,
0000
0000
0000
0000
,
0000
0000
0000
0000
,
0000
0000
0000
0000
,
0000
0000
0000
0000
,
0000
0000
0000
0000
,
0000
0000
0000
0000
,
0100
0000
0010
0000
0000
0010
0001
0000
,
0100
0000
0100
0000
0000
0010
1000
0000
,
0001
0000
0001
0000
0000
0010
0001
0000
,
1000
1000
0000
0001
,
1000
0000
1000
0000
0010
0100
0001
0000
,
0010
0000
0001
0000
0100
0010
1000
0000
,
0100
0000
1000
0000
0001
0100
1000
0000
,
0100
0001
0100
0001
1000
0001
1000
0001
,
2000
0000
3000
0202
0000
0303
0000
0000
,
1000
0000
0010
0000
0100
0001
1000
0000
,
1100
0000
0000
0220
0000
0330
0000
0000
,
0001
0000
0010
0000
0100
1000
0010
0100
,
0002
0000
0003
2000
0000
3010
0100
0000
,
0020
0000
0030
0200
0000
0301
0010
0000
,
0202
0000
0303
0020
0000
1030
0100
0000
,
1000
0100
1000
0100
1000
0001
1000
0001
,
0100
0000
0110
0000
0010
1000
0100
0000
,
0010
0000
0011
0000
0010
0100
1000
0000
,
0010
0000
1010
0000
0100
0001
0001
0000
,
0001
0000
1001
0000
1000
0100
0100
0000
,
1000
0000
0100
0110
0000
0001
1001
0000
,
0101
0000
0010
1010
0000
0100
0101
0000
,
0001
0000
0000
1000
0000
0000
0110
0000
0000
0000
0000
0000
0000
0000
0000
0000
,
0010
0000
0000
0001
0000
0000
1100
0000
0000
0000
0000
0000
0000
0000
0000
0000
,
0001
0100
1000
0000
1000
0100
0001
0000
,
0001
0100
0010
0000
0010
0100
0001
0000
,
0001
0010
1000
0000
1000
0010
0001
0000
,
0001
1000
0100
0000
1000
0001
0011
0000
,
0001
0001
0101
0000
0100
0100
0110
0000
,
1000
1000
1010
0000
0100
0010
0110
0000
,
1000
0001
0100
0001
0020
0030
0110
0000
,
0001
1000
0100
1000
0010
0100
0001
0100
,
0020
0000
0030
2000
0000
3000
0200
0000
,
0320
0000
0030
2000
0000
3000
0002
0000
,
0023
0000
0030
0200
0000
0300
2000
0000
,
3020
0000
0030
0002
0000
0003
0000
0000
,
1000
0100
1000
0000
0010
0100
0010
0000
,
0001
0010
0001
0000
0100
0001
0100
0000
,
0101
0000
0100
0110
0000
1000
0010
0000
,
0101
0000
0010
1010
0000
0001
1001
0000
,
2000
0000
3100
0010
0000
0010
0001
0100
,
0020
0000
0100
0130
0000
0010
1000
0100
,
0002
0000
0100
0103
0000
1000
0100
0010
,
0002
0000
0010
0013
0000
0000
0000
0000
,
0001
0000
0101
0000
0010
0010
0010
0000
,
1000
0000
1100
0000
0100
0100
0100
0000
,
1000
0000
0000
1000
0000
0000
1010
0000
0000
0000
0100
0000
0010
0000
0000
0000
,
0001
0000
0000
0001
0000
0000
0101
0000
0000
0000
0001
0000
1000
0000
0100
0000
,
0020
0000
0001
0001
0000
0100
0130
1000
,
0020
0000
0100
0100
0000
0001
0031
0000
,
2000
3002
0203
0320
,
1030
0001
0100
0010
1000
0100
0010
0001
,
2002
0000
0000
0000
,
3003
0000
0000
0000
;

//---------------dance-single - C. Picardy----------------
#NOTEDATA:;
#CHARTNAME:;
#STEPSTYPE:dance-single;
#DESCRIPTION:C. Picardy;
#CHARTSTYLE:;
#DIFFICULTY:Hard;
#METER:9;
#RADARVALUES:0.652070,0.827555,0.386821,0.280445,0.575396,403.000000,40.000000,29.000000,45.000000,0.000000,0.000000,0.000000,0.000000,0.652070,0.827555,0.386821,0.280445,0.575396,403.000000,40.000000,29.000000,45.000000,0.000000,0.000000,0.000000,0.000000;
#CREDIT:C. Picardy;
#NOTES:
0000
0000
0000
0000
,
0000
0000
0000
0000
,
0000
0000
0000
0000
,
0000
0000
0000
0000
,
0000
0000
0000
0000
,
0000
0000
0000
0000
,
0000
0000
0000
0000
,
0000
0000
0000
0000
,
0001
0000
0000
0001
0010
0000
0000
0000
0100
0000
1000
0000
1100
0000
0000
0000
,
0010
0000
0000
0010
0100
0000
0000
0000
0000
0000
0101
0000
0000
0000
1000
0001
,
0100
0000
0110
0000
1000
1010
0000
0000
,
0101
0000
0000
0000
0011
0000
0000
0000
0MM0
0000
0000
0000
0110
0000
0010
0100
,
1000
0000
0000
0000
1010
0000
0000
0000
0001
0000
0101
0000
0000
0000
0001
0100
,
0010
0000
0000
0000
0101
0000
0000
0000
1000
0000
0101
0000
0000
0000
0100
0010
,
1000
0000
0000
0000
0110
0000
0000
0000
1000
0100
1000
0000
0000
0000
0000
0000
,
0001
0010
0001
0000
0001
0000
0001
1000
0100
1000
0100
0000
0100
0010
0100
0010
,
0001
1000
0010
0101
0000
MMMM
1000
0000
,
0010
0000
0100
0000
0001
0000
1000
0100
0000
0100
0010
0000
0001
0000
1000
0100
,
0010
0001
0100
0110
0MM0
0000
1010
0000
,
0001
0000
0100
0000
1000
0000
0100
0001
0000
0001
0010
0000
0100
1000
0010
0100
,
0002
0000
0000
0000
1003
0000
0100
0000
0000
0100
0000
0100
0010
0000
0001
0010
,
0200
0000
0000
0000
1300
0000
0010
0000
0000
0010
0000
0010
0100
0000
0001
0100
,
0020
0000
0000
0000
0130
0000
1000
0000
0000
0100
0000
0001
0010
0000
0001
1000
,
0100
1000
0100
0010
0000
0001
0010
0000
0001
0010
0001
0010
0100
1000
0100
0000
,
1000
0001
0100
0010
1000
0100
0001
0100
,
0010
0100
1000
0010
0100
0010
0001
0010
,
0100
0010
1000
0000
0010
0000
0100
0000
0001
0000
0100
0000
1000
0000
0100
0000
,
0001
0010
0001
1000
0100
1000
0010
0100
,
0100
0000
0010
0000
1000
0000
1000
0010
0000
0000
0100
0000
0010
1000
0010
0000
,
0100
0000
0000
0101
0000
0000
1001
0000
0000
0000
1000
0000
0010
0100
0010
0000
,
0110
0000
0000
0101
0000
0000
0110
0000
0000
0000
0100
0000
0001
0010
0001
0000
,
0100
0000
0000
0101
0000
0000
0011
0000
0000
0110
0000
0000
0010
0001
0010
0001
,
0010
0000
0100
0000
0010
0000
0100
0000
1000
0100
0010
0100
2000
0000
0000
3000
,
0001
0000
0100
0000
0010
0000
0100
0000
0001
0010
0001
0100
0020
0000
0000
0030
,
1000
0100
0010
0000
0100
0000
1000
0000
0010
0100
0001
0100
0020
0000
0000
0030
,
1000
0001
0100
0000
0010
0000
0100
0000
1000
0100
0010
1000
0020
0000
0000
0030
,
1000
0010
0000
1000
0010
0000
1000
0010
0000
1000
0010
1000
0010
0000
0100
0000
,
0010
0100
0000
0010
0100
0000
0010
0100
0000
0010
0100
0010
0100
0000
0001
0000
,
0010
0001
0000
0001
0100
0000
0100
0010
0000
0010
1000
0010
0100
0000
0010
0000
,
1000
0100
0000
0100
1000
0000
1000
0010
0000
0010
0100
0001
0100
0001
0100
0001
,
0200
0000
0000
0000
0310
0000
2000
0MM0
0000
0000
3100
0000
0010
0000
0100
0000
,
2000
0MM0
0000
0000
3001
0000
0020
0000
0000
0000
M031
0000
0100
0000
M010
0000
,
0200
00M0
1300
020M
0000
0310
1000
0100
,
0002
M000
0103
M020
0000
0130
1000
00M1
,
0100
0000
0000
0000
0110
0000
0000
0000
0100
0001
0000
0000
0101
0000
0000
0000
,
1000
0000
0000
0000
1100
0000
0000
0000
0100
0010
0000
0000
1100
0000
0000
0000
,
0100
0000
0000
0010
0000
0000
0001
0000
0000
1000
0000
0000
0001
0000
0100
0000
,
0010
0000
0000
1000
0000
0000
0010
0000
0000
0100
0000
0000
0001
0000
0010
0000
,
2200
0000
000M
0000
3300
0000
022M
M000
0000
0000
M33M
0000
0010
0000
M100
0000
,
0202
0000
M000
0000
0303
0000
M022
0000
0000
0000
M033
0000
0001
0000
0100
0020
,
2000
0000
0M00
0000
0000
0000
3030
0000
0000
M0M0
0000
0000
0000
0000
0001
0200
,
0020
0000
0000
0000
0330
0000
0MM0
0000
0000
0000
0000
0000
0010
1000
0010
1000
,
0010
0000
0000
0000
1010
0000
0000
0000
0100
0010
0000
0000
1010
0000
0000
0000
,
0001
0000
0000
0000
0011
0000
0000
0000
0100
0010
0000
0000
0101
0000
0000
0000
,
0001
0000
0000
0101
0000
0000
0100
0000
0000
1010
0000
0000
1000
0000
0010
0000
,
0000
0000
0100
0000
0010
0000
1000
0100
0000
0100
0010
0000
0011
0000
1001
0000
,
0001
0100
0000
0100
0010
0000
0010
1000
0000
1000
0100
0000
0010
0100
0010
0000
,
0100
1000
0000
1000
0010
0000
0010
0100
0000
0100
0010
0000
0100
0001
0100
0000
,
0010
1000
0000
0001
0100
0000
0010
0100
0000
0010
1000
0000
0001
0000
0101
0000
,
0100
0001
0100
0001
0100
0001
0100
0001
1000
0001
1000
0001
1000
0001
1000
0002
,
0200
M000
M000
M000
M000
M000
M000
M000
,
M303
MMMM
0000
0000
0000
0000
0000
0000
;

//---------------dance-single - C. Picardy----------------
#NOTEDATA:;
#CHARTNAME:;
#STEPSTYPE:dance-single;
#DESCRIPTION:C. Picardy;
#CHARTSTYLE:;
#DIFFICULTY:Challenge;
#METER:12;
#RADARVALUES:1.000000,1.000000,0.357809,0.328798,1.000000,684.000000,37.000000,34.000000,99.000000,0.000000,0.000000,0.000000,0.000000,1.000000,1.000000,0.357809,0.328798,1.000000,684.000000,37.000000,34.000000,99.000000,0.000000,0.000000,0.000000,0.000000;
#CREDIT:C. Picardy;
#NOTES:
0000
0000
0000
0000
,
0000
0000
0000
0000
,
0000
0000
0000
0000
,
0000
0000
0000
0000
,
2000
0000
0000
0000
,
0000
0000
0000
0000
,
0020
0000
0000
0M00
0000
000M
0000
0M00
,
0000
000M
0000
0000
0000
0M00
0000
3030
,
0100
0001
0100
0010
1000
0000
0001
0100
0010
1000
0010
0000
1000
0000
0000
0000
,
0100
1000
0100
0010
0001
0000
1000
0100
0010
0001
1000
0000
0000
0000
0010
0100
,
0001
0010
0100
0010
0001
0000
1000
0100
0010
0100
1000
0000
0001
0000
0000
0000
,
0001
0100
0010
0000
0101
0000
0M0M
0000
0000
0000
0000
0000
1100
0000
MM10
0100
,
1000
0010
0100
0001
0010
0000
0100
1000
0010
0100
0001
0000
0001
0000
0000
0000
,
0100
0010
1000
0010
0100
0000
0001
0010
0100
0010
0001
0000
0100
0010
1000
0010
,
0100
0010
1000
0001
0100
0000
0100
0010
1000
0001
0100
0000
0010
0000
0000
0000
,
1000
0000
0001
0000
0100
0000
0010
0000
1000
0000
0100
0000
0010
0000
0100
0000
1000
0000
0100
0000
0010
0000
0001
0000
0010
0001
0010
0001
0010
0001
0010
0001
,
0010
0001
0010
0100
1000
0100
0010
0000
0000
0001
0010
0000
1001
0000
M00M
0001
,
0100
0010
1000
0100
0000
0010
0100
1000
0001
0100
1000
0100
0001
0010
0100
1000
,
0010
1000
0100
0010
0100
0010
1000
0000
0000
0100
0010
0000
1100
0000
MM00
0010
,
0100
1000
0100
0001
0100
0010
0100
1000
0100
0001
0100
0010
0001
0100
0001
0100
,
0002
0000
0000
0000
1003
0000
1100
0000
0000
0110
0000
0001
0011
0000
0001
0100
,
0010
1000
0010
0100
0000
0000
0001
0010
0000
1001
0000
0100
1100
0000
0100
0010
,
0001
0100
1000
0100
0010
0100
0001
0010
0100
0010
0001
0100
0010
1000
0100
0001
,
0100
0000
1000
0000
0010
0000
0001
0000
0010
0000
0100
0000
0010
0000
0001
0000
0010
0000
0100
0000
0010
0000
1000
0000
0100
0000
0010
0000
0001
1000
0010
0100
,
0010
1000
0100
1000
0010
0100
0010
0000
1000
0001
0100
0000
0010
1000
0001
0000
,
0001
0010
0100
1000
0100
0010
0001
0000
0001
0000
0101
0000
0110
0000
1000
0000
,
0010
1000
0010
1000
0010
0000
0000
0000
0100
0000
0001
0000
0010
0000
0000
0000
0100
0000
1000
0000
0010
0000
0000
0000
0101
0000
0000
0000
0110
0000
0000
0000
,
1000
0001
0100
0001
0000
0001
0100
0010
1000
0010
0100
0000
0001
0100
1000
0000
,
0100
0010
0100
0010
0100
0000
0000
0000
0000
0000
0001
0000
0010
0000
0100
0000
1000
0000
0100
0000
0010
0000
0000
0000
0001
0000
0010
0000
0100
0000
0000
0000
,
1100
0000
10M0
1100
000M
0100
11M0
0000
100M
1100
00M0
0000
0001
0100
0010
0100
,
0110
0000
0010
0110
0000
0100
0110
0000
0010
0110
0000
0000
0001
0010
1000
0010
,
0011
0000
0000
0000
1000
0000
1MM1
0000
0000
0000
0001
0000
1MM1
0000
0000
0000
1000
0000
1MM1
0000
0000
0000
0000
0000
0001
0000
0100
0000
0001
0100
0001
0100
,
0001
0100
0010
1000
0100
0010
0001
0010
0100
1000
0100
0010
0001
0000
MMMM
0000
,
1000
0010
0100
0001
0010
1000
0010
0001
0100
0010
1000
0100
0010
0000
MMMM
0000
,
0100
0010
0100
0001
0100
0010
0100
1000
0010
0100
0010
0001
0010
0000
MMMM
0000
,
0010
0001
0010
1000
0100
0001
0100
0010
1000
0010
0100
0010
1000
0000
MMMM
0000
,
0010
0100
0010
0100
0010
0000
0001
0000
0100
0000
0010
0000
1000
0000
0100
0000
0010
0000
0100
0000
1000
0000
0010
0000
0100
0000
0001
0000
0010
0000
0100
0000
,
0100
1000
0100
1000
0100
0000
0010
0000
0100
0000
1000
0000
0100
0000
0010
0000
0001
0000
0010
0000
0100
0000
0010
0000
0001
0000
0100
0000
0010
0000
1000
0000
,
0001
0100
0001
0100
0001
0000
0010
0000
0100
0000
0010
0000
0001
0000
0100
0000
0010
0000
1000
0000
0100
0000
0010
0000
0001
0000
0010
0000
0100
0000
1000
0000
,
0010
1000
0010
1000
0010
0000
0100
0000
0001
0000
0010
0000
0100
0000
1000
0000
0010
0100
0010
0100
0010
0000
1000
0000
0001
0000
0100
0000
0010
0000
1000
0000
,
0002
0000
0000
0000
0000
0000
M0M0
0000
0200
0003
0000
0000
0000
0000
0000
M000
0000
0000
002M
0000
0000
0000
0300
0000
0000
0000
0000
0M0M
2000
0000
0000
0000
0030
0000
0000
0000
00M0
0000
0000
0M00
0002
0000
3000
0000
0000
00M0
0000
0000
,
0203
0000
0000
M000
0000
0000
0000
0000
0020
000M
0000
0000
0300
0000
0000
0000
2000
0000
0M0M
0000
0000
0000
0030
0000
0200
0000
0000
000M
3000
0000
0020
0000
0000
0000
0000
0000
M300
0000
0030
0000
0002
0000
0M03
0000
2000
00M0
0000
0000
,
0002
0000
0000
0000
0000
0000
0000
0000
0000
0000
0000
0000
00M0
0000
0000
0000
0000
0000
0M00
0000
0000
0000
0000
0000
3000
0000
0000
0000
0000
0000
0000
0000
0203
0000
0000
0000
00M0
0000
0000
0000
0000
0000
0000
0000
0000
0000
0000
0000
000M
0000
0000
0000
0000
0000
0000
0000
0000
0000
0000
0000
M002
0000
0000
0000
0000
0000
0000
0000
0000
0000
0000
0000
03M0
0000
0000
0000
0000
0000
0000
0000
0000
0000
0000
0000
0000
0000
0000
0000
0000
0000
2000
0000
0000
0000
0000
0000
0M03
0000
0000
0000
0000
0000
0000
0000
0000
0000
0000
0000
0000
0000
0000
0000
0020
0000
0000
0000
0000
0000
0000
0000
0M0M
0000
0000
0000
0000
0000
0000
0000
0000
0000
0000
0000
0000
0000
0000
0000
0000
0000
0000
0000
0000
0000
0000
0000
300M
0000
0000
0000
0000
0000
0000
0000
0000
0000
0000
0000
0000
0000
0000
0000
0230
0000
0000
0000
0000
0000
0000
0000
M000
0000
0000
0000
0000
0000
0000
0000
0000
0000
0000
0000
00M0
0000
0000
0000
0000
0000
0000
0000
0000
0000
0000
0000
,
0002
0000
0000
0000
0000
0000
0000
0000
0000
0000
0000
0000
M000
0000
0000
0000
0300
0000
0000
0000
0000
0000
0000
0000
0000
0000
0000
0000
0000
0000
0000
0000
0020
0000
0000
0000
MM00
0000
0000
0000
0000
0000
0000
0000
0000
0000
0000
0000
0000
0000
0000
0000
0000
0000
0000
0000
0003
0000
0000
0000
0M00
0000
0000
0000
0000
0000
2000
0000
0000
0000
0000
0000
000M
0000
0000
0000
0000
0000
0000
0000
0000
0030
0000
0000
0000
0000
0000
0000
0000
0000
0200
0000
0000
0000
0000
0000
0000
0000
0000
0000
0000
0000
3000
0000
0000
0000
0000
0000
0000
0000
0000
0000
0000
0000
0000
0000
0002
0000
0000
0000
0300
0000
0000
0000
0000
0000
0000
0000
0000
0000
0000
0000
0000
0000
0000
0000
0003
0000
0000
0000
0000
0000
0000
0000
1000
0000
0000
0000
0000
0000
0000
0000
0000
0000
0000
0000
0010
0000
0000
0000
0000
0000
0000
0000
0000
0000
0000
0000
0100
0000
0000
0000
0000
0000
0000
0000
0000
0000
0000
0000
0001
0000
0000
0000
0000
0000
0000
0000
0000
0000
0000
0000
,
0010
0100
0010
0001
0100
0010
1000
0100
0010
0001
0100
0010
0110
0000
MMMM
0000
,
0100
0010
0100
0010
0001
0010
1000
0100
0010
0100
0001
0100
0110
0000
MMMM
0000
,
1100
MM00
0000
0011
0000
00MM
0110
0000
0MM0
1010
M0M0
0000
0M01
0000
0101
0M0M
,
0000
0000
0000
0000
0000
0000
0000
0000
0000
0000
0000
0000
0202
0000
0000
0000
0000
0000
0000
0000
0000
0000
0000
0000
0000
0000
0000
0000
0000
0000
0000
0000
0000
0000
0000
0000
0000
0000
0000
0000
0000
0000
0303
0000
0M0M
0000
0000
0000
0202
0000
0000
0000
0000
0000
0000
0000
0000
0000
0000
0000
0000
0000
0000
0000
0000
0000
0000
0000
0000
0000
0000
0000
0000
0000
0000
0000
0000
0000
0303
0000
0M0M
0000
0000
0000
0202
0000
0000
0000
0000
0000
0000
0000
0000
0000
0000
0000
0000
0000
0000
0000
0000
0000
0000
0000
0000
0000
0000
0000
0000
0000
0000
0000
0000
0000
0303
0000
0M0M
0000
0000
0000
0101
0000
0000
0000
0000
0000
0000
0000
0000
0000
0000
0000
0000
0000
0000
0000
0000
0000
0000
0000
0000
0000
0000
0000
0100
0000
0000
0000
0000
0000
0000
0000
0000
0000
0000
0000
0000
0000
0000
0000
0000
0000
0000
0000
0000
0000
0000
0000
0110
0000
0000
0000
0000
0000
0000
0000
0000
0000
0000
0000
0000
0000
0000
0000
0000
0000
0000
0000
0000
0000
0000
0000
,
0010
1000
0001
0100
0010
1000
0100
0010
0001
0100
0010
1000
0100
0010
0001
0000
,
0001
0100
0010
0100
1000
0100
0010
0100
0001
0010
0100
0010
0001
0000
0001
1000
,
0100
0001
0100
1000
0001
0010
1000
0010
0100
0001
0100
1000
0001
1000
0100
0000
,
0100
1000
0010
0100
0010
0100
0001
0010
0001
1000
0100
0010
0100
0010
1000
0010
,
0100
0010
0001
0100
0010
0000
1000
0100
0010
0001
0100
0010
1000
0000
0100
0010
,
0001
0100
0010
1000
0100
0000
0010
0100
1000
0001
0100
0010
1000
0000
0001
0100
,
0001
0100
0001
0000
0000
0000
0010
0000
0100
0000
0000
0000
1000
0000
0010
0000
0000
0000
0100
0000
0001
0000
0100
0000
0010
0000
1000
0000
0100
0000
0010
0000
,
0100
0010
0100
0000
0000
0000
0010
0000
0001
0000
0000
0000
1000
0000
0100
0000
0001
0000
0100
0000
0010
0000
0100
0000
1000
0000
0010
0000
0100
0000
0000
0000
,
0010
1000
0010
0000
0000
0000
0100
0001
0100
0000
0000
0000
0001
1000
0001
0000
0000
0000
1000
0100
1000
0000
0000
0000
0001
0100
0001
0100
0001
0000
0000
0000
,
0100
0010
0100
0000
0000
0000
0001
0010
0001
0000
0000
0000
1000
0100
1000
0000
0000
0000
1000
0001
1000
0000
0000
0000
0010
1000
0010
1000
0010
0000
0000
0000
,
0001
1000
0100
0000
0000
0000
0010
0100
1000
0000
0000
0000
0001
0100
0010
0000
0000
0000
1000
0100
0010
0000
0000
0000
0001
1000
0100
1000
0100
0000
0000
0000
,
0010
0000
0100
0000
1000
0000
0001
0000
0100
0000
0010
0000
1000
0000
0100
0000
0010
0000
0001
0000
0100
0000
0010
0000
1000
0001
0100
0010
1000
0100
0010
0002
,
2000
0000
0000
0000
,
3003
0000
0000
0000
;
