#TITLE:Crystal Quantum;
#SUBTITLE:;
#ARTIST:Will Davis & Jeehun Hwang;
#TITLETRANSLIT:;
#SUBTITLETRANSLIT:;
#ARTISTTRANSLIT:;
#GENRE:;
#CREDIT:;
#BANNER:crystalquantbn.png;
#BACKGROUND:crystalquantumbg1.png;
#LYRICSPATH:;
#CDTITLE:;
#MUSIC:crystalquantum.ogg;
#OFFSET:0.006728;
#SAMPLESTART:55.988750;
#SAMPLELENGTH:15.880008;
#SELECTABLE:YES;
#BPMS:0.000000=119.930000
;
#STOPS:
;
#BGCHANGES:;
#KEYSOUNDS:;
#ATTACKS:;

//---------------dance-single - C. Picardy----------------
#NOTES:
     dance-single:
     :
     Beginner:
     1:
     0.086728,0.143786,0.071893,0.071893,0.000000,58.000000,9.000000,9.000000,0.000000,0.000000,0.000000,0.086728,0.143786,0.071893,0.071893,0.000000,58.000000,9.000000,9.000000,0.000000,0.000000,0.000000:
0000
0000
0000
0000
,
0000
0000
0000
0000
,
0000
0000
0000
0000
,
0000
0000
0000
0000
,
0010
0000
0000
0000
,
0000
0000
0000
0000
,
1000
0000
0000
0000
,
0000
0000
0000
0000
,
0001
0000
0000
0000
,
1000
0000
0000
0000
,
0010
0000
0000
0000
,
0100
0000
0000
0000
,
0002
0003
0000
0000
,
2000
3000
0000
0000
,
0010
0000
0000
0000
,
0200
0000
0300
0000
,
0002
0003
0000
0000
,
2000
3000
0000
0000
,
0100
0000
0000
0000
,
0020
0000
0030
0000
,
0100
0000
0000
0000
,
0001
0000
0000
0000
,
1000
0000
0000
0000
,
0010
0000
0000
0000
,
1001
0000
0000
0000
,
1001
0000
0000
0000
,
1001
0000
0000
0000
,
1001
0000
0000
0000
,
1000
0000
0000
0000
,
0010
0000
0000
0000
,
0100
0000
0000
0000
,
0001
0000
0000
0000
,
1000
0000
0000
0000
,
1000
0000
0000
0000
,
0001
0000
0000
0000
,
0001
0000
0000
0000
,
0100
0000
0000
0000
,
0100
0000
0000
0000
,
0010
0000
0010
0000
,
0100
0000
0100
0000
,
2002
0000
0000
0000
,
0000
3003
0000
0000
,
0000
0000
0000
0000
,
0000
0000
0000
0000
,
0100
0000
0000
0000
,
0001
0000
0000
0000
,
1000
0000
0000
0000
,
0010
0000
0000
0000
,
0100
0000
0000
0000
,
0001
0000
0000
0000
,
1000
0000
0000
0000
,
0010
0000
0000
0000
,
0100
0000
0100
0000
,
0010
0000
0010
0000
,
0001
0000
0001
0000
,
1000
0000
1000
0000
,
1001
0000
0000
0000
,
1001
0000
0000
0000
,
1001
0000
0000
0000
,
1001
0000
0000
0020
,
0030
0000
0000
0000
;

//---------------dance-single - C. Picardy----------------
#NOTES:
     dance-single:
     :
     Challenge:
     9:
     0.634484,0.774847,0.335501,0.095857,0.623073,502.000000,42.000000,12.000000,42.000000,1.000000,1.000000,0.634484,0.774847,0.335501,0.095857,0.623073,502.000000,42.000000,12.000000,42.000000,1.000000,1.000000:
0000
0000
0000
0000
,
0000
0000
0000
0000
,
1000
0001
0000
1000
0000
0001
0000
1000
0000
0001
0000
1000
0001
0000
1001
0000
,
0100
0010
0000
0100
0000
0010
0000
0100
0000
0010
0000
0100
0010
0100
0010
0000
,
0110
0000
0101
0000
1001
0000
1100
0100
,
0110
0000
0011
0000
1001
0000
0101
0001
,
1001
0000
0011
0000
1010
0000
1100
1000
,
0101
0000
0000
0000
0011
0000
0000
0001
0000
1000
0000
0001
1000
0001
1000
0000
,
0100
1000
0100
0000
0010
0001
0000
1000
0000
0010
0000
0100
0001
0000
0101
0000
,
0100
0010
0100
0000
0001
0010
0000
0010
0000
0100
0000
0010
0100
0010
0001
0000
,
1000
0100
0010
0000
0100
1000
0000
0100
0000
0010
0000
0100
1000
0000
1100
0000
,
0100
0010
0001
0000
1000
0001
0000
0001
0000
1000
0000
0010
1000
0001
0010
0001
,
0100
0000
0100
0000
0001
0000
0100
0001
0100
0001
0100
0000
0010
1000
0010
0000
,
1000
0100
1000
0100
1000
0000
0100
0010
0001
0000
0100
0000
0011
0000
0000
0000
,
0001
0010
0001
0000
1000
0000
0001
0010
0001
0010
0001
0000
0100
0001
0010
0000
,
0001
1000
0100
0000
1000
0000
0001
0100
0010
0000
1000
0000
1100
0000
0000
0000
,
0210
0000
0000
0000
M020
0000
0000
0000
003M
0000
M000
0000
00M2
0000
0300
0003
,
0201
0000
M0M0
0000
0000
0000
0000
0000
20M0
0000
0000
3000
002M
0000
0000
0030
,
M002
0000
M0M0
0303
2200
000M
00M0
0000
,
002M
000M
000M
333M
,
1000
0100
1000
0000
0001
0000
1000
0100
1000
0000
0001
0000
0101
0000
0000
0000
,
1000
0010
1000
0000
0001
0000
1000
0010
1000
0000
1010
0000
1001
0000
0000
0000
,
0001
0100
0001
0000
0010
0000
0001
0100
0001
0000
0010
0000
0100
0000
0000
0000
,
1000
0100
1000
0000
0001
0010
0001
0000
1000
0000
1001
0000
1001
0000
0000
0000
,
MMMM
0000
0001
0000
1000
0000
0100
0010
0000
0010
0001
0000
1000
0000
1010
0000
,
0000
0000
0001
0000
0100
0000
0001
0010
0000
0010
0001
0000
1000
0000
0101
0000
,
0000
0000
0100
0000
0010
0000
1000
0100
0000
0100
0010
0000
0100
0000
1100
0000
,
0000
0000
0010
0000
0001
0000
0010
0100
0000
0100
0010
0000
0001
1000
0001
0000
,
0000
0000
0100
0000
0010
0000
1000
0100
0000
0010
0100
0000
1000
0000
0010
0000
,
0100
0000
0001
0000
0010
0000
0001
0100
0000
0010
1000
0000
0100
0000
0010
0000
,
0001
0000
0100
0000
1000
0000
0100
0001
0000
0010
1000
0000
0010
0000
0001
0000
,
0100
0000
0010
0000
1000
0000
0100
0010
0000
0001
1000
0000
0010
1000
0100
0000
,
0000
0000
0001
0000
0100
0000
0001
0100
0000
0001
0010
0000
0100
0000
0110
0000
,
0100
0000
1000
0000
0010
0000
0100
0001
0000
0010
0100
0000
1000
0000
1010
0000
,
0100
0000
0001
0000
0010
0000
0100
1000
0000
0010
0100
0000
0001
0000
1001
0000
,
0000
0000
1100
0000
0000
0000
M011
0000
0000
0000
10M1
0000
0001
0100
0010
0000
,
1001
0000
0100
0000
0010
0000
1000
0100
0000
0010
0001
0000
0011
0000
1001
0000
,
0100
0000
0001
0000
1000
0000
0100
0010
0000
0001
1000
0000
1001
0000
1100
0000
,
1000
0100
1000
0100
1000
0100
1000
0100
0010
0100
0010
0100
0010
0100
0010
0100
,
0010
0001
0010
0001
0010
0001
0010
0001
1000
0001
1000
0001
1000
0001
1000
0001
,
0200
0001
0001
0001
,
0001
0000
0301
0000
0000
0100
0000
1000
,
0010
0100
0000
0001
0000
0001
0000
1000
0000
1000
000M
0000
0100
0000
10M0
0000
,
0000
0000
0100
0000
0010
0000
0001
0010
0000
0100
1000
0000
0001
0100
0001
0000
,
0000
0000
1000
0000
0010
0000
0100
0001
0000
1000
0010
1000
0001
0000
0101
0000
,
0000
0000
1000
0000
0100
0000
0010
0001
0000
0100
0001
0100
0010
0000
1000
0000
,
0000
0000
0100
0000
0001
0000
1000
0100
0000
0010
0001
1000
0001
0000
0010
0000
,
0000
0000
0100
0000
0010
0000
0100
0010
0000
0100
0010
0000
0100
0010
0100
0000
,
0000
0000
0001
0000
1000
0000
0100
1000
0000
1000
0010
0100
0010
0000
1000
0000
,
0001
0000
0100
0000
0010
0000
0100
0001
0000
0100
M001
0100
0010
0000
1000
0000
,
0001
0000
0100
0000
0010
0000
1000
0001
0000
0100
0001
1000
0010
0000
0100
0000
,
0001
0000
M010
0000
0100
0000
0100
0010
0000
0010
0100
0000
1000
0001
1000
0000
,
0100
0000
0010
0000
0001
0000
0100
0000
0010
0000
1000
0100
000M
0100
1000
0000
,
0010
0000
M001
0000
0M10
0000
1000
0000
0100
0000
0001
0100
0000
0100
0010
0000
,
0001
0000
0100
0000
100M
0000
0100
0000
0001
0000
0001
0010
0000
0010
1000
0000
,
0010
0000
0100
0000
1000
0000
0100
0000
0001
0000
0100
0010
0000
0100
1000
0000
,
01M0
1000
0100
1000
010M
0000
0010
0000
0001
0000
01M0
0000
1000
0000
0100
0000
,
0001
0100
M001
0100
0001
0000
0010
0000
1M00
0000
0010
0000
0001
0000
M100
0000
,
0010
1000
001M
1000
0010
0000
0100
0000
M001
0000
0100
0000
1000
0000
0100
0000
,
0010
1000
0010
1000
0010
0000
0100
0001
0000
1000
0100
0000
0010
0100
2000
0000
,
0004
0M00
0000
00M0
0000
3M03
0000
0000
;

//---------------dance-single - C. Picardy----------------
#NOTES:
     dance-single:
     :
     Easy:
     3:
     0.244208,0.311536,0.159762,0.159762,0.000000,174.000000,20.000000,20.000000,0.000000,0.000000,0.000000,0.244208,0.311536,0.159762,0.159762,0.000000,174.000000,20.000000,20.000000,0.000000,0.000000,0.000000:
0000
0000
0000
0000
,
0000
0000
0000
0000
,
0000
0000
0000
0000
,
0000
0000
0000
0000
,
0001
0000
0100
0000
,
0001
0000
1000
0000
,
0010
0000
1000
0000
,
0100
0000
1000
0000
,
0001
0100
0001
0100
,
0001
1000
0001
1000
,
0010
1000
0010
1000
,
0100
0010
0001
0010
,
0200
0300
1000
0000
,
0002
0003
0100
0100
,
0002
0003
0200
0300
,
0220
0000
0330
1000
,
0200
0300
1000
0000
,
0020
0030
0100
0010
,
2000
3000
0002
0003
,
2002
0000
0000
3003
,
0001
0010
0001
1000
,
0010
1000
0010
0100
,
0001
0100
0001
0100
,
0001
0010
0001
1000
,
0000
0100
0100
1000
,
0000
0010
0010
0100
,
0000
0001
0001
0010
,
0000
1000
0010
0010
,
2000
3000
0001
0100
,
0020
0030
1000
1000
,
0020
0030
1000
0100
,
2000
3000
0100
0100
,
0000
0010
0001
1001
,
0000
1000
0010
1001
,
0000
1000
0100
0110
,
0000
0100
0100
0110
,
0001
0010
0001
1001
,
0010
1000
0100
1001
,
0100
0100
0010
0010
,
1000
1000
0001
0001
,
0220
0000
0000
0000
,
0000
0330
0000
0000
,
0010
0000
0001
0000
,
1000
0000
0100
0000
,
0000
1000
0001
0010
,
0000
0100
1000
0010
,
0000
0100
0001
0010
,
0000
0100
0100
0010
,
0001
0010
0001
0001
,
1000
0010
1000
1000
,
0100
1000
0100
0100
,
0010
0001
0010
0010
,
0100
1000
0001
1001
,
0100
0010
0001
1001
,
0100
0010
1000
0110
,
1000
0100
0010
1001
,
0100
0100
0101
0110
,
1000
1000
1010
0110
,
0001
0001
0011
1001
,
1000
0001
0100
0220
,
0330
0000
0000
0000
;

//---------------dance-single - C. Picardy----------------
#NOTES:
     dance-single:
     :
     Medium:
     5:
     0.358324,0.314133,0.199703,0.167750,0.000000,268.000000,25.000000,21.000000,0.000000,0.000000,0.000000,0.358324,0.314133,0.199703,0.167750,0.000000,268.000000,25.000000,21.000000,0.000000,0.000000,0.000000:
0000
0000
0000
0000
,
0000
0000
0000
0000
,
0002
0000
0000
0003
0000
0000
0100
0010
,
0200
0000
0000
0300
0000
0000
0000
0000
,
0001
0000
0001
0000
0001
0000
0001
0100
,
0010
0000
0010
0000
0010
0000
0010
1000
,
0100
0000
0100
0000
0100
0000
0100
0010
,
0100
0000
1000
0000
1000
0000
1000
0001
,
0100
0000
0101
0000
0100
0010
1000
0000
,
0010
0000
0110
0000
0010
1000
0100
0000
,
0010
0000
0011
0000
1000
0100
0001
0000
,
0100
0000
1100
0000
0100
0010
0001
0100
,
0020
1000
1000
1030
,
0202
0303
1000
0100
,
0220
0330
2200
3300
,
2002
0000
3003
0100
,
0102
0010
0010
1003
,
2200
3300
0010
0100
,
0022
0033
2000
0000
,
0020
0000
0000
3030
,
0001
0000
0001
0000
0010
0001
0100
0000
,
0010
0000
0010
0000
1000
0010
1000
0000
,
0100
0000
0100
0000
0010
0001
0010
0000
,
0100
0000
0100
0000
1000
0001
0100
0000
,
0000
0001
1000
0000
0100
0010
0100
0000
,
0000
1000
0010
0000
0100
0001
0010
0000
,
0000
0001
0100
0000
0010
1000
0010
0000
,
0000
1000
0100
1000
0010
0000
0110
0000
,
0000
0001
1000
0000
0100
1000
0100
0010
,
0000
0100
1000
0000
0001
0010
0001
0100
,
0000
0010
0100
0000
0001
0010
0001
0100
,
0000
0010
1000
0100
0010
0000
1001
0000
,
0001
0100
1000
0000
0100
0000
0110
0000
,
0001
0010
1000
0000
0010
0000
0110
0000
,
1000
0100
0001
0000
0100
0000
1100
0000
,
0000
0001
0000
1000
0000
0001
1000
0000
,
0001
0100
0010
0000
0100
0000
0011
0000
,
1000
0100
0001
0000
0100
0000
0011
0000
,
0001
0100
1000
0000
1000
0100
0001
0000
,
0001
0100
0010
0000
0010
0100
0001
1000
,
0002
0010
1000
1000
,
0000
0000
0003
0000
0000
0100
0000
0100
,
0001
0000
0001
0000
0100
0000
0100
0010
,
0000
0000
1000
0000
1000
0000
0010
0100
,
0000
0000
0001
0000
1000
0000
0100
0100
,
0000
0000
1000
0000
0010
0000
0100
0100
,
0000
0000
0001
0000
0010
0000
0001
0001
,
0000
1000
1000
0010
1000
0000
1001
0000
,
0001
0000
0010
0000
0100
0000
0010
0010
,
0001
0000
0100
0000
0010
0000
1000
1000
,
0010
0000
1000
0000
0100
0000
1000
1000
,
0010
0000
0100
0000
0010
0000
1000
1000
,
0001
0100
0001
0000
1000
0000
1010
0000
,
0001
0100
0010
0000
1000
0000
1100
0000
,
0100
0010
0100
0000
1000
0000
1010
0000
,
0100
0001
0010
0000
0010
0000
1001
0000
,
0001
0100
0001
0000
1000
0001
1000
0000
,
0100
1000
0100
0000
0010
1000
0010
0000
,
0100
0001
0010
0000
0001
1000
0010
0000
,
1000
0100
0010
0001
0100
0000
0101
0000
,
2002
0000
3003
0000
;

//---------------dance-single - C. Picardy----------------
#NOTES:
     dance-single:
     :
     Hard:
     8:
     0.489557,0.509542,0.175738,0.151774,0.327513,388.000000,22.000000,19.000000,0.000000,0.000000,0.000000,0.489557,0.509542,0.175738,0.151774,0.327513,388.000000,22.000000,19.000000,0.000000,0.000000,0.000000:
// measure 0
0000
0000
0000
0000
,  // measure 1
0000
0000
0000
0000
,  // measure 2
0020
0000
0000
0000
0000
0000
0000
0000
0030
0000
0000
0001
1000
0000
0100
0000
,  // measure 3
0020
0000
0000
0000
0000
0000
0000
0000
0030
0000
0000
0001
0100
0000
0001
0000
,  // measure 4
1000
0000
0000
0000
1000
0000
0000
0000
1000
0000
0000
1000
0001
0000
0100
0000
,  // measure 5
0001
0000
0000
0000
0001
0000
0000
0000
0001
0000
0000
0001
0100
0000
0001
0000
,  // measure 6
0010
0000
0000
0000
0010
0000
0000
0000
0010
0000
0000
0001
0010
0000
0001
0000
,  // measure 7
1000
0000
0000
0000
1000
0000
0000
0001
0000
1000
0000
0100
1000
0000
0100
0000
,  // measure 8
0010
0100
0000
0000
1100
0000
0000
0100
0010
0000
0100
0000
1000
0000
0010
0000
,  // measure 9
0100
0010
0000
0000
0101
0000
0000
0001
1000
0000
0010
0000
1000
0000
0100
0000
,  // measure 10
0010
0100
0000
0000
0011
0000
0000
0001
0010
0000
0001
0000
0100
0000
0010
0000
,  // measure 11
1000
0100
0000
0000
0110
0000
0000
0010
0100
0000
0010
0000
0001
0000
0100
0000
,  // measure 12
0020
0000
1000
0000
0001
0000
0001
0030
,  // measure 13
0100
0000
1010
0000
1000
0100
0010
0000
,  // measure 14
2200
3300
0022
0033
,  // measure 15
0001
0100
0000
0000
0010
0000
0000
0010
1000
0000
0100
0000
0010
0000
0100
0000
,  // measure 16
2000
0000
0010
0000
0100
0000
0010
3000
,  // measure 17
0202
0000
0303
0000
1000
0010
0100
0000
,  // measure 18
0220
0330
0202
0303
,  // measure 19
2002
0000
0000
3003
,  // measure 20
1000
0100
0010
0001
0100
0010
0100
0000
,  // measure 21
0010
0100
0010
1000
0100
0010
0001
0000
,  // measure 22
0001
0010
0001
0100
0001
0010
0100
0000
,  // measure 23
0100
0010
0001
1000
0100
0000
0110
0000
,  // measure 24
0000
0000
0001
0000
1000
0000
0001
0100
0000
0001
0100
0000
0010
0000
1000
0000
,  // measure 25
0000
0000
0100
0000
1000
0000
0100
1000
0000
0100
1000
0000
0100
0000
0010
0000
,  // measure 26
0000
0000
0001
0000
1000
0000
0010
1000
0000
0010
1000
0000
0001
0000
0100
0000
,  // measure 27
0000
0000
0001
0000
0010
0000
0001
1000
0000
0001
0100
0000
0001
0000
0000
0000
,  // measure 28
0001
0000
0100
0000
0010
0000
1000
0100
0000
0100
1000
0000
0010
0000
1000
0000
,  // measure 29
0100
0000
0010
0000
0001
0000
0100
0010
0000
0010
0100
0000
0001
0000
0100
0000
,  // measure 30
1000
0000
0100
0000
0001
0000
0010
0100
0000
0100
1000
0000
0010
0000
1000
0000
,  // measure 31
0100
0000
0010
0000
0001
0000
0100
0010
0000
0010
0100
0000
0100
0000
0000
0000
,  // measure 32
0000
0000
0001
0000
0100
0000
0010
1000
0000
1000
0100
0000
1000
0000
1100
0000
,  // measure 33
0000
0000
0100
0000
0010
0000
0100
1000
0000
1000
0010
0000
0100
0000
0110
0000
,  // measure 34
0000
0000
0001
0000
0100
0000
0001
0010
0000
0010
0001
0000
0100
0000
0101
0000
,  // measure 35
0000
0110
0000
1010
0000
1001
1001
0000
,  // measure 36
1000
0000
0100
0000
1000
0000
0010
0100
0000
0100
0010
0000
1000
0000
0100
0000
,  // measure 37
0001
0000
0100
0000
1000
0000
0001
0010
0000
0010
0001
0000
0100
0000
0010
0000
,  // measure 38
1000
0100
0000
0000
0010
0100
0000
0000
0001
0100
0000
0000
1000
0100
0000
0000
,  // measure 39
0010
0100
0000
0000
0010
0001
0000
0000
0100
0010
0100
0010
0100
0000
0010
0000
,  // measure 40
0020
1000
0001
0100
,  // measure 41
0001
0000
0030
0000
0000
1000
0000
0001
,  // measure 42
0100
0001
0000
0100
0000
0100
0000
0001
0000
0001
0000
0000
0000
0000
0000
0000
,  // measure 43
0000
0001
0001
0000
0100
0000
0010
1000
,  // measure 44
0100
0000
0010
0000
0100
0000
1000
0100
,  // measure 45
1000
0000
0001
0000
1000
0000
0001
0010
,  // measure 46
0001
0000
0100
0000
0010
0000
1000
0010
,  // measure 47
1000
1000
0001
0001
,  // measure 48
0000
0000
1000
0000
0100
0000
0100
1000
0000
1000
0001
0000
0100
0000
0101
0000
,  // measure 49
0000
0000
0010
0000
1000
0000
1000
0010
0000
0010
1000
0000
0100
0000
1100
0000
,  // measure 50
0000
0000
0010
0000
0100
0000
0100
0010
0000
0010
0001
0000
0100
0000
0011
0000
,  // measure 51
0000
0000
0001
0000
1000
0000
0001
1000
0000
0001
1000
0000
0001
1000
0001
0000
,  // measure 52
1000
0000
0100
0000
0010
0000
0100
0000
0000
0000
0000
1000
0000
0100
0010
0000
,  // measure 53
0001
0000
0100
0000
0100
0000
0010
0000
1000
0000
0000
1000
0000
0010
1000
0000
,  // measure 54
0100
0000
0100
0000
0010
0000
0001
0000
1000
0000
0000
1000
0000
0100
0010
0000
,  // measure 55
0001
0000
0001
0000
0001
0000
0000
0000
0010
0000
0000
0010
0000
0000
0100
0000
,  // measure 56
1000
0000
0001
0000
0100
0000
0001
0100
0000
0100
0001
0000
1000
0000
0001
0000
,  // measure 57
0010
0000
0001
0000
1000
0000
0100
1000
0000
1000
0100
0000
1000
0000
0001
0000
,  // measure 58
0100
0000
0001
0000
1000
0000
0100
0001
0000
0001
0100
0000
1000
0000
0001
0000
,  // measure 59
0010
0000
0001
0000
1000
0000
0010
1000
0000
0001
1000
0000
0001
2000
0200
0000
,  // measure 60
0000
0000
0000
3300
;
