#TITLE:Crazy Train;
#SUBTITLE:;
#ARTIST:Yuzo Koshiro feat. GrooveMaster303;
#TITLETRANSLIT:;
#SUBTITLETRANSLIT:;
#ARTISTTRANSLIT:;
#GENRE:;
#CREDIT:;
#BANNER:crazytrainbn.png;
#BACKGROUND:crazytrain.png;
#LYRICSPATH:;
#CDTITLE:;
#MUSIC:crazytrain.ogg;
#OFFSET:-0.061263;
#SAMPLESTART:39.534222;
#SAMPLELENGTH:11.479988;
#SELECTABLE:YES;
#BPMS:0.000000=170.020004
;
#STOPS:
;
#BGCHANGES:;
#KEYSOUNDS:;
#ATTACKS:;

//---------------dance-single - C. Picardy----------------
#NOTES:
     dance-single:
     :
     Beginner:
     1:
     0.113408,0.140192,0.084453,0.126680,0.000000,69.000000,10.000000,15.000000,0.000000,0.000000,0.000000,0.113408,0.140192,0.084453,0.126680,0.000000,69.000000,10.000000,15.000000,0.000000,0.000000,0.000000:
// measure 0
0000
0000
0000
0000
,  // measure 1
0000
0000
0000
0000
,  // measure 2
0000
0000
0000
0000
,  // measure 3
0000
0000
0000
0000
,  // measure 4
0010
0000
0000
0000
,  // measure 5
0000
0000
0000
0000
,  // measure 6
0100
0000
0000
0000
,  // measure 7
0000
0000
0000
0000
,  // measure 8
0001
0000
0000
0000
,  // measure 9
1000
0000
0000
0000
,  // measure 10
0010
0000
0000
0000
,  // measure 11
0100
0000
0000
0000
,  // measure 12
0001
0000
0000
0000
,  // measure 13
0001
0000
0000
0000
,  // measure 14
1000
0000
0000
0000
,  // measure 15
1000
0000
0000
0000
,  // measure 16
1001
0000
0000
0000
,  // measure 17
0010
0000
0000
0000
,  // measure 18
0010
0000
0000
0000
,  // measure 19
0100
0000
0000
0000
,  // measure 20
0100
0000
0000
0000
,  // measure 21
0001
0000
0000
0000
,  // measure 22
1000
0000
0000
0000
,  // measure 23
0010
0000
0000
0000
,  // measure 24
0110
0000
0000
0000
,  // measure 25
0001
0000
0000
0000
,  // measure 26
1000
0000
0000
0000
,  // measure 27
0010
0000
0000
0000
,  // measure 28
1001
0000
0000
0000
,  // measure 29
0110
0000
0000
0000
,  // measure 30
1001
0000
0000
0000
,  // measure 31
0110
0000
0000
0000
,  // measure 32
0001
0000
0000
0000
,  // measure 33
1000
0000
0000
0000
,  // measure 34
0010
0000
0000
0000
,  // measure 35
0100
0000
0000
0000
,  // measure 36
0001
0000
0000
0000
,  // measure 37
1000
0000
0000
0000
,  // measure 38
0010
0000
0000
0000
,  // measure 39
0100
0000
0000
0000
,  // measure 40
0001
0000
0000
0000
,  // measure 41
1000
0000
0000
0000
,  // measure 42
1000
0000
0000
0000
,  // measure 43
0010
0000
0000
0000
,  // measure 44
0001
0000
0000
0000
,  // measure 45
1000
0000
0000
0000
,  // measure 46
0010
0000
0000
0000
,  // measure 47
0100
0000
0000
0000
,  // measure 48
0020
0000
0000
0030
,  // measure 49
0000
0000
0000
0000
,  // measure 50
0002
0000
0000
0003
,  // measure 51
0000
0000
0000
0000
,  // measure 52
2000
0000
0000
3000
,  // measure 53
0000
0000
0000
0000
,  // measure 54
0200
0000
0000
0000
,  // measure 55
0300
0000
0000
0000
,  // measure 56
0002
0000
0003
0000
,  // measure 57
0010
0000
0000
0000
,  // measure 58
2000
0000
3000
0000
,  // measure 59
0100
0000
0000
0000
,  // measure 60
0020
0000
0030
0000
,  // measure 61
0001
0000
0000
0000
,  // measure 62
0002
0000
0000
0003
,  // measure 63
0000
0000
0000
0000
,  // measure 64
2002
0000
0000
0000
,  // measure 65
3003
0000
0000
0000
,  // measure 66
0220
0000
0000
0000
,  // measure 67
0330
0000
0000
0000
,  // measure 68
2000
0000
3000
0000
,  // measure 69
0002
0000
0000
0000
,  // measure 70
2000
0000
0000
0000
,  // measure 71
0000
0000
0000
0000
,  // measure 72
3003
0000
0000
0000
,  // measure 73
0010
0000
0000
0000
,  // measure 74
0100
0000
0000
0000
,  // measure 75
0001
0000
0000
0000
,  // measure 76
0110
0000
0000
0000
,  // measure 77
1001
0000
0000
0000
,  // measure 78
1000
0000
0000
0000
,  // measure 79
0001
0000
0000
0000
,  // measure 80
0010
0000
0000
0000
,  // measure 81
0100
0000
0000
0000
,  // measure 82
1000
0000
0000
0000
,  // measure 83
0001
0000
0000
0000
;

//---------------dance-single - C. Picardy----------------
#NOTES:
     dance-single:
     :
     Easy:
     3:
     0.269043,0.282073,0.118234,0.211133,0.000000,184.000000,14.000000,25.000000,0.000000,0.000000,0.000000,0.269043,0.282073,0.118234,0.211133,0.000000,184.000000,14.000000,25.000000,0.000000,0.000000,0.000000:
0000
0000
0000
0000
,
0000
0000
0000
0000
,
0000
0000
0000
0000
,
0000
0000
0000
0000
,
0010
0000
0000
0000
,
1000
0000
0000
0000
,
0001
0000
0000
0000
,
0100
0000
0000
0000
,
0100
0000
0001
0000
,
1000
0000
0010
0000
,
0100
0000
1000
0000
,
0010
0000
0001
0000
,
2000
3000
2000
3000
,
0002
0003
0002
0003
,
0020
0030
0020
0030
,
0200
0300
0200
0300
,
1000
0001
0100
0000
,
0001
1000
0100
0000
,
1000
0001
0010
0000
,
0100
1000
0001
0000
,
1000
0000
0010
0000
,
0100
0000
0001
0000
,
1000
0000
0100
0000
,
0010
0001
1000
0100
,
1001
0000
0100
0000
,
1001
0000
0010
0000
,
0110
0000
1000
0000
,
1001
0000
0001
0000
,
1000
0001
1000
0000
,
0001
1000
0100
0000
,
1000
0001
0001
0000
,
0010
0100
0100
0000
,
0100
0000
1000
0000
,
0010
0000
0100
0000
,
0001
0000
1000
0000
,
0010
0000
0100
0000
,
0200
0000
0300
0000
,
0002
0000
0003
0000
,
2000
0000
3000
0000
,
0020
0000
0030
1001
,
0100
0000
0010
1000
,
0000
0000
1000
0001
,
0000
0000
0100
0010
,
0000
0000
1000
0010
,
0000
0000
0100
0001
,
0000
0000
1000
0010
,
0100
0001
1000
0100
,
0010
0100
1000
0001
,
0100
0000
0001
0000
,
2000
0000
3000
0000
,
0010
0000
0100
0000
,
0002
0000
0003
0000
,
1000
0000
0001
0000
,
0020
0000
0030
0000
,
0100
0000
1000
0000
,
0020
0000
0030
0000
,
0200
0300
0010
0000
,
1000
1000
0001
0000
,
0020
0030
0001
0000
,
1000
0001
0010
0100
,
2000
3000
0010
0000
,
0200
0300
0001
0001
,
1000
0000
1000
0000
,
0010
0100
0001
1000
,
0200
0000
0300
0000
,
0010
0001
1000
0000
,
0002
0000
0003
0000
,
1000
0001
0100
0010
,
2000
0000
3000
0000
,
0200
0000
0300
0000
,
0020
0030
0001
0000
,
1000
0010
0100
0001
,
1000
0010
0100
0000
,
0001
1000
0001
0000
,
1000
0010
0100
0000
,
0001
1000
0100
1001
,
0001
0010
0100
0010
,
0001
1000
1000
0010
,
0100
0010
1000
0100
,
0010
0001
0100
0010
,
0110
0000
1001
0000
,
1100
0000
0110
0000
,
0011
0000
1001
0000
,
0101
0000
0110
0000
;

//---------------dance-single - C. Picardy----------------
#NOTES:
     dance-single:
     :
     Medium:
     6:
     0.491034,0.495106,0.304031,0.405375,0.000000,323.000000,36.000000,48.000000,0.000000,0.000000,0.000000,0.491034,0.495106,0.304031,0.405375,0.000000,323.000000,36.000000,48.000000,0.000000,0.000000,0.000000:
0000
0000
0000
0000
,
0000
0000
0000
0000
,
0001
0000
1000
0000
,
0100
0000
0010
0010
,
1001
0001
0100
0100
,
0010
1000
0001
0001
,
0010
0100
1000
1000
,
0001
1000
0010
0010
,
0101
0000
0000
0000
1000
0001
1000
0000
,
0010
0000
0000
0000
0010
0100
0010
0000
,
1000
0000
0000
0000
0100
1000
0100
0000
,
0010
0000
0000
0000
0001
0100
0001
0000
,
1000
0000
1000
0000
0001
0100
0001
0000
,
0010
0000
0010
0000
0001
0010
0001
0000
,
0100
0000
0100
0000
0010
0100
0010
0000
,
1000
0000
1000
0000
0001
1000
0001
0000
,
2000
0000
3000
0100
1000
0000
1100
0000
,
0200
0000
0300
0100
0010
0000
0110
0000
,
0020
0000
0030
0001
0010
0000
0011
0000
,
2002
0000
3003
0100
0010
0000
0010
0000
,
1000
0000
0001
0000
0100
0010
1000
0000
,
0100
0000
0010
0000
0001
0010
0100
0000
,
1000
0000
0010
0000
0100
0001
1000
0000
,
0100
0000
1000
0000
0010
1000
0100
0000
,
0210
0000
0001
0310
,
1020
0000
0100
1030
,
2100
0000
0001
3010
,
1200
0000
0001
1300
,
0001
1000
0100
0000
1000
0000
1000
0000
,
1000
0010
0100
0000
0001
0000
1000
0000
,
0001
0100
0010
0000
1000
0000
1000
0000
,
0100
0010
0001
0000
0010
0000
0010
0000
,
1001
0010
0100
0001
,
0110
1000
0010
0100
,
1001
0100
0010
0001
,
1100
0010
0100
1000
,
0101
0000
0000
0100
0001
0000
0000
0000
,
0110
0000
0000
0100
0010
0000
0000
0000
,
1010
0000
0000
1000
0010
0000
0000
0000
,
1100
0000
0000
0100
1000
0000
1100
0000
,
0100
0000
0010
0000
0001
0010
0100
0000
,
1000
0000
0010
0000
0100
0001
0010
0000
,
0100
0000
1000
0000
0010
1000
0010
0000
,
0100
0000
0001
0000
1000
0001
0100
0000
,
0001
0100
0001
0000
1000
0001
1000
0000
,
0100
1000
0100
0000
0010
0100
0010
0000
,
0001
0010
0001
0000
0001
1000
0100
0000
,
0100
1000
0010
0000
0010
1000
0001
0000
,
2002
0003
0020
0030
,
0200
0300
0002
3003
,
2002
3000
0020
0030
,
2000
3000
0200
0303
,
0022
0003
2000
3000
,
0200
0300
0002
0033
,
2020
3000
0002
0003
,
2000
3000
0200
0330
,
2000
0000
3000
0000
,
0001
1000
0100
0010
0000
0010
0000
0000
,
0002
0000
0003
0000
,
0100
0000
0001
0000
0100
0001
1000
0001
,
2000
0000
0000
3000
,
0100
0000
0000
0000
0010
0100
1000
0100
,
0020
0000
0030
0000
,
0002
0203
0302
0203
,
0320
0030
2000
3000
,
0002
0000
0003
0001
0000
0001
0000
0000
,
0002
0003
0020
0030
,
0200
0000
0300
0000
1000
0100
0010
0001
,
0200
0300
0020
0030
,
2000
0000
3000
0000
0001
0100
1000
0100
,
0002
0003
0020
0030
,
1100
1100
0110
0110
,
0011
0000
0001
0000
0100
0000
0010
0100
,
0010
0000
1000
0000
0100
0000
0010
0100
,
0010
0000
0001
0000
0010
0000
0001
0100
,
0010
0000
0010
0000
0100
0010
1000
0000
,
1100
0000
0010
0000
0101
0000
0010
0100
,
1000
0000
0110
0000
0101
0000
0010
0001
,
0100
0000
0110
0000
1010
0000
1000
0100
,
0010
0000
0011
0000
0001
0100
0010
0000
,
1000
0000
0001
0000
0100
0001
0100
0000
,
0010
0000
1000
0000
0010
1000
0010
0000
,
0100
0000
0001
0000
1000
0100
0010
0000
,
0001
0000
1000
0000
0100
0010
1001
0000
;

//---------------dance-single - C. Picardy----------------
#NOTES:
     dance-single:
     :
     Hard:
     9:
     0.772142,0.707294,0.236469,0.312476,0.333590,575.000000,28.000000,37.000000,0.000000,0.000000,0.000000,0.772142,0.707294,0.236469,0.312476,0.333590,575.000000,28.000000,37.000000,0.000000,0.000000,0.000000:
0000
0000
0000
0000
,
0000
0000
0000
0000
,
1000
0100
0000
1000
0010
0100
0000
0001
,
1000
0100
0000
0100
0010
0000
0011
0000
,
1001
0000
0000
0001
0100
0000
0010
0000
1000
0000
0100
0000
1000
0000
0010
0000
,
0100
0000
0000
0001
0010
0000
0100
0000
0010
0000
0001
0000
0100
0000
0010
0000
,
1000
0000
0000
1000
0100
0000
0010
0000
0100
0000
1000
0000
0010
0000
0100
0000
,
0001
0000
0000
0001
0010
0000
0001
0000
0100
0000
0010
0000
0100
0000
0000
0000
,
0101
0000
1000
0000
0001
0100
0010
1000
,
0100
0000
0100
0010
0001
0010
0100
1000
,
0010
0000
0010
0100
0001
0010
0100
0010
,
0001
0000
0001
0100
1000
0100
0001
0000
,
0010
0000
0100
0000
1000
0000
0001
0000
0100
0001
0100
0000
0010
0000
1000
0000
,
0100
0000
1000
0000
0010
0000
0100
0000
0001
0100
0001
0000
1000
0000
0001
0000
,
0010
0000
0001
0000
1000
0000
0100
0000
1000
0100
1000
0000
0100
0000
0010
0000
,
0001
0000
0010
0000
1000
0000
0010
0000
0100
0010
0100
0000
0010
0000
0001
0000
,
2000
0000
0000
0000
3000
0000
0010
0000
0100
0000
0001
0000
0010
0001
0010
0000
,
0002
0000
0000
0000
0003
0000
1000
0000
0100
0000
1000
0000
0010
1000
0010
0000
,
0200
0000
0000
0000
0300
0000
0001
0000
0010
0000
0100
0000
0010
0001
0010
0000
,
0200
0000
0000
0000
0300
0000
0010
0000
0001
1000
0100
0000
0010
0000
0100
0000
,
1000
0000
0010
0000
0100
0000
0010
0000
1000
0010
1000
0000
0001
0000
0100
0000
,
0001
0000
0010
0000
0001
0000
0100
0000
0001
0100
0010
0000
1000
0000
0100
0000
,
0010
0000
0100
0000
1000
0000
0100
0000
0010
0100
1000
0000
0010
0000
0100
0000
,
0001
0000
0100
0000
1000
0000
0100
0000
0001
0100
0010
0000
1000
0000
0000
0000
,
0001
0100
0000
0101
0000
0000
0000
0000
0100
0000
0010
0000
1000
0000
0100
0000
,
1000
0100
0000
1100
0000
0000
0000
0000
1000
0000
0100
0000
0010
0000
0100
0000
,
1000
0010
0000
1010
0000
0000
0000
0000
0100
0000
0001
0000
0100
0000
0010
0000
,
0100
0001
0000
0101
0000
0000
0000
0000
0100
0000
0001
0000
0010
0000
0100
0000
,
0010
0001
0010
0000
0001
0000
0001
0000
0200
0000
0000
0000
0310
0000
0000
0000
,
1000
0010
1000
0000
0010
0000
0100
0000
0020
0000
0000
0000
1030
0000
0000
0000
,
0010
0100
0010
0000
1000
0000
1000
0000
0200
0000
0000
0000
0310
0000
0000
0000
,
0100
0010
0100
0000
1000
0000
1000
0000
0020
0000
0000
0000
0130
0000
0000
0000
,
0001
0100
0000
0000
0000
0000
0001
0000
0100
0000
0010
0000
0100
0000
0001
0000
,
1000
0100
0000
0000
0000
0000
0010
0000
0001
0000
1000
0000
0010
0000
0100
0000
,
0010
0100
0000
0000
0000
0000
0010
0000
0100
0000
0001
0000
0001
0000
0010
0000
,
0010
0100
0000
0000
0000
0000
0100
0000
0100
0000
1000
0000
1000
0000
0010
0000
,
0200
0000
0301
1000
0100
0000
1000
0000
,
0020
0000
0130
0010
0100
0000
0001
0000
,
0020
0000
0031
0100
0010
0000
1000
0000
,
0200
0000
2300
0000
3001
1000
1001
0000
,
0100
0000
0000
0000
0000
0000
0001
0000
0100
0001
0100
0001
0100
0000
0000
0000
,
0101
0000
0000
0000
0000
0000
0100
0000
0010
1000
0010
1000
0010
0000
0000
0000
,
1010
0000
0000
0000
0000
0000
1000
0000
0100
1000
0100
1000
0100
0000
0000
0000
,
1100
0000
0000
0000
0000
0000
0010
0000
0001
0010
0001
0010
0001
0000
0000
0000
,
0010
0000
0100
0000
0010
0000
0001
0000
0100
0001
0100
0001
0100
0000
0010
0000
,
1000
0000
0010
0000
0100
0000
0010
0000
1000
0010
1000
0010
1000
0000
0100
0000
,
1000
0000
0010
0000
1000
0000
0100
0000
0010
0100
0010
0100
0010
0000
0100
0000
,
1000
0000
0001
0000
0100
0000
0001
0000
1000
0001
1000
0001
1000
0000
0100
0000
,
1000
0010
1000
0001
0000
0100
0001
0010
,
0000
0100
1000
0010
0100
0010
1000
0100
,
0001
0100
1000
0010
0000
0100
0001
1000
,
0000
0001
0100
1000
0100
0001
0010
0000
,
1000
0010
0001
1000
0000
1000
0100
0001
,
0000
0001
0100
0010
0100
1000
0010
0000
,
0001
0010
1000
0100
0000
0100
0010
0001
,
0000
0001
0100
0010
0100
1000
0100
0001
,
0201
0000
0001
0001
0000
0001
0301
0000
,
0100
0010
0010
2000
0000
3002
0000
0103
,
0210
0000
1000
1000
0000
0010
0310
0000
,
0100
0001
0100
0000
0010
0000
1000
0000
0100
0000
1000
0000
0010
0000
0100
0001
,
0020
0000
0100
0100
0000
0100
0130
0000
,
0022
0000
0033
0000
1000
0010
0100
0010
,
2000
0000
0010
0010
0000
0010
3010
0000
,
2000
3020
0032
0023
,
1030
0010
0000
0000
1000
0010
0000
0000
0100
0001
0000
0000
0100
0001
0000
0000
,
0200
0320
2030
3200
0000
0310
0000
0000
,
0010
0100
0000
0000
0010
0100
0000
0000
0010
0001
0000
0000
0010
0001
0000
0000
,
1000
0100
0010
0000
0100
0000
1000
0000
0010
0000
1000
0000
0100
0000
0010
0100
,
1000
0100
0000
0000
1000
0100
0000
0000
0001
0100
0000
0000
0001
0100
0000
0000
,
0220
0000
0330
0000
0001
0010
0100
0010
,
0001
1000
0000
0000
0001
1000
0000
0000
0100
1000
0000
0000
0100
1000
0000
0000
,
0020
0230
0302
0023
,
0031
0000
0101
0000
0110
0000
1000
0010
,
1010
0000
0100
0000
0101
0000
0010
0001
,
0011
0000
0100
0000
1010
0000
1000
0100
,
1100
0000
0110
0000
0001
1000
1001
0000
,
0101
0000
0000
0001
0100
0000
0000
0100
0010
0000
0000
0010
1000
0000
0100
0000
,
0010
0000
0000
0010
0100
0000
0000
0100
1000
0000
0000
1000
0010
0000
0100
0000
,
0001
0000
0000
0001
0010
0000
0100
0000
0010
0000
0000
0010
0001
0000
0100
0000
,
0010
0000
1000
0000
0001
0101
0101
0000
,
0001
0000
1000
0000
0001
0000
0100
0000
0001
1000
0100
0000
1000
0000
0001
0000
,
1000
0000
0010
0000
0100
0000
0001
0000
1000
0001
0100
0000
0001
0000
1000
0000
,
0010
0000
1000
0000
0001
0000
1000
0000
0010
0100
0001
0000
0010
0000
0100
0000
,
2000
0000
3002
0000
1003
1001
1000
0000
;

//---------------dance-single - C. Picardy----------------
#NOTES:
     dance-single:
     :
     Challenge:
     11:
     1.000000,1.000000,0.810749,0.979655,0.890980,726.000000,96.000000,116.000000,76.000000,0.000000,0.000000,1.000000,1.000000,0.810749,0.979655,0.890980,726.000000,96.000000,116.000000,76.000000,0.000000,0.000000:
0000
0000
0000
0000
,
0000
0000
0000
0000
,
02M1
0001
00M1
0001
00M1
0001
00M1
0001
,
03M1
0000
0000
1000
2002
3003
2002
3003
,
0220
0000
0330
0010
1000
0000
0100
0000
0010
0000
0001
0000
0100
0000
0010
0000
,
2020
0000
3030
0100
0001
0000
0010
0000
0100
0000
0010
0000
0001
0000
0100
0000
,
0220
0000
0330
0100
1000
0000
0100
0000
0010
0000
1000
0000
0100
0000
0010
0000
,
0022
0000
0033
1000
0100
0000
0010
0000
0110
0000
0000
0000
0011
0000
0000
0000
,
2002
0000
3003
0000
0001
0000
1000
0000
0100
1000
0100
1000
0100
1000
0100
0000
,
0020
0000
0000
0000
0031
0000
0100
0000
0010
0100
0010
0100
0010
0100
0010
0000
,
0200
0000
0000
0000
0310
0000
0100
0000
0001
0010
0001
0010
0001
0010
0001
0000
,
2000
0000
0000
0000
3100
0000
0010
0000
0100
0010
0100
0010
0100
0010
0100
0000
,
1000
0000
0100
0000
0010
0000
0100
0000
1000
0001
1000
0001
1000
0001
1000
0000
,
0100
0000
0010
0000
0001
0000
0010
0000
0100
1000
0100
1000
0100
1000
0100
0000
,
1000
0000
0010
0000
0100
0000
0010
0000
1000
0010
1000
0010
1000
0010
1000
0000
,
0100
0000
1000
0000
0010
0000
0100
0000
0001
0100
0001
0100
0001
0100
0001
0000
,
0202
0000
0000
0000
M303
0000
0100
0000
M001
0010
0100
0010
M001
0010
0100
0000
,
2000
0000
0MMM
0000
3000
0000
0010
0000
1000
0001
0100
0010
0100
0001
0100
0000
,
M002
0000
0000
0000
MMM3
0000
1000
0000
0100
0010
0100
1000
0100
0010
0001
0000
,
M200
0000
0000
0000
M300
0000
0010
0000
M100
0001
0010
0100
1000
0010
010M
0000
,
1000
0000
010M
0000
1010
0000
0100
0000
0001
0100
0010
1000
0010
0100
0001
0000
,
MM10
0000
0001
0000
0101
0000
0010
0000
100M
0010
0100
0010
100M
0010
0100
0000
,
MM01
0000
0010
0000
011M
0000
1000
0000
001M
1000
0100
0010
1000
0010
0001
0000
,
M100
0000
0010
0000
0101
0000
1001
0000
1000
0001
0100
0010
1000
0100
0010
0001
,
0100
0001
0000
0101
0000
0000
0000
0100
0010
0000
1000
0000
1010
0000
0100
0000
,
0010
0100
0000
0110
0000
0000
0000
0010
1000
0000
1100
0000
0100
0000
0110
0000
,
0010
0001
0000
1001
0000
0000
0000
0001
0100
0000
0110
0000
1000
0000
1001
0000
,
1000
0010
0000
1010
0000
0000
0000
0100
0010
0000
1010
0000
1001
0000
0000
0000
,
1000
0100
1000
0000
0100
0000
0110
0000
0022
0000
0000
0033
0010
0000
0100
0000
,
1000
0010
0100
0000
0001
0000
1001
0000
0202
0000
0000
0303
0010
0000
1000
0000
,
0100
1000
0010
0000
1000
0000
1100
0000
0220
0000
0000
0330
0001
0000
0011
0000
,
0100
0001
1000
0000
0100
0000
0110
0000
2002
0000
0000
3003
0101
0000
0100
0000
,
0010
1000
0000
1010
0000
0000
0100
0000
0001
0010
0100
1000
0010
0100
0001
0010
,
0100
1000
0000
1010
0000
0000
0100
0000
0001
1000
0100
0010
0100
1000
0001
0100
,
0010
0100
0000
0110
0000
0000
0100
0000
0001
0100
0010
1000
0010
0100
0001
1000
,
0001
0100
0000
1001
0000
0000
1000
0000
0100
0010
0001
0010
0100
1000
0100
0010
,
0002
0000
M200
0003
0020
0300
M20M
0030
0020
0300
M20M
0030
0020
0300
M002
0030
,
0M20
0003
M002
0030
0M20
0003
2000
0030
0M2M
3000
2000
0030
020M
3000
20M0
0300
,
020M
3000
20M0
0300
020M
3000
0020
0300
M20M
0030
0020
0300
M002
0030
0200
0003
,
M020
0300
020M
0030
2000
0300
020M
3000
0020
0300
2000
3030
2002
0000
3MM3
0000
,
0010
0100
0000
0010
0000
1000
0000
0000
0100
0010
0001
0010
0100
1000
0010
1000
,
0100
0010
0000
0001
0000
1000
0000
0000
0010
0100
0001
0010
0100
0010
0001
0100
,
0010
1000
000M
0100
0000
1000
000M
0000
0010
1000
010M
1000
0010
1000
0100
0010
,
0001
0100
0000
0001
0000
0100
0000
0000
0010
1000
0001
0100
0010
1000
0100
0010
,
0001
1000
0100
0000
1100
0000
0110
0000
0001
0010
0100
1000
0100
0010
0100
1000
,
0010
0100
0001
0000
M101
0000
0011
0000
M001
0010
0001
0100
0010
1000
0100
0010
,
0001
0100
0010
0000
0101
0000
1001
0000
0010
0100
0001
0100
0010
1000
0001
0000
,
1000
0001
1000
0001
0100
0010
1000
0001
0100
0010
1000
0001
0100
0010
1000
0100
,
0010
0001
M010
0100
0010
0001
M000
0100
0000
0000
0010
0000
1000
0010
0000
0000
,
0100
0010
0100
0001
0100
0010
1000
0000
010M
0000
1000
0010
000M
0000
0100
0000
,
0100
0000
0001
0000
1000
0100
000M
1000
0000
0000
001M
0000
0010
0100
000M
0000
,
0010
1000
0010
0100
0001
1000
0100
0000
0010
0000
0001
0010
0000
0000
0100
0000
,
1100
0000
0010
0000
0100
0001
0000
1000
0000
0000
0100
0000
1000
0001
0000
0000
,
1000
0001
0100
0010
1000
0000
0001
0100
0010
0000
1000
0010
0000
0000
0100
0000
,
0101
0000
0001
0000
1000
0100
0000
0010
0000
0000
0100
0000
0010
0001
0000
0000
,
0100
1000
0100
0010
0100
1000
0010
0100
0001
0000
0001
0100
0000
0000
0001
0000
,
0201
0000
0001
0300
0100
0010
0000
1000
0000
0000
0010
0000
0200
0010
0000
0300
,
0002
0000
0200
0003
0020
0300
2000
0030
0000
3000
0002
0000
MMM0
0000
0003
0000
,
1020
0000
1000
0030
1000
0010
0000
0100
0000
0001
0010
0000
2002
0000
3003
0000
,
0002
0203
0320
0030
0100
0000
0010
0000
1000
0000
0100
0000
0001
0000
0100
0020
,
0002
0000
0033
0100
0010
0000
0200
0000
0000
0000
0001
0300
0101
0000
0000
0002
,
2000
0000
3003
M00M
0001
0100
0010
0100
,
1000
0000
0100
0000
0010
0100
0000
0001
0000
0010
0100
0000
1100
0000
0000
0100
,
0020
0000
0000
0030
0022
0000
0000
0033
2002
0000
0000
3003
0202
0000
0000
0303
,
0220
0000
0300
0130
0010
0000
0101
0000
0000
0000
0001
0000
2000
0200
0000
3300
,
0020
0230
0320
2030
3000
0220
0000
0330
,
02M2
0000
00M0
0000
00M0
0000
03M3
0M0M
,
0001
0100
0010
0000
1000
0000
0101
0000
0200
0000
0310
0000
0110
0000
0010
2000
,
0002
0000
0000
0000
0000
0000
0000
0000
0000
0000
0000
0000
0000
0000
0000
0000
0000
0000
0000
0000
0000
0000
0000
0000
0000
0000
0000
0000
0000
0000
0000
0000
0000
0000
0000
0000
3003
0000
0000
0000
0000
0000
0000
0000
0000
0000
0000
0200
,
2000
0000
0000
0000
0000
0000
0000
0000
0000
0000
0000
0000
3300
0000
0000
0000
0000
0000
0000
0000
0000
0000
0000
0200
0020
0000
0000
0000
0300
0000
0031
0000
0000
0000
0000
0000
0100
0000
0000
0000
0000
0000
0110
0000
0000
0000
0000
0000
,
2020
0000
0000
0000
0000
0000
0030
0000
0000
3100
0000
0000
1000
0000
0000
0000
0000
0000
2020
0000
0000
0000
0000
0000
3030
0000
0000
0100
0000
0000
0001
0000
0000
0000
0000
0000
0022
0000
0000
0000
0000
0000
0033
0000
0000
0000
0000
0001
,
1000
0000
0000
0000
0000
0000
0000
0000
0000
0000
0000
0001
0100
0000
0000
0000
0000
0000
0000
0000
0000
0000
0000
0010
0100
0000
0000
0000
0000
0000
0000
0000
0000
0000
0000
0010
1000
0000
0000
0000
0000
0000
0000
0000
0000
0000
0000
0000
,
1001
0000
0101
0000
0001
0100
0010
0110
,
1010
0000
0101
0000
0001
0010
0100
0110
,
0011
0000
0101
0000
0100
0010
1010
1000
,
0101
0000
0110
0000
0010
1000
1001
0000
,
1100
1000
1001
1000
1100
1000
1001
1000
,
1100
0100
0110
0100
1100
0100
0110
0010
,
0011
0010
0110
0010
0011
0010
0110
0010
,
0011
0000
1100
0000
1000
0201
0002
0303
,
0001
0000
1000
0000
0001
0000
0100
0000
0001
0100
0001
0100
0001
0100
0001
0000
,
1000
0000
0010
0000
0100
0000
0001
0000
1000
0001
1000
0001
1000
0001
1000
0000
,
0010
0000
0100
0000
0001
0000
0011
0000
0001
0010
0100
1000
0100
0010
0001
0000
,
0100
0000
0001
0000
1000
0000
0010
0000
1000
0010
0100
0010
2000
0000
3000
0000
;
