#TITLE:Control;
#SUBTITLE:(Insturmental);
#ARTIST:Traci Lords;
#TITLETRANSLIT:;
#SUBTITLETRANSLIT:;
#ARTISTTRANSLIT:;
#GENRE:;
#CREDIT:;
#BANNER:controlbn.png;
#BACKGROUND:controlbg.png;
#LYRICSPATH:;
#CDTITLE:;
#MUSIC:control.ogg;
#OFFSET:0.012467;
#SAMPLESTART:23.833323;
#SAMPLELENGTH:12.000000;
#SELECTABLE:YES;
#BPMS:0.000000=140.699997
;
#STOPS:
;
#BGCHANGES:16.000=lightningcloud.mp4=1.000=1=1=1=StretchRewind==CrossFade==,
48.000=tracyred.png=1.000=1=0=1===CrossFade==,
50.000=lightningcloud.mp4=1.000=1=0=1===CrossFade==,
52.000=tracyred.png=1.000=1=0=1===CrossFade==,
54.000=lightningcloud.mp4=1.000=1=0=1=SongBgWithMovieViz==CrossFade==,
56.000=flash=1.600=0=0=1=====,
56.250=traintunnel.mp4=1.000=0=1=1=StretchRewind====,
88.000=flash=1.600=0=0=1=====,
88.250=traintunnel.mp4=1.000=0=0=1=SongBgWithMovieViz====,
116.000=traintunnel.mp4=1.000=1=0=1===CrossFade==,
120.000=flash=1.600=0=0=1=====,
120.250=lightninghell.mp4=1.000=0=1=1=StretchRewind====,
152.000=flash=1.600=0=0=1=====,
152.250=lightningcloud.mp4=1.000=0=1=1=StretchRewind====,
182.000=traciblack.png=1.000=0=0=1===CrossFade_Faster==,
184.000=flash=1.600=0=0=1=====,
184.250=traintunnel.mp4=1.000=0=1=1=StretchRewind====,
212.000=traintunnel.mp4=1.000=1=0=1=SongBgWithMovieViz==CrossFade==,
216.000=flash=1.600=0=0=1=====,
216.250=lightninghell.mp4=1.000=0=1=1=StretchRewind====,
232.000=flash=1.600=0=0=1=====,
232.250=lightninghell.mp4=1.000=0=0=1=====,
236.000=flash=1.600=0=0=1=====,
236.250=lightninghell.mp4=1.000=0=0=1=====,
240.000=flash=1.600=0=0=1=====,
240.250=lightninghell.mp4=1.000=0=0=1=====,
244.000=flash=1.600=0=0=1=====,
244.250=lightninghell.mp4=1.000=0=0=1=====,
245.000=flash=1.600=0=0=1=====,
245.250=lightninghell.mp4=1.000=0=0=1=====,
246.000=flash=1.600=0=0=1=====,
246.250=lightninghell.mp4=1.000=0=0=1=====,
248.000=lightningcloud.mp4=1.000=0=0=0=StretchNoLoop==CrossFade_Fastest==,
252.000=traintunnel.mp4=1.000=0=0=0=StretchNoLoop==CrossFade_Fastest==,
256.000=lightningcloud.mp4=1.000=0=0=1===CrossFade_Fastest==,
260.000=traintunnel.mp4=1.000=0=0=1===CrossFade_Fastest==,
264.000=lightningcloud.mp4=1.000=0=0=1===CrossFade_Fastest==,
268.000=traintunnel.mp4=1.000=0=0=1===CrossFade_Fastest==,
272.000=lightningcloud.mp4=1.000=0=0=1===CrossFade_Fastest==,
276.000=traintunnel.mp4=1.000=0=0=1===CrossFade_Fastest==,
280.000=lightningcloud.mp4=1.000=0=0=1=SongBgWithMovieViz==CrossFade_Fastest==,
282.000=controlbg.png=1.000=1=0=1===CrossFade==,
99999=-nosongbg-=1.000=0=0=0 // don't automatically add -songbackground-
;
#KEYSOUNDS:;
#ATTACKS:;

//---------------dance-single - C. Picardy----------------
#NOTES:
     dance-single:
     :
     Beginner:
     1:
     0.092061,0.142752,0.040786,0.000000,0.000000,79.000000,74.000000,5.000000,0.000000,0.000000,0.000000,0.092061,0.142752,0.040786,0.000000,0.000000,79.000000,74.000000,5.000000,0.000000,0.000000,0.000000:
0000
0000
0000
0000
,
0000
0000
0000
0000
,
0000
0000
0000
0000
,
0000
0000
0000
0000
,
1000
0000
0000
0000
,
0000
0000
0000
0000
,
0001
0000
0000
0000
,
0000
0000
0000
0000
,
1000
0000
0000
0000
,
0000
0000
0000
0000
,
0010
0000
0000
0000
,
0000
0000
0000
0000
,
0100
0000
0000
0000
,
0000
0000
0000
0000
,
0010
0000
0000
0000
,
1000
0000
0000
0000
,
0001
0000
0000
0000
,
0100
0000
0000
0000
,
0010
0000
0000
0000
,
1000
0000
0000
0000
,
0001
0000
0000
0000
,
0010
0000
0000
0000
,
1001
0000
1000
0000
,
1000
0000
0000
0000
,
0001
0000
0001
0000
,
0001
0000
0000
0000
,
0100
0000
0100
0000
,
0100
0000
0000
0000
,
0010
0000
0010
0000
,
0010
0000
0000
0000
,
0100
0000
0000
0000
,
0010
0000
0000
0000
,
0100
0000
0000
0000
,
0010
0000
0000
0000
,
1000
0000
0000
0000
,
0001
0000
0000
0000
,
1000
0000
0000
0000
,
0001
0000
0000
0000
,
1001
0000
0000
0000
,
0100
0000
0000
0000
,
0010
0000
0000
0000
,
0100
0000
0000
0000
,
0010
0000
0000
0000
,
1000
0000
0000
0000
,
0001
0000
0000
0000
,
1000
0000
0000
0000
,
1001
0000
0001
0000
,
0001
0000
0000
0000
,
1000
0000
1000
0000
,
1000
0000
0000
0000
,
0010
0000
0010
0000
,
0010
0000
0000
0000
,
0100
0000
0100
0000
,
0100
0000
0000
0000
,
0001
0000
0000
0000
,
1000
0000
0000
0000
,
0100
0000
0000
0000
,
0010
0000
0000
0000
,
0001
0000
0000
0000
,
0010
0000
0000
0000
,
0100
0000
0000
0000
,
1000
0000
0000
0000
,
1001
0000
0001
0000
,
0001
0000
0000
0000
,
1000
0000
1000
0000
,
1000
0000
0000
0000
,
0010
0000
0010
0000
,
0010
0000
0000
0000
,
0100
0000
0100
0000
,
0100
0000
0000
0000
,
1001
0000
0000
0000
;

//---------------dance-single - C. Picardy----------------
#NOTES:
     dance-single:
     :
     Easy:
     4:
     0.285505,0.402561,0.252875,0.252875,0.000000,245.000000,214.000000,31.000000,31.000000,0.000000,0.000000,0.285505,0.402561,0.252875,0.252875,0.000000,245.000000,214.000000,31.000000,31.000000,0.000000,0.000000:
0000
0000
0000
0000
,
0000
0000
0000
0000
,
0000
0000
0000
0000
,
0000
0000
0000
0000
,
1000
0000
1000
0000
,
0001
0000
0001
0000
,
0100
0000
0100
0000
,
0010
0000
0010
0000
,
1000
0000
0001
0000
,
0100
0000
0010
0000
,
1000
0000
0100
0000
,
0010
0000
0001
0000
,
0200
0000
0000
0000
,
0000
0000
0000
0300
,
1001
1000
0001
0001
,
1000
0001
0100
0010
,
0100
0100
0010
1000
,
0001
0000
0100
0100
,
1001
0010
0100
0100
,
0010
0100
0001
0001
,
1000
0001
1000
1000
,
0001
0000
0010
0010
,
0100
1001
0010
1001
,
0100
0010
1000
0001
,
0010
1001
0100
1001
,
0010
1000
0100
0010
,
0100
0110
0010
0110
,
1000
0001
0100
0010
,
1000
1100
0001
0101
,
1000
0100
0010
0001
,
2002
3003
0100
0010
,
2002
3003
0001
1000
,
0220
0330
1000
0001
,
0220
0330
1000
1000
,
0002
0000
0010
1000
,
2003
0000
0100
0010
,
3020
0000
1000
0100
,
0230
0000
0010
0301
,
2000
0000
3002
0000
,
0203
0000
0302
0000
,
0023
0000
0032
0000
,
2003
0000
3200
0000
,
2300
0000
3200
0000
,
0302
0000
0203
0000
,
2300
0000
3020
0000
,
0032
0000
0013
1000
,
1001
0100
0010
0010
,
0100
1000
0001
0001
,
0100
0010
1000
1000
,
0001
0000
0100
0100
,
1001
1000
0001
0100
,
0010
1000
0001
0001
,
0010
0100
1000
0001
,
0100
0000
0100
0100
,
0010
1001
0100
1001
,
0001
0100
0010
1000
,
0100
1001
0010
1001
,
0010
0100
1000
0001
,
0100
0110
0010
0110
,
1000
0001
0100
0010
,
0100
0110
0010
0110
,
1001
0110
2002
3003
,
0001
0100
0001
0100
,
0010
1000
0100
1000
,
0010
0100
0001
1000
,
0100
0010
0001
0001
,
1000
1100
0001
0101
,
0010
0100
1000
0001
,
1000
1010
0001
0011
,
1000
0001
0100
0010
,
2000
0000
3000
0000
;

//---------------dance-single - C. Picardy----------------
#NOTES:
     dance-single:
     :
     Medium:
     6:
     0.383392,0.434375,0.318134,0.106045,0.000000,329.000000,290.000000,39.000000,13.000000,0.000000,0.000000,0.383392,0.434375,0.318134,0.106045,0.000000,329.000000,290.000000,39.000000,13.000000,0.000000,0.000000:
0000
0000
0000
0000
,
0000
0000
0000
0000
,
0000
0000
0000
0000
,
0000
0000
0000
0000
,
1000
0001
1000
0001
,
0100
0010
0100
0010
,
1000
0010
1000
0010
,
0100
0001
0100
0001
,
1000
0100
0001
0100
,
1000
0010
0001
0010
,
1000
0001
0100
1000
,
0100
0001
0010
0100
,
2000
0000
3002
0000
,
0203
0000
0320
0030
,
1001
0000
0100
0000
0001
1000
0001
0000
,
0010
0100
1000
0010
,
1001
0000
0100
0000
0010
0000
0100
0010
,
0100
0000
0001
0001
,
1100
0000
0010
0000
0100
0001
0100
0000
,
0010
1000
0100
0010
,
0100
0000
1000
0000
0001
0000
0010
0001
,
0010
0000
0100
0010
,
1001
0000
0100
0000
0010
1000
0001
0000
,
0010
0000
0100
0000
1000
0100
0010
0000
,
0001
0000
0100
0000
0010
0000
1000
0010
,
0100
0000
0001
0001
,
1010
0000
0100
0000
0001
0100
1000
0000
,
0100
0000
0001
0000
1000
0100
0001
0000
,
0100
0000
1000
0000
0010
0000
0010
0100
,
0001
0000
1100
0101
,
1001
0010
0100
0001
,
1100
0001
1000
0010
,
0101
0010
0100
1000
,
0011
0000
1000
0000
0010
0100
0001
0000
,
0110
0000
1000
0000
0001
0000
1000
0100
,
1000
0000
0010
0000
0100
0000
0001
0010
,
0001
0000
1000
0000
0001
0000
1000
0010
,
1000
0001
0110
1010
,
1002
0000
0010
0000
1000
0000
0103
0001
,
0002
0000
0010
0000
1000
0000
0103
0010
,
2000
0000
0010
0000
0001
0000
3010
0100
,
0020
0000
1000
0000
0100
0000
1030
0001
,
0200
0000
0001
0000
1000
0000
0301
0010
,
0200
0000
0001
0000
1000
0000
0301
0100
,
0020
0100
0001
0130
,
1100
0101
1010
1001
,
0100
0010
0100
0001
,
1000
0100
0010
0100
,
1000
0000
0010
0000
0100
0000
0010
0100
,
0001
0000
1000
1000
,
0001
1000
0100
1000
,
0010
0100
0001
1000
,
0100
0000
0010
0000
0001
0000
1000
0100
,
1000
0000
0001
0100
,
0010
0000
1001
0000
1000
0100
0010
0000
,
0001
0000
1100
0000
0010
0100
0001
0000
,
1000
0000
0110
0000
0001
0100
0010
0000
,
1000
1100
0001
0001
,
0100
0000
1010
0000
0001
1000
0100
0000
,
0011
0000
1000
0000
0010
0100
0001
0000
,
0110
0000
1000
0000
0001
0100
0010
0000
,
1001
0110
1001
0100
,
0010
0000
0101
0000
0010
0100
1000
0000
,
0001
0000
1010
0000
0001
0100
1000
0000
,
0001
0000
0110
0000
1000
0100
0001
0000
,
0100
0000
0011
0000
1000
0100
0010
0000
,
0001
0000
0101
0000
0001
0010
1000
0000
,
0010
0000
0011
0000
1000
0010
0001
0000
,
0010
0000
1001
0000
0100
0010
1000
0000
,
0001
1100
0011
2010
,
0002
0000
0000
0000
,
3003
0000
0000
0000
;

//---------------dance-single - C. Picardy----------------
#NOTES:
     dance-single:
     :
     Hard:
     8:
     0.501090,0.492291,0.171303,0.016315,0.273269,430.000000,409.000000,21.000000,2.000000,0.000000,0.000000,0.501090,0.492291,0.171303,0.016315,0.273269,430.000000,409.000000,21.000000,2.000000,0.000000,0.000000:
0000
0000
0000
0000
,
0000
0000
0000
0000
,
0000
0000
0000
0000
,
0000
0000
0000
0000
,
0001
0000
1000
0000
0001
0000
1000
0010
,
1000
0000
0001
0000
1000
0000
0001
0010
,
0001
0000
1000
0000
0001
0000
1000
0100
,
1000
0000
0010
0000
0100
0000
0010
0100
,
0010
0000
1000
0000
0001
0000
0010
0100
,
1000
0000
0100
0000
0010
0000
0001
0100
,
0010
0000
1000
0000
0001
0000
0100
0010
,
1000
0000
0001
0000
1000
0000
0100
0010
,
0001
0000
0000
1000
0000
0000
0100
0000
0000
0000
0000
0000
1000
0000
0000
0000
,
0010
0000
0000
1000
0000
0000
0001
0000
0000
0000
0000
0000
0100
0000
0000
0000
,
1001
0000
0110
0000
1000
0100
0010
0100
,
1000
0100
0010
0100
1000
1000
0001
0001
,
0100
0000
0000
0100
0010
0000
0000
0100
0010
0000
1000
0000
0001
0000
0100
0000
,
0010
0000
0000
0000
1000
0000
0001
0100
0001
0000
0010
0000
0100
0000
0000
0000
,
0110
0000
1001
0000
0001
0100
0010
0100
,
0001
0100
0010
0100
0001
0001
0010
0010
,
0100
0000
0000
1000
0100
0000
0000
1000
0100
0000
0010
0000
0001
0000
0100
0000
,
0010
0000
0000
0000
1000
0000
0010
0100
0010
0000
1000
0000
0001
0000
0000
0000
,
0110
0000
0000
0000
1000
0000
0000
0010
1000
0000
0001
0000
0100
0000
0010
0000
,
1000
0000
0100
0000
0010
0000
0000
0100
0010
0000
0001
0000
0010
0000
0100
0000
,
0010
0000
0001
0000
0100
0000
0000
0001
0010
0000
0100
0000
0010
0000
0001
0000
,
0100
0000
0000
0000
0010
0000
1000
0010
1000
0000
0001
0000
0100
0000
0000
0000
,
1001
0000
0000
0000
0100
0000
0000
0100
0010
0000
1000
0000
0001
0000
0100
0000
,
0010
0000
1000
0000
0100
0000
0000
0010
0100
0000
1000
0000
0001
0000
0100
0000
,
0010
0000
0100
0000
0001
0000
0000
0010
0100
0000
0010
0000
0001
0000
0100
0000
,
0010
0000
0000
0000
1000
0000
0001
0100
0001
0000
0000
0000
1001
0000
0000
0000
,
0100
0001
0000
0000
0100
0000
0001
0000
0000
0000
0100
0000
0010
0000
1000
0000
,
0010
1000
0000
0000
0001
0000
1000
0000
0000
0000
0100
0000
1000
0000
0100
0000
,
0010
0100
0000
0000
0010
0000
0100
0000
0000
0000
1000
0000
0100
0000
0010
0000
,
0001
0000
0000
0100
0000
0000
0001
0000
1000
0000
1000
0000
1001
0000
0000
0000
,
4000
0000
0000
3040
0000
0000
0130
0001
,
0040
0000
0000
0034
0000
0000
0013
0100
,
4000
0000
0000
3004
0000
0000
0103
0010
,
4000
0000
0000
0000
0400
0000
0000
3300
,
1000
0000
0000
0001
0000
0000
0100
0000
0000
0001
0000
0000
1000
0000
0100
0000
,
0010
0000
0000
0100
0000
0000
0010
0000
0000
0100
0000
0000
1000
0000
0010
0000
,
0100
0000
0000
0001
0000
0000
0100
0000
0000
0010
0000
0000
0100
0000
0001
0000
,
1000
0000
0000
0010
0000
0000
0100
0000
0000
0010
0000
0000
1000
0000
0001
0000
,
0010
0000
0000
0100
0000
0000
0010
0000
0000
0001
0000
0000
0100
0000
0010
0000
,
1000
0000
0000
0010
0000
0000
1000
0000
0000
0100
0000
0000
0010
0000
0100
0000
,
1000
0000
0000
0001
0000
0000
1000
0000
0000
0001
0000
0000
1000
0000
0001
0000
,
0100
0001
0000
0000
0100
0010
0000
0000
0100
0001
0000
0000
1000
0100
0000
0000
,
1001
0000
0110
0000
0001
0100
0010
1000
,
0000
1000
0000
0001
1000
1000
0100
0010
,
0010
0000
0011
0000
1000
0100
0010
0001
,
0000
0000
0001
1000
1000
0100
0010
0000
,
0110
0000
1001
0000
1000
0100
0010
0001
,
0000
0001
0000
1000
1000
0100
0010
0001
,
0001
0000
1100
0000
0001
0010
0100
1000
,
0000
0000
0001
0100
0100
0010
1000
0000
,
0110
0000
0000
0000
0001
0000
0000
0001
1000
0000
0100
0000
0010
0000
0100
0000
,
1000
0000
0000
0000
0001
0000
0000
0001
0010
0000
0100
0000
0010
0000
0001
0000
,
0100
0000
0000
0000
0010
0000
0000
1000
0010
0000
1000
0000
0100
0000
0010
0000
,
0001
0000
0000
0000
1000
0000
0100
1000
0100
0000
1000
0000
0001
0000
0000
0000
,
0110
0000
0000
0000
1000
0000
0000
0001
1000
0000
0100
0000
0010
0000
0000
0000
,
1001
0000
0000
0000
0100
0000
0000
0100
0010
0000
0100
0000
0001
0000
0000
0000
,
0110
0000
0000
0000
1000
0000
0000
1000
0001
0000
0010
0000
0100
0000
0000
0000
,
1100
0101
1100
0010
,
0100
0000
0000
0001
0000
0000
0100
0000
0000
0001
0000
0100
0001
0000
0100
0000
,
0010
0000
0000
1000
0000
0000
0010
0000
0000
1000
0000
0010
1000
0000
0100
0000
,
0010
0000
0000
0100
0000
0000
0010
0000
0000
0100
0000
1000
0100
0000
0010
0000
,
0001
0000
0000
1000
0000
0000
0001
0100
0001
0000
1000
0000
0010
0000
0000
0000
,
1000
0000
0000
0100
0000
0000
1000
0000
0000
0001
0000
1000
0001
0000
0100
0000
,
0010
0000
0000
1000
0000
0000
0001
0000
0000
0010
0000
0100
1000
0000
0001
0000
,
0100
0000
0000
0010
0000
0000
0100
0000
0000
0010
0000
1000
0001
0000
0100
0000
,
0010
0000
0000
1000
0000
0000
0001
1000
0100
0000
0010
0000
0002
0000
0020
0000
,
0000
0000
0000
0000
,
0033
0000
0000
0000
;

//---------------dance-single - C. Picardy----------------
#NOTES:
     dance-single:
     :
     Challenge:
     10:
     0.860010,0.845705,0.579166,0.154988,0.848356,738.000000,667.000000,71.000000,19.000000,20.000000,0.000000,0.860010,0.845705,0.579166,0.154988,0.848356,738.000000,667.000000,71.000000,19.000000,20.000000,0.000000:
// measure 0
0000
0000
0000
0000
,  // measure 1
0000
0000
0000
0000
,  // measure 2
0000
0000
0000
0000
,  // measure 3
0000
0000
0000
0000
,  // measure 4
1001
0000
0000
0100
0000
0000
0101
0000
0000
0001
0000
0000
1001
0000
0000
1000
0000
0100
1000
0000
0000
0010
0000
0000
,  // measure 5
0110
0000
0000
0010
0000
0000
1010
0000
0000
1000
0000
0000
1001
0000
0000
0001
0000
0100
0001
0000
0000
0010
0000
0000
,  // measure 6
0011
0000
0000
1000
0000
0000
1100
0000
0000
0001
0000
0000
0101
0000
0000
1000
0000
0010
0100
0000
0000
0001
0000
0000
,  // measure 7
0101
0000
0000
1000
0000
0000
1010
0000
0000
0010
0000
0000
0110
0000
0000
1000
0000
0001
1000
0000
0000
0100
0000
0000
,  // measure 8
1001
0000
0000
0010
0000
0000
0011
0000
0000
1000
0000
0000
1010
0000
0000
0100
0000
0001
0100
0000
0000
0010
0000
0000
,  // measure 9
1001
0000
0000
0100
0000
0000
0101
0000
0000
1000
0000
0000
1100
0000
0000
0001
0000
0010
0001
0000
0000
0100
0000
0000
,  // measure 10
0110
0000
0000
1000
0000
0000
1001
0000
0000
0100
0000
0000
0101
0000
0000
1000
0000
0010
0100
0000
0000
0010
0000
0000
,  // measure 11
1010
0000
0000
0001
0000
0000
0101
0000
0000
0001
0000
0000
0011
0000
0000
0100
0000
1000
0100
0000
0000
0010
0000
0000
,  // measure 12
0001
0000
0000
1000
0000
0000
0010
1000
0010
1000
0010
1000
0010
1000
0010
1000
,  // measure 13
0001
1000
0001
1000
0001
1000
0001
1000
0001
0010
0001
0010
0100
0000
0100
0000
,  // measure 14
0011
0000
0000
0100
0010
0000
0000
1000
0001
0000
0010
0000
0100
0000
1000
0000
,  // measure 15
0001
0100
0010
0000
1000
0100
0010
0000
0001
0000
0001
0000
1000
0000
0010
0100
,  // measure 16
0001
0000
1000
0010
1000
0000
0001
0100
0010
0000
0010
0000
1000
0000
1001
0000
,  // measure 17
0000
MMMM
0000
0000
0110
0000
1000
0001
0100
0000
0100
0000
1010
0000
0000
0000
,  // measure 18
1001
0000
0000
1000
0100
0000
0000
0010
0100
0000
1000
0000
0001
0000
0100
0000
,  // measure 19
0010
0100
0001
0000
0010
0100
1000
0000
0001
0000
0001
0000
0100
0000
0010
1000
,  // measure 20
0001
0000
1000
0010
0100
0000
0001
0010
0100
0000
1000
0000
0001
0000
1001
0000
,  // measure 21
1000
0100
1000
0100
1000
0100
1000
0100
0010
0001
0010
0001
0010
0001
0010
0001
,  // measure 22
1000
0000
0001
0000
0101
0000
1000
0010
0100
0000
0001
0000
0110
0000
1000
0000
,  // measure 23
0001
0000
0010
0000
0011
0000
1000
0100
0010
0000
0100
0000
1100
0000
0010
0000
,  // measure 24
0100
0000
1000
0000
1001
0000
0100
0010
1000
0000
0001
0000
0101
0000
1000
0000
,  // measure 25
0100
0000
0010
0000
0110
0000
0001
0010
0100
0000
0010
0000
0011
0000
1000
0000
,  // measure 26
0010
0000
0100
0000
0101
0000
1000
0010
0100
0000
0001
0000
1001
0000
0100
0000
,  // measure 27
0010
0000
1000
0000
1100
0000
0001
0010
0100
0000
0010
0000
0011
0000
1000
0000
,  // measure 28
0001
0000
0100
0000
1001
0000
0100
0010
0100
0000
0001
0000
0110
0000
1000
0000
,  // measure 29
0100
0000
0010
0000
0011
0000
1000
0100
0010
0000
0100
0000
1001
0000
MMMM
0000
,  // measure 30
1000
0010
1000
0010
0000
0000
1000
0001
0010
0001
0010
0001
0010
0001
0010
0000
,  // measure 31
0100
1000
0100
1000
0000
0000
0001
1000
0001
0100
0001
0100
0001
0100
0001
0000
,  // measure 32
0100
0010
0100
0010
0000
0000
1000
0001
1000
0100
1000
0100
1000
0100
1000
0000
,  // measure 33
0001
0010
0001
0100
0000
0000
0010
0000
1000
0000
0001
0000
0101
0000
1001
0000
,  // measure 34
1000
0100
0010
0001
0000
0000
1000
0100
0010
0001
0010
0100
1000
0100
0010
0001
,  // measure 35
0010
0100
1000
0001
0000
0000
1000
0100
0010
0100
1000
0100
0010
0001
0010
0100
,  // measure 36
1000
0001
0100
0010
0000
0000
1000
0010
0100
0001
0100
0010
1000
0010
0100
0001
,  // measure 37
0100
0010
1000
0001
0000
0000
1000
0000
0001
0010
0001
0010
0100
1000
0100
1000
,  // measure 38
0002
0000
0000
0200
0003
0000
2000
0300
0000
0002
3000
0010
1003
0000
0002
0000
,  // measure 39
0200
0000
0003
2000
0300
0000
0002
3000
0000
0020
0003
1000
0130
0000
0002
0000
,  // measure 40
2000
0000
0003
0020
3000
0000
0002
0030
0000
0200
0003
1300
0100
0000
0002
0000
,  // measure 41
2000
0000
0003
0200
3000
0000
0002
0300
0000
2000
0003
0010
3001
0000
0100
0000
,  // measure 42
0010
0000
0010
1000
0000
1000
0001
0000
0001
0100
0000
0100
0010
1000
0001
0100
,  // measure 43
0010
0000
0010
1000
0000
1000
0100
0000
0100
0010
0000
0010
0100
1000
0001
0100
,  // measure 44
0010
0000
0010
0100
0000
0100
0001
0000
0001
1000
0000
1000
0001
0100
0010
1000
,  // measure 45
0001
0010
0000
0000
01MM
1000
0000
0000
MM01
0010
0100
1000
0100
0010
0001
0000
,  // measure 46
0011
0000
0000
1000
0100
0000
0000
0010
0001
0000
1000
0000
0100
0000
0010
0000
,  // measure 47
0001
1000
0100
0000
0010
0100
1000
0000
0001
0000
0001
0000
0100
0000
0010
0000
,  // measure 48
1000
0000
0001
0100
0010
0000
0100
0001
1000
0000
0100
0000
0010
0000
0010
0000
,  // measure 49
0000
MMMM
0000
0000
0001
0000
1000
0100
1000
0000
0001
0000
0101
0000
0000
0000
,  // measure 50
1001
0000
0000
0100
0010
0000
0000
0100
0001
0000
1000
0000
0100
0000
0010
0000
,  // measure 51
0100
1000
0010
0000
0100
0001
1000
0000
0010
0000
0010
0000
0100
0000
0001
0000
,  // measure 52
1000
0000
0010
0100
0001
0000
1000
0010
0100
0000
0001
0000
1000
0000
0100
0000
,  // measure 53
0000
MMMM
0000
0000
0010
0000
0100
0010
0100
0000
0010
0000
1001
0000
0000
0000
,  // measure 54
0100
0000
0001
0000
0101
0000
1000
0010
0100
0000
0010
0000
1010
0000
0001
0000
,  // measure 55
1000
0000
0100
0000
0011
0000
1000
0100
0010
0000
0001
0000
0101
0000
1000
0000
,  // measure 56
0010
0000
0100
0000
1001
0000
0010
0100
1000
0000
0001
0000
0101
0000
1000
0000
,  // measure 57
0010
0000
0100
0000
1010
0000
0001
1000
0100
0000
0010
0000
0110
0000
0001
0000
,  // measure 58
1001
0000
0100
0000
0101
0000
0010
0001
0100
0000
0010
0000
1000
0000
0100
0000
,  // measure 59
1001
0000
1000
0100
0010
0000
0001
0100
0010
0000
1000
0000
1001
0000
0010
0000
,  // measure 60
1001
0000
0100
0000
1100
0000
0001
0100
0010
0000
1000
0000
1010
0000
0001
0000
,  // measure 61
1001
0000
1000
0000
1100
0000
0001
0100
0101
0000
1000
0000
1010
0000
0001
0000
,  // measure 62
0100
0000
0100
0010
0000
0010
1000
0000
1000
0001
0000
1000
0001
0100
0010
1000
,  // measure 63
0100
0000
0100
0010
0000
0010
0001
0000
0001
0100
0000
0100
0010
1000
0001
0100
,  // measure 64
0010
0000
0010
1000
0000
1000
0100
0000
0100
0010
0000
0010
0001
0010
0100
1000
,  // measure 65
0001
0000
0001
0100
0000
0100
0010
0000
0010
1000
0000
1000
0001
0100
0010
1000
,  // measure 66
0001
0000
0001
0100
0000
0100
1000
0000
1000
0100
0000
0100
0001
0100
1000
0100
,  // measure 67
0001
0000
0001
0010
0000
0010
1000
0000
1000
0010
0000
0010
0001
0010
1000
0010
,  // measure 68
0001
0000
0001
0100
0000
0100
0010
0000
0010
1000
0000
1000
0100
0001
0100
1000
,  // measure 69
0010
0000
0010
0001
0000
0001
0010
1000
0001
0100
1000
0100
0001
0010
0100
0000
,  // measure 70
4000
0004
0000
0000
0000
0000
0000
0000
0000
0000
0000
0000
0000
0000
0000
0000
,  // measure 71
0000
0000
3003
0000
;
