#TITLE:Computerliebe;
#SUBTITLE:;
#ARTIST:Blümchen;
#TITLETRANSLIT:;
#SUBTITLETRANSLIT:;
#ARTISTTRANSLIT:;
#GENRE:;
#CREDIT:;
#BANNER:computerliebebn.png;
#BACKGROUND:computerliebebg.png;
#LYRICSPATH:;
#CDTITLE:;
#MUSIC:computerliebe.ogg;
#OFFSET:-0.077553;
#SAMPLESTART:88.478096;
#SAMPLELENGTH:12.000000;
#SELECTABLE:YES;
#BPMS:0.000000=175.000000
;
#STOPS:
;
#BGCHANGES:6.000=computerliebe720.mp4=1.000=1=0=1===CrossFade==,
324.000=computerliebebg.png=1.000=1=0=1===CrossFade==,
99999=-nosongbg-=1.000=0=0=0 // don't automatically add -songbackground-
;
#KEYSOUNDS:;
#ATTACKS:;

//---------------dance-single - C. Picardy----------------
#NOTES:
     dance-single:
     :
     Beginner:
     1:
     0.108802,0.215200,0.070848,0.070848,0.000000,86.000000,78.000000,8.000000,8.000000,0.000000,0.000000,0.108802,0.215200,0.070848,0.070848,0.000000,86.000000,78.000000,8.000000,8.000000,0.000000,0.000000:
// measure 0
0000
0000
0000
0000
,  // measure 1
0000
0000
0000
0000
,  // measure 2
0000
0000
0000
0000
,  // measure 3
0000
0000
0000
0000
,  // measure 4
0000
0000
0000
0000
,  // measure 5
2000
0000
0000
0000
,  // measure 6
3000
0000
0000
0000
,  // measure 7
0002
0000
0000
0000
,  // measure 8
0003
0000
0000
0000
,  // measure 9
1000
0000
0000
0000
,  // measure 10
1000
0000
0000
0000
,  // measure 11
0001
0000
0000
0000
,  // measure 12
0001
0000
0000
0000
,  // measure 13
0100
0000
0000
0000
,  // measure 14
0100
0000
0000
0000
,  // measure 15
0020
0000
0000
0000
,  // measure 16
0030
0000
0000
0000
,  // measure 17
1000
0000
1000
0000
,  // measure 18
1000
0000
0000
0000
,  // measure 19
0001
0000
0001
0000
,  // measure 20
0001
0000
0000
0000
,  // measure 21
0100
0000
0100
0000
,  // measure 22
0100
0000
0000
0000
,  // measure 23
0020
0000
0030
0000
,  // measure 24
1000
0000
0001
0000
,  // measure 25
1000
0000
1000
0000
,  // measure 26
1000
0000
0000
0000
,  // measure 27
0001
0000
0001
0000
,  // measure 28
0001
0000
0000
0000
,  // measure 29
0010
0000
0010
0000
,  // measure 30
0010
0000
0000
0000
,  // measure 31
0200
0000
0000
0000
,  // measure 32
0300
0000
0000
0000
,  // measure 33
1001
0000
0000
0000
,  // measure 34
0000
0000
0000
0000
,  // measure 35
0000
0000
0000
0000
,  // measure 36
0000
0000
0000
0000
,  // measure 37
0100
0000
0000
0000
,  // measure 38
0010
0000
0000
0000
,  // measure 39
0100
0000
0000
0000
,  // measure 40
0010
0000
0000
0000
,  // measure 41
0001
0000
0000
0000
,  // measure 42
1000
0000
0000
0000
,  // measure 43
0001
0000
0000
0000
,  // measure 44
1000
0000
0000
0000
,  // measure 45
0001
0000
0000
0000
,  // measure 46
1000
0000
0000
0000
,  // measure 47
0100
0000
0000
0000
,  // measure 48
0010
0000
0000
0000
,  // measure 49
0001
0000
0000
0000
,  // measure 50
1000
0000
0000
0000
,  // measure 51
0010
0000
0000
0000
,  // measure 52
0100
0000
0000
0000
,  // measure 53
1001
0000
0000
0000
,  // measure 54
1001
0000
0000
0000
,  // measure 55
0110
0000
0000
0000
,  // measure 56
0110
0000
0000
0000
,  // measure 57
0001
0000
0000
0000
,  // measure 58
0001
0000
0000
0000
,  // measure 59
1000
0000
0000
0000
,  // measure 60
1000
0000
0000
0000
,  // measure 61
0100
0000
0000
0000
,  // measure 62
0100
0000
0000
0000
,  // measure 63
0002
0000
0000
0000
,  // measure 64
0003
0000
0000
0000
,  // measure 65
1001
0000
0000
0000
,  // measure 66
1000
0000
0000
0000
,  // measure 67
0001
0000
0000
0000
,  // measure 68
1000
0000
0000
0000
,  // measure 69
0010
0000
0000
0000
,  // measure 70
0100
0000
0000
0000
,  // measure 71
2000
0000
3000
0000
,  // measure 72
1001
0000
0000
0000
,  // measure 73
1000
0000
1000
0000
,  // measure 74
1000
0000
0000
0000
,  // measure 75
0001
0000
0001
0000
,  // measure 76
0001
0000
0000
0000
,  // measure 77
0100
0000
0100
0000
,  // measure 78
0100
0000
0000
0000
,  // measure 79
0200
0000
0000
0000
,  // measure 80
0300
0000
0000
0000
,  // measure 81
1001
0000
0000
0000
;

//---------------dance-single - C. Picardy----------------
#NOTES:
     dance-single:
     :
     Challenge:
     10:
     0.738842,1.190909,0.575639,0.487079,0.199260,584.000000,519.000000,65.000000,55.000000,78.000000,10.000000,0.738842,1.190909,0.575639,0.487079,0.199260,584.000000,519.000000,65.000000,55.000000,78.000000,10.000000:
0000
0000
0000
0000
,
0000
0000
0000
0000
,
0000
0000
0000
0000
,
0000
0000
0000
0000
,
0000
0000
0000
0000
0002
0000
2000
0003
,
020M
3000
M002
0300
0200
0003
2000
030M
,
0020
3M00
0000
M000
0002
0030
0020
0003
,
2000
000M
0000
0000
0030
0000
00M0
0000
,
0200
0000
0010
3300
,
10M0
1M00
11M0
1M00
,
11M0
0020
0100
0130
,
01M1
0M01
01M1
010M
,
01M1
0000
0002
0000
1000
1000
1000
1003
,
0001
0010
0001
0010
0100
1000
0100
1000
,
0001
0100
0001
0100
0010
1000
0010
1000
,
0001
0010
0001
0010
0001
0010
0001
0010
0100
1000
0100
1000
0100
1000
0100
1000
,
0001
0100
0001
0100
0010
1000
0010
1000
0001
0010
0100
1000
0001
0010
0100
1000
,
0001
0001
0101
0200
0010
0310
1010
2000
,
0100
3100
1100
2000
0001
3001
1001
0020
,
0100
0130
0110
2000
0001
3001
0011
0020
,
0100
0130
1100
2000
0010
3010
0110
2000
,
0001
3001
1001
0002
1000
1003
1001
2000
,
0100
3100
0110
0020
0001
0031
0011
0000
,
0102
0010
0200
0000
,
0010
0000
1000
0303
,
00M1
0100
M101
0100
00M1
0100
M101
0010
,
1M00
0010
1010
1000
0M10
1000
101M
1000
,
01M0
1000
110M
1000
01M0
1000
110M
0100
,
M010
0001
0011
0010
M001
0010
0M11
0001
,
M100
0010
011M
0100
M010
0100
011M
0010
,
1M00
0001
1001
0001
10M0
0001
1M01
0000
,
2MM1
0000
0200
0000
,
0020
0000
0002
3333
,
1000
0100
1000
0000
0001
0000
0200
0000
0000
0000
0301
0010
0001
0010
0001
0000
,
0100
0000
0020
0000
0000
0000
1030
0000
0002
0000
0000
0000
1003
0010
1000
0010
,
1000
0001
0100
1000
0100
0001
0010
0100
,
1000
0001
1000
0001
0100
0001
1000
0001
0100
0000
0010
0000
1000
0000
0100
0000
,
1000
0010
0110
0000
1000
0100
1100
0000
,
0001
0100
0101
0000
1000
0100
0010
0100
,
1000
0001
0101
0000
0100
0010
0110
0000
,
1000
0010
1010
0000
0001
0010
1000
0010
,
0001
0100
0110
0000
1000
0100
0110
0000
,
0010
0100
1000
0100
0010
0100
1100
0000
,
1000
0100
0001
0100
1000
0010
0001
0010
,
0100
0001
0010
0100
1000
0010
0100
0001
,
0010
0010
0110
0000
0010
0001
0100
0001
,
0010
0010
0011
0000
1000
0010
0100
0010
,
1000
1000
1100
0000
0010
0100
0001
0100
,
0010
0010
1010
0000
0100
0010
0001
0010
,
0100
0100
1100
0000
0001
0100
1000
0100
,
0010
0010
2010
0000
3200
0000
1300
0001
,
1000
0001
0100
0010
0100
0001
1000
0100
0010
0100
1000
0001
0100
0010
0100
0001
,
1000
0010
0100
0010
1000
0001
0010
0100
1000
0100
0010
0001
1000
0010
0100
0001
,
2000
0000
0020
3000
0002
0000
0030
0020
,
0003
0000
0000
2030
0000
0000
0000
0000
0000
3100
1000
0100
1000
0000
0000
MM00
0000
0000
0011
0000
0000
0000
0000
0000
,
2000
0000
0020
3000
0002
0000
0030
2000
,
0003
0000
0000
0200
0000
0000
3000
0000
0000
0301
0100
0001
0100
0000
0000
0M0M
0000
0000
1010
0000
0000
0000
0000
0000
,
0001
0100
1000
0100
0001
0010
0100
0010
,
1000
0010
0100
0010
0001
0010
0100
1000
,
0100
0001
0100
0010
0100
1000
0010
0100
,
0010
0001
0010
1000
0100
1000
0010
0100
,
1000
0100
0010
0100
1000
0100
0001
0100
,
0010
1000
0100
0010
0100
1000
0001
0100
,
0040
M00M
4000
0030
,
0MM4
0MM0
0MM0
3MM3
,
1000
0100
0001
0100
1000
0010
0001
0010
,
1010
M0M0
0101
0M0M
0001
0010
0100
0010
,
1000
0010
0100
0010
0001
0010
0100
1000
,
1100
MM00
0101
0M0M
1000
0010
0100
0010
,
1000
0100
0001
0100
1000
0010
0100
0010
,
0110
0MM0
1001
M00M
0010
0100
0010
0000
,
2002
0000
0010
0003
0002
0000
0010
3003
,
2200
0000
0001
3300
,
0010
0100
0010
1000
0100
0001
0100
0010
,
0011
00MM
0101
0M0M
1000
0100
0010
1000
,
0100
0010
1000
0010
0001
0100
0010
1000
,
1001
M00M
0110
0MM0
0001
0010
1000
0010
,
0001
0100
1000
0100
0001
0010
0100
0010
,
0011
00MM
1010
M0M0
0001
0100
0010
0000
,
0202
0000
0010
0300
2000
0000
0010
3003
,
1001
0000
0001
2000
0000
3100
0010
0001
,
0012
1000
1003
0000
;

//---------------dance-single - C. Picardy----------------
#NOTES:
     dance-single:
     :
     Easy:
     4:
     0.337793,0.466268,0.301103,0.159408,0.000000,267.000000,233.000000,34.000000,18.000000,0.000000,0.000000,0.337793,0.466268,0.301103,0.159408,0.000000,267.000000,233.000000,34.000000,18.000000,0.000000,0.000000:
0000
0000
0000
0000
,
0000
0000
0000
0000
,
0000
0000
0000
0000
,
0000
0000
0000
0000
,
0000
0000
0200
0000
,
0320
0000
2030
0000
,
3001
0000
0100
0100
,
0200
0000
0300
0000
,
0002
0000
2003
0000
,
3100
0100
0010
0010
,
0110
0000
0001
1000
,
0010
0010
0100
0100
,
0101
0000
1000
0100
,
0010
0010
0001
1000
,
1001
0000
0010
0100
,
0002
0000
0000
0000
,
1003
0000
0100
0100
,
0010
0010
0001
0100
,
0010
0000
1000
0100
,
0010
0010
0100
1000
,
0010
0000
0100
0001
,
1000
1000
0001
0100
,
1000
0000
0100
0001
,
0020
0000
0001
0000
,
0130
0000
1001
0000
,
1000
0010
0100
0100
,
0011
0000
1000
0010
,
0100
0100
0001
1000
,
1010
0000
0100
0010
,
0001
0001
1000
0100
,
1001
0000
1000
0010
,
0120
0000
1000
0000
,
0100
0000
1030
0000
,
0001
0001
0000
0000
,
1000
1000
0000
0000
,
0100
0100
0000
0000
,
0010
0010
0001
1001
,
1000
0001
0000
1000
,
0100
0010
0000
0100
,
1000
0001
0000
0100
,
0010
1000
0000
0001
,
1000
0100
0000
0010
,
0001
0100
0000
0010
,
1000
0001
0000
1000
,
0100
0001
0000
0100
,
1000
1010
0000
0001
,
0010
0011
0000
1000
,
0100
1100
0000
0010
,
0100
0110
0000
0001
,
1000
0110
0000
0001
,
0100
1010
0000
0100
,
0010
0011
0000
1000
,
0010
0101
0000
0010
,
0100
0100
0200
0000
,
1300
0000
0001
0000
,
1000
1000
2000
0000
,
3010
0000
0100
0100
,
0001
0000
1000
1000
,
0100
0000
0010
0001
,
1000
1000
0000
0010
,
0100
0001
0010
0010
,
0001
0000
1000
0000
,
0100
1000
1000
0001
,
0020
0000
0230
0000
,
2300
0000
3001
0100
,
1001
0010
1000
0100
,
1001
0000
0010
0001
,
0101
1000
0100
1000
,
1010
0000
0001
0100
,
0110
1000
0100
0010
,
0011
0000
1000
0010
,
0210
0000
0010
0000
,
0302
0000
2003
0000
,
3001
0101
0100
0101
,
0100
0010
1000
0100
,
0110
0100
0110
0010
,
0110
1000
0001
0100
,
1010
0100
1010
0001
,
1010
0100
0010
0001
,
2001
0000
0010
0000
,
3100
0100
1000
0001
,
0110
0000
0000
0000
;

//---------------dance-single - C. Picardy----------------
#NOTES:
     dance-single:
     :
     Medium:
     6:
     0.508587,0.505234,0.345383,0.309959,0.000000,402.000000,363.000000,39.000000,35.000000,4.000000,0.000000,0.508587,0.505234,0.345383,0.309959,0.000000,402.000000,363.000000,39.000000,35.000000,4.000000,0.000000:
0000
0000
0000
0000
,
0000
0000
0000
0000
,
0000
0000
0000
0000
,
0000
0000
0000
0000
,
0000
0000
0001
0100
,
0020
1030
0200
0320
,
0032
0003
1000
1000
,
2000
0000
0000
0000
,
3002
0000
0203
0000
,
0310
0010
1000
1000
,
1100
0000
0100
0010
,
0001
0001
0100
0101
,
0101
0000
1000
0100
,
1000
0010
0100
0001
,
0010
0000
0000
0000
0100
0010
0100
0000
,
0010
0100
0010
0100
0010
0100
0010
0100
,
0020
0000
0100
0031
,
1000
0000
1010
0000
0001
0100
0010
0000
,
1001
0000
0100
0000
0010
1000
0100
0000
,
1000
0000
0011
0000
1000
0000
0001
0010
,
0100
0000
1001
0000
1000
0100
0010
0000
,
1000
0000
1100
0000
0001
0100
1000
0000
,
0101
0000
0010
0000
1000
0010
0100
0000
,
1002
0010
0100
0103
,
0022
0000
0000
0033
2200
0000
0000
3300
,
1000
0100
0001
0000
0100
0000
1000
0000
,
0110
0000
0100
0000
0001
0100
1000
0000
,
0100
0000
0001
0000
1010
0000
1000
0010
,
0001
0000
1100
0000
0100
0001
0010
0000
,
0100
0000
0011
0000
0001
0010
1000
0000
,
0110
0000
0001
0000
0001
0100
0010
0000
,
0120
1000
0001
0031
,
0200
1000
0010
0310
,
1000
0000
1M00
0001
0000
1000
00M1
0000
,
M100
0010
0000
0100
001M
0000
1000
0000
,
0001
0010
0001
0000
1000
0100
1000
0000
,
0001
0100
0001
0100
0010
0000
1001
0000
,
0100
0100
0001
0000
0010
0010
0100
0000
,
1000
1000
0001
0000
0100
0100
0010
0000
,
1000
1000
0100
0000
0010
0010
0001
0000
,
1000
1000
0010
0000
0100
0100
0001
0000
,
0010
0100
0100
0000
0100
0010
0010
0000
,
0001
1000
1000
0000
1000
0001
0001
0000
,
0010
0000
1000
0000
0100
1000
0010
0000
,
0100
0001
0010
0001
0010
0000
1100
0000
,
0001
0100
1000
0000
1000
0100
0001
0000
,
0001
0010
1000
0000
0010
0000
0100
0000
,
1000
0010
0001
0000
1000
0100
0001
0000
,
1000
0010
0001
0000
1000
0000
0100
0000
,
0001
0010
1000
0000
0001
0100
1000
0000
,
0001
0010
1000
0000
0001
0100
1000
0000
,
0001
0100
0001
0100
,
0010
0100
0010
0100
0010
0000
0110
0000
,
1000
0000
1000
0000
2000
0000
0000
3100
,
0000
0200
0000
0310
0100
0000
1001
0000
,
0001
0000
0001
0000
0002
0000
0000
0013
,
0000
0020
0000
0130
0010
0000
0110
0000
,
0002
0000
1003
0000
0100
0010
0100
0000
,
1000
0000
0010
0000
2000
0000
3100
0010
,
0100
0000
1000
0000
0010
0100
0010
0000
,
1000
0000
0001
0000
0200
0000
0310
0100
,
0010
0000
1000
0000
0001
0010
0001
0000
,
1000
0200
1000
1300
,
0001
0010
0100
0000
0010
0100
1000
0000
,
0001
0010
0100
1000
0010
0000
1001
0000
,
0100
0001
0010
0000
0100
0000
1000
0000
,
0011
0000
0100
0000
0010
1000
0100
0000
,
0110
0000
0001
0000
1000
0010
0100
0000
,
1001
0000
0100
0000
1000
0010
0100
0000
,
0101
0000
1000
0000
0100
0010
0001
0000
,
1100
0000
0010
0000
0001
0100
0010
0000
,
0201
0010
0001
0301
,
0020
0000
0100
0030
0002
0000
0010
0003
,
1000
0010
1000
0000
0001
0000
0101
0000
,
0220
0000
0330
0000
1000
0100
0010
0000
,
0100
1100
0001
0011
,
0202
0000
0303
0000
0010
1000
0100
0000
,
1001
0100
0010
1010
,
2200
0000
3300
0000
0010
1000
0100
0000
,
1002
0000
0010
0000
1000
0000
1000
0003
,
2000
0000
0001
0001
0000
3002
0000
0000
,
0100
0100
0103
0000
;

//---------------dance-single - C. Picardy----------------
#NOTES:
     dance-single:
     :
     Hard:
     8:
     0.606002,0.757851,0.327671,0.212544,0.030996,479.000000,442.000000,37.000000,24.000000,11.000000,0.000000,0.606002,0.757851,0.327671,0.212544,0.030996,479.000000,442.000000,37.000000,24.000000,11.000000,0.000000:
0000
0000
0000
0000
,
0000
0000
0000
0000
,
0000
0000
0000
0000
,
0000
0000
0000
0000
,
0000
0000
0001
1000
,
0100
0010
0010
0100
,
1000
0000
0001
0100
,
0020
0000
0000
0000
,
2030
0000
0002
3003
,
1000
1000
0010
1000
,
1100
0100
0010
0010
,
0011
0001
0100
0010
,
0110
0000
1000
0000
0001
1000
0100
0000
,
1000
0100
1000
0100
0010
0001
0010
0001
,
1000
0001
1000
0001
1000
0010
1000
0020
,
2000
0000
0000
0030
,
0200
3300
0010
1001
,
0001
0100
1000
0000
1000
0100
0001
0000
,
0001
0010
0100
1000
0010
0000
0101
0000
,
1000
0100
0001
0000
0001
0100
1000
0000
,
1000
0010
0001
0010
1000
0000
0110
0000
,
0001
0010
0100
0000
0100
0010
0001
0000
,
0010
0100
1000
0100
0010
0000
1001
0000
,
1200
0010
1000
1300
,
0002
0000
0010
0003
2000
0000
0010
3000
,
0001
0100
0010
1000
0100
1000
0010
0100
,
0001
0000
1100
0000
0010
0100
1000
0100
,
0010
0001
0010
0001
1000
0010
0100
0010
,
1000
0000
0110
0000
0001
0010
0100
0010
,
0001
0100
0001
0100
0010
1000
0010
1000
,
0100
0000
0011
0000
1000
0010
0100
0000
,
1020
0000
0100
0000
1000
1000
1030
0000
,
0002
0000
0010
0000
0100
0100
0103
0000
,
002M
0000
0000
0000
1M30
0000
0020
0000
000M
0000
1030
0001
1M00
0000
0000
0000
,
010M
0000
0020
0000
M000
0000
0130
0000
002M
0000
0000
0000
0031
1000
0001
0000
,
1000
0100
1000
0100
0010
0001
0010
0001
,
1000
0010
1000
0010
1000
0000
0001
0100
0001
0000
0000
0000
1001
0000
0000
0000
,
0100
0100
0010
0000
1000
0100
1000
0010
,
0100
0100
0001
0000
0010
0100
0010
0001
,
1000
1000
0100
0000
1000
0100
0001
0100
,
1000
1000
0010
0000
0001
0010
1000
0010
,
0100
0100
0001
0000
0001
0010
0100
1000
,
0010
0010
0100
0000
0001
0100
1000
0100
,
0001
0001
1000
0100
0010
0100
0001
0100
,
1000
0000
0101
0000
0010
0000
1000
0010
,
0100
0010
1010
0000
0001
0010
0100
0010
,
0001
0100
0110
0000
1000
0100
0010
0100
,
1000
0100
1100
0000
0001
0100
0010
0100
,
0001
0010
0011
0000
0100
0010
1000
0010
,
0100
0001
1001
0000
1000
0001
1000
0100
,
0010
0100
0110
0000
0100
1000
0010
0100
,
0004
0000
4003
0000
,
0400
0000
3300
0011
,
1000
0000
1000
0000
0200
0000
0000
0001
,
0000
0000
1000
0000
0300
0000
0010
0100
0010
0000
0000
0000
M11M
0000
0000
0000
,
0001
0000
0001
0000
0020
0000
0000
0100
,
0000
0000
1000
0000
0030
0000
0001
0010
0001
0000
0000
0000
1MM1
0000
0000
0000
,
0100
0100
0001
0100
0100
0001
0001
0100
,
0010
0010
0100
0000
0010
1000
1000
0010
,
1000
1000
0010
0010
1000
1000
0100
1000
,
0100
0100
1000
0000
0100
0010
0010
0001
,
0010
0010
0001
0001
0010
0001
0001
0010
,
0010
0001
0010
0000
0011
0000
1000
0000
,
0004
0000
0403
0000
,
0040
0000
0330
1001
,
1000
0100
0010
0100
1000
1000
0010
0100
,
0010
0000
0101
0000
0010
0001
0100
0010
,
0100
0100
0001
0010
0010
0100
1000
1000
,
0010
0000
1001
0000
1000
0001
0100
0010
,
1000
1000
0100
0010
0001
0001
0010
0100
,
1000
0011
0100
1010
,
1200
0010
0001
1300
,
0020
0000
0100
0030
2000
0000
0001
3000
,
0001
0100
1000
0100
0010
0100
0001
0010
,
0011
0000
1100
0000
0001
0010
0100
0010
,
0001
1000
0100
0010
0100
1000
0010
0100
,
0110
0000
1001
0000
0100
0010
1000
0100
,
0010
0100
0001
0100
1000
0010
0100
0001
,
0101
0000
1100
0000
0001
0100
0010
0000
,
2001
0000
0010
0000
0100
3000
1000
0100
,
0002
0000
0103
2000
0000
3001
0200
0000
,
0010
0010
0310
0000
;
