#TITLE:Come Clean;
#SUBTITLE:;
#ARTIST:Master Blaster;
#TITLETRANSLIT:;
#SUBTITLETRANSLIT:;
#ARTISTTRANSLIT:;
#GENRE:;
#CREDIT:;
#BANNER:comcleanbn.png;
#BACKGROUND:comcleanbg.png;
#LYRICSPATH:;
#CDTITLE:;
#MUSIC:comeclean.ogg;
#OFFSET:-0.342291;
#SAMPLESTART:16.482862;
#SAMPLELENGTH:13.599999;
#SELECTABLE:YES;
#BPMS:0.000000=142.000000
;
#STOPS:
;
#BGCHANGES:2.250=comeclean.mp4=1.000=1=0=0=StretchNoLoop==CrossFade==,
274.000=comcleanbg.png=1.000=1=0=1===CrossFade==,
99999=-nosongbg-=1.000=0=0=0 // don't automatically add -songbackground-
;
#KEYSOUNDS:;
#ATTACKS:;

//---------------dance-single - C. Picardy----------------
#NOTES:
     dance-single:
     :
     Beginner:
     1:
     0.099268,0.146178,0.025422,0.000000,0.000000,82.000000,79.000000,3.000000,0.000000,0.000000,0.000000,0.099268,0.146178,0.025422,0.000000,0.000000,82.000000,79.000000,3.000000,0.000000,0.000000,0.000000:
0000
0000
0000
0000
,
0000
0000
0000
0000
,
0000
0000
0000
0000
,
0000
0000
0000
0000
,
1000
0000
0000
0000
,
0001
0000
0000
0000
,
0100
0000
0000
0000
,
0010
0000
0000
0000
,
1000
0000
0000
0000
,
0001
0001
0000
0000
,
1001
0000
0000
0000
,
0100
0000
0000
0000
,
0010
0000
0000
0000
,
1000
0000
0000
0000
,
0001
0000
0000
0000
,
0100
0000
0000
0000
,
0010
0000
0000
0000
,
1000
0000
0000
0000
,
1001
0000
0001
0000
,
0001
0000
0000
0000
,
1000
0000
1000
0000
,
1000
0000
0000
0000
,
0100
0000
0100
0000
,
0100
0000
0000
0000
,
0010
0000
0000
0000
,
0100
0000
0000
0000
,
0010
0000
0010
0000
,
0010
0000
0000
0000
,
1000
0000
1000
0000
,
1000
0000
0000
0000
,
0001
0000
0001
0000
,
0001
0000
0000
0000
,
0100
0000
0100
0000
,
0100
0000
0000
0000
,
0010
0000
0000
0000
,
1000
0000
0000
0000
,
0001
0000
0000
0000
,
0100
0000
0000
0000
,
0010
0000
0000
0000
,
1000
0000
0000
0000
,
0001
0000
0000
0000
,
1000
0000
0000
0000
,
0100
0000
0000
0000
,
0010
0000
0000
0000
,
0001
0000
0000
0000
,
1000
0000
0000
0000
,
0100
0000
0000
0000
,
0010
0000
0000
0000
,
0001
0000
0000
0000
,
1000
0000
0000
0000
,
0010
0000
0000
0000
,
0100
0000
0000
0000
,
1000
1000
0000
0000
,
1001
0000
0000
0000
,
0100
0000
0000
0000
,
0010
0000
0000
0000
,
1000
0000
0000
0000
,
0001
0000
0000
0000
,
1000
0000
0000
0000
,
0100
0000
0000
0000
,
0010
0000
0000
0000
,
1000
0000
1000
0000
,
1000
0000
0000
0000
,
0001
0000
0001
0000
,
0001
0000
0000
0000
,
0100
0000
0100
0000
,
0100
0000
0000
0000
,
0010
0000
0010
0000
,
0010
0000
0000
0000
,
0100
0000
0000
0000
;

//---------------dance-single - C. Picardy----------------
#NOTES:
     dance-single:
     :
     Easy:
     3:
     0.232432,0.292356,0.093215,0.076267,0.000000,192.000000,181.000000,11.000000,9.000000,0.000000,0.000000,0.232432,0.292356,0.093215,0.076267,0.000000,192.000000,181.000000,11.000000,9.000000,0.000000,0.000000:
0000
0000
0000
0000
,
0000
0000
0000
0000
,
0000
0000
0000
0000
,
0000
0000
0000
0000
,
0010
0000
0100
0000
,
1000
0000
0001
0000
,
0100
0000
0010
0000
,
2000
0000
0000
0000
,
3002
0000
0100
0000
,
0103
0100
0100
0000
,
1001
1000
1000
0000
,
0100
0000
0010
0000
,
0001
0001
0001
0000
,
1000
0000
0010
0000
,
0100
0010
0100
0010
,
1000
0000
0001
0000
,
0010
0010
0010
0000
,
0100
0000
1000
0000
,
0110
0100
0010
0000
,
0001
0000
1000
0000
,
0010
0100
0001
0000
,
0010
0000
0100
0000
,
1000
0001
1000
0001
,
0100
0010
0100
0010
,
1000
0000
0001
0000
,
0200
0000
0000
0300
,
1001
0000
0110
0000
,
1001
0000
0100
0010
,
1010
0000
0011
0000
,
1100
0000
0001
0100
,
0010
0100
0010
0100
,
0001
1000
0001
1000
,
0100
1000
0100
1000
,
0001
0010
0001
0010
,
0002
0000
0003
0000
,
1000
1000
1000
0000
,
0010
0000
0100
0100
,
0100
0000
0001
0000
,
1000
0000
0100
0100
,
0010
0000
0001
0000
,
1000
0000
0010
1000
,
0010
0000
0100
0000
,
0001
0001
0001
0001
,
1001
0000
0100
0010
,
1000
0000
0001
0001
,
1000
0100
0010
0000
,
0001
0000
1000
1000
,
0001
1000
0100
0000
,
0010
0001
0010
0100
,
1000
0001
0100
0010
,
2002
0000
0000
3003
,
0220
0000
0000
0330
,
0010
0010
0010
0000
,
0100
0001
0100
0000
,
0010
0000
1000
0000
,
0001
0010
0001
0000
,
1000
0000
0100
0000
,
1000
0010
0100
0010
,
1000
0000
0001
0000
,
0010
0100
1000
0000
,
0010
0000
0100
0000
,
0001
0100
0010
1000
,
0100
0100
0100
0010
,
0001
1000
0100
0010
,
0001
0001
0001
1000
,
0010
0100
0001
0001
,
1000
1000
1000
0100
,
0010
0010
0010
0000
,
0001
0000
0200
0000
,
0300
0000
0000
0000
;

//---------------dance-single - C. Picardy----------------
#NOTES:
     dance-single:
     :
     Medium:
     5:
     0.348648,0.409298,0.220326,0.101689,0.000000,288.000000,262.000000,26.000000,12.000000,0.000000,0.000000,0.348648,0.409298,0.220326,0.101689,0.000000,288.000000,262.000000,26.000000,12.000000,0.000000,0.000000:
0000
0000
0000
0000
,
0000
0000
0000
0000
,
0000
0000
0000
0000
,
0000
0000
0001
1000
,
0100
0000
0000
0100
0000
0000
0010
0000
,
0001
0001
1000
0020
,
0000
0100
1000
1030
,
0002
0100
0100
0103
,
0020
1000
0100
1030
,
0001
1000
0001
0000
0100
0000
0000
0000
,
1001
0100
1001
0010
,
1000
0010
0000
1000
0000
0000
0001
0000
,
0101
0100
0101
0001
,
1000
0000
0010
1000
0000
0000
0100
0000
,
1100
0000
0100
0000
0110
0000
0010
0001
,
0000
0100
0000
0010
0000
0000
1000
0000
,
1001
0000
0001
0000
1001
0000
0000
0100
,
0010
0100
0000
0010
0000
0000
1000
0000
,
0101
0100
0010
1000
,
0001
0010
0000
0001
0000
0000
1000
0000
,
0100
1000
0010
0100
,
0001
0000
0100
0010
0000
1000
0001
0000
,
1000
0000
0100
0010
0100
0000
1000
0000
,
0001
0000
0001
0000
0100
0000
0010
0100
,
0010
1000
1000
0000
,
0002
0000
0000
2000
0000
0000
3003
0000
,
0001
0100
0010
0100
,
0001
0000
0010
0000
0100
1000
0100
0000
,
0010
0100
1000
0010
,
0100
0000
0001
0000
0010
0001
0010
0000
,
0100
1100
0001
0101
,
1000
0000
1010
0000
0001
0100
0001
0000
,
1000
0000
0100
0000
1000
0100
1000
0100
,
2000
0000
3020
0000
,
0130
0000
0000
0000
,
1000
0010
0100
0010
,
1000
0000
0001
0000
0010
0100
0010
0000
,
0001
1000
0010
0010
,
0100
0000
0100
0000
0001
0100
0010
0000
,
1000
1010
0001
1010
,
0001
0101
1000
0101
,
0100
0011
1000
0011
,
1000
1000
1000
0000
2000
0000
0000
0000
,
3001
0100
0010
0100
,
0010
0000
1000
0000
0100
1000
0010
0000
,
0100
0001
0010
0100
,
0010
0000
0001
0000
1000
0010
0100
0000
,
0001
0010
0100
1000
,
0010
0000
0100
0000
0001
0100
0020
0000
,
1000
0100
0100
1030
,
0200
0010
0010
0301
,
0020
0000
0100
0000
,
0130
1000
0001
0000
0100
0000
0000
0000
,
1001
0100
0010
1000
,
0001
0001
0000
0001
0000
0000
1000
0000
,
0100
0010
0001
0100
,
0010
0010
0000
0010
0000
0000
1000
0000
,
0100
0000
1000
0000
0010
0000
0100
0001
,
0000
0001
0000
0001
0000
0000
1000
0000
,
0100
0000
0010
0000
0011
0000
0000
1000
,
0001
0100
0000
0010
0000
0000
0100
0000
,
1001
0010
0011
1000
,
0001
0100
0000
0010
0000
0000
1000
0000
,
1100
0010
0101
1000
,
0100
0010
0000
0100
0000
0000
1000
0000
,
0101
0000
0010
0000
1010
0000
0100
0001
,
0000
1000
0000
0100
0000
0010
0100
0000
,
0010
0001
0100
0000
,
0010
1000
0000
2000
0000
0000
0000
0000
,
3000
0000
0000
0000
;

//---------------dance-single - C. Picardy----------------
#NOTES:
     dance-single:
     :
     Hard:
     7:
     0.463653,0.526240,0.296593,0.127111,0.063556,383.000000,348.000000,35.000000,15.000000,0.000000,0.000000,0.463653,0.526240,0.296593,0.127111,0.063556,383.000000,348.000000,35.000000,15.000000,0.000000,0.000000:
0000
0000
0000
0000
,
0000
0000
0000
0000
,
0000
0000
0000
0000
,
0000
0000
0000
0000
0010
1000
0100
0000
,
0020
0000
0001
0031
0000
0000
1000
0010
,
0000
0100
0000
0010
0000
1000
0001
0000
,
0100
0001
0100
0001
0100
0001
0100
0000
,
0010
1000
0010
1000
0010
1000
0010
1000
,
0200
0010
0001
1300
,
0011
0000
1100
0000
0000
0010
0100
0000
,
1001
0000
0100
0000
1001
0000
0000
0010
,
0100
0010
0000
1000
0000
0001
0100
0000
,
0110
0000
1000
0000
0110
0000
0000
0001
,
0100
1000
0000
0100
0000
0001
0010
0200
,
0000
1300
1000
0100
0010
0001
0001
0100
,
0000
0010
0000
0100
0000
0001
0100
0020
,
0000
0000
1030
0000
1001
0000
0000
0010
,
0100
0010
0000
0100
0000
0010
1000
0000
,
0101
0010
0101
1000
,
0001
0010
0100
0010
0001
0010
0100
0000
,
1100
0010
0101
1000
,
0010
0100
0001
0100
0010
0100
0001
2000
,
0000
3001
0001
0100
0010
0010
1000
0100
,
0000
0010
0000
0001
0000
1000
0010
0100
,
0010
1010
0001
0011
,
1000
0000
0000
0100
0000
0000
0200
0000
0000
0000
0010
0000
0310
0000
0001
0000
,
0100
0000
0000
0010
0000
0000
0100
0000
0001
0000
0000
1000
0000
0000
0100
0000
,
1000
0000
0000
0001
0000
0000
0100
0000
0010
0000
0010
0000
1000
0000
1000
0000
,
0100
0000
0000
0010
0000
0000
0100
0000
1000
0000
0000
0001
0000
0000
0100
0000
,
0010
0000
0000
1000
0000
0000
0001
0000
1000
0000
1000
0000
0001
0000
0001
0000
,
0100
0000
0000
0101
0000
0000
1000
0000
0100
0000
0000
1100
0000
0000
0010
0000
,
0100
0000
0000
0110
0000
0000
0001
0000
1000
0000
0100
0000
0010
0000
0001
0000
,
0001
0000
0000
0011
0000
0000
1000
0000
0010
0000
0000
1010
0000
0000
0001
0000
,
0200
0000
0000
0010
0000
0000
0010
0000
0310
0000
0000
0000
0100
0000
0000
0000
,
1001
0000
0000
0000
,
0100
0010
0100
0001
,
0010
0000
0100
0000
1000
0100
0010
0100
,
1000
0010
0100
0001
,
0010
0000
0100
0000
0010
0001
0100
0001
,
0010
1100
0010
0101
,
1000
0110
0001
1100
,
0001
0110
1000
0101
,
1000
0001
1000
0002
2000
0000
3003
0000
,
1000
0101
0010
0110
,
1000
0010
0100
0000
0001
0010
0100
0010
,
0001
0101
0010
1010
,
1000
0100
0010
0000
0100
1000
0010
0100
,
0001
1100
0010
0101
,
0001
0010
0100
1000
0100
0010
0001
0000
,
1000
0110
0001
0110
,
2010
0000
0010
0000
0010
0000
3010
0100
,
0002
1000
1000
1003
,
0010
0000
0100
0000
0000
0001
0100
0010
,
1000
0000
1000
0000
1000
0000
1000
0100
,
0010
0001
0000
0001
0000
1000
0100
0000
,
0010
0000
0010
0000
0010
0000
0010
0001
,
0100
0000
0010
0100
0000
0001
1000
0200
,
0000
0010
0310
0100
1000
0001
0100
0010
,
0000
1000
0000
0001
0000
1000
0100
2000
,
0000
0000
0010
0000
3010
0000
0000
0100
,
0010
0000
0000
1000
0000
0000
1001
0000
0000
0000
0100
0000
0010
0000
0000
0000
,
0001
0100
1000
0100
0001
0100
1000
0100
,
0001
1000
0000
0100
0000
0010
0100
0000
,
1000
0100
0001
0100
1000
0100
0001
0100
,
1000
0000
0010
0100
0000
0010
1000
0100
,
0010
0001
0010
0100
0010
0001
0010
0100
,
1000
0100
0010
0100
1000
0100
0010
0002
,
0000
0000
0103
0000
0010
0000
0000
1000
,
0001
0000
0000
0100
0000
0000
0002
0000
0000
0000
0000
0000
0000
0000
0000
0000
,
0003
0000
0000
0000
;

//---------------dance-single - C. Picardy----------------
#NOTES:
     dance-single:
     :
     Challenge:
     9:
     0.639187,0.760124,0.271170,0.338963,0.305067,528.000000,496.000000,32.000000,40.000000,3.000000,16.000000,0.639187,0.760124,0.271170,0.338963,0.305067,528.000000,496.000000,32.000000,40.000000,3.000000,16.000000:
0000
0000
0000
0000
,
0000
0000
0000
0000
,
0000
0000
0000
0000
,
0000
0000
0000
0000
0001
0010
0100
1000
,
0020
0000
0100
0230
0000
0000
0001
0302
,
0000
2003
0000
3200
0000
1300
0020
0000
,
0100
0000
1000
0000
0130
0001
0100
0001
,
0010
0100
0010
0100
1000
0100
1000
0100
,
0010
0001
0010
0001
0010
0100
0010
0100
1000
0001
1000
0001
0100
0001
0100
0001
,
0100
0010
1000
0000
0001
0100
0010
2000
,
0200
0000
0010
0000
0001
3300
1000
0010
,
0100
0002
0000
0013
0000
0100
1000
0002
,
0200
0000
0010
0000
1000
0303
0001
0100
,
0110
0000
0000
1010
0000
0000
1001
0000
0000
0000
1000
0000
0001
0000
0200
0000
,
0000
0010
0310
1000
0001
0100
0010
2000
,
0000
0002
0000
0010
3003
0100
1000
0001
,
0002
0000
0200
0000
1000
0000
0303
0010
,
0100
0000
0000
1010
0000
0000
0110
0000
0000
0000
0001
0000
1000
0000
0100
0000
,
1001
0100
0001
0100
1000
0100
0010
1000
,
1000
0100
0010
0010
0001
1000
0010
0100
,
0001
0100
0010
0100
1000
0100
0001
0010
,
0011
0000
0000
0110
0000
0000
1100
0000
0000
0000
0001
0000
1000
0000
0200
0000
,
1000
1300
0020
0001
0001
0031
0010
1000
,
0100
1000
0001
0100
1000
0100
0010
1000
,
2010
0000
0200
0000
0001
3300
0010
0100
,
1000
0000
0000
0002
0000
0000
0203
0000
0000
0000
0010
0000
0010
0000
0310
0000
,
1001
0000
0000
0101
0000
0000
0100
0000
0110
0000
0000
1010
0000
0000
0001
1000
,
0100
0000
0000
0011
0000
0000
1000
0000
0010
0000
0010
0000
0110
0000
0100
0000
,
0101
0000
0000
1100
0000
0000
0001
0000
0011
0000
0000
1010
0000
0000
0001
0100
,
0010
0000
0000
1001
0000
0000
0100
0000
0110
0000
0010
0000
1010
0000
1000
0000
,
1100
0000
0000
0011
0000
0000
0100
0000
0101
0000
0000
1010
0000
0000
0010
1000
,
0100
0000
0000
0010
0000
0000
0001
0000
0011
0000
0001
0000
0101
0000
0100
0000
,
0010
1000
0010
1000
0100
1000
0100
1000
0001
0010
0001
0010
0100
1000
0100
1000
,
0020
0000
0000
0230
0000
0000
0301
0000
0001
0000
0100
0000
1000
0000
0100
0000
,
0202
0000
M000
0000
00M0
0000
M303
0010
,
1000
0100
0001
0100
1000
0100
0001
0100
,
1000
1000
0010
0010
0100
0001
0010
0001
,
1000
0010
0100
0010
0001
0010
0100
0010
,
1000
1000
0100
0100
0001
0100
1000
0010
,
0100
0001
0010
0001
0100
0001
0010
0100
,
1000
0010
1000
0100
1000
0010
1000
0001
,
0100
0100
0010
0010
1000
1000
0001
0001
,
1000
0000
1000
0000
1000
0000
1000
0000
0001
0100
0001
0100
0001
0000
0100
0000
,
0010
0000
1000
0010
1000
0000
0001
0000
0100
0000
0001
0010
0001
0000
1000
0000
,
0100
0000
1000
0100
1000
0000
0010
0000
0100
0000
0010
1000
0010
0000
0100
0000
,
0001
0000
0010
0001
0010
0000
0100
0000
1000
0000
0001
0100
0001
0000
1000
0000
,
0100
0000
0010
0100
0010
0000
0100
0000
1000
0000
0001
1000
0001
0000
0100
0000
,
0010
0000
1000
0010
0100
0000
0001
0000
1000
0000
0100
0010
0001
0000
1000
0000
,
0010
0000
0100
0001
1000
0000
0010
0000
0100
0000
0001
0010
0100
0000
1000
0000
,
0001
0000
0010
0100
1000
0000
0001
0000
0100
0000
0010
1000
0001
0000
0010
0000
,
0100
0100
1000
1000
0100
0100
1000
0010
,
0100
0001
0100
0001
0100
0010
0100
0010
1000
0010
1000
0010
1000
0100
1000
0100
,
0010
0100
1000
0000
0001
0100
0010
2000
,
0200
0000
0010
0000
0001
3300
0010
0001
,
1000
0020
0000
0130
0000
0010
0100
0002
,
0200
0000
1000
0000
0010
0303
0100
0010
,
1000
0000
0000
0001
0000
0000
1001
0000
0000
0000
1000
0000
0001
0000
0200
0000
,
0000
0010
0310
1000
0001
0100
0020
0200
,
0000
1000
0000
1000
0330
0001
0100
0002
,
2000
0000
0010
0000
0010
3003
1000
0100
,
0010
0000
0000
0100
0000
0000
0011
0000
0000
0000
1000
0000
0100
0000
0010
0000
,
0001
0000
0100
0001
0100
0000
0010
0000
1000
0000
0010
1000
0010
0000
0100
0000
,
0001
0000
1000
0010
1000
0000
0100
0000
1000
0000
0001
0010
0001
0000
1000
0000
,
0001
0000
0100
0010
0100
0000
0001
0000
1000
0000
0100
0010
0100
0000
1000
0000
,
0010
0000
0100
0001
1000
0000
0010
0000
0100
0000
0001
1000
0100
0000
0010
0000
,
0100
0000
1000
0100
0010
0000
0001
0000
1000
0000
0010
0100
0001
0000
1000
0000
,
0100
0000
0010
0001
0100
0000
0010
0000
1000
0000
0001
0100
0010
0000
0200
0000
,
0000
0000
0002
0000
0010
0000
0303
0010
,
1000
0000
0000
0200
0000
0000
0020
0000
0000
0000
0000
0000
0000
0000
0000
0000
,
0330
0000
0000
0000
;
